VERSION	0.00.00	1.04.00
FES_MODE	0
BPM_DEF	133.000	133.000	133.000	133.000
MET_DEF	4	4
RESOLUTION	384
CLK_DEF	384
COMPATIBLE_CODE	MA2

BPM	0	0	133.000
MET	0	0	4	4

NMTAP	6	0	4
NMTAP	6	192	4
NMTAP	7	0	4
NMTAP	8	0	3
NMTAP	8	192	3
NMTAP	9	0	3
NMTAP	9	0	4
NMTAP	10	0	3
NMTAP	10	192	3
NMTAP	11	0	2
NMTAP	11	192	2
NMTAP	12	0	1
NMTAP	12	192	1
NMTAP	13	0	0
NMTAP	13	0	1
NMTAP	14	0	7
NMTAP	14	192	7
NMTAP	15	0	6
NMTAP	15	192	6
NMTAP	16	0	5
NMTAP	16	192	5
NMTAP	17	0	4
NMTAP	17	0	5
NMTAP	18	0	5
NMTAP	18	192	5
NMTAP	19	0	3
NMTAP	19	0	4
NMTAP	19	192	3
NMTAP	19	192	4
NMTAP	20	0	2
NMTAP	20	192	2
NMTAP	21	0	3
NMTAP	21	0	4
NMTTP	22	0	4	B	0	L1
NMTTP	23	0	3	B	0	L1
NMTTP	24	0	5	B	0	L1
NMTTP	25	0	2	B	0	L1
NMTTP	26	0	6	B	0	L1
NMTTP	27	0	1	B	0	L1
NMTHO	28	0	0	384	C	1	L1
NMTAP	30	0	0
NMTAP	30	96	0
NMTAP	30	192	0
NMTAP	31	0	1
NMTAP	31	192	1
NMTAP	32	0	2
NMTAP	32	96	2
NMTAP	32	192	2
NMTAP	33	0	2
NMTAP	33	0	3
NMTAP	34	0	4
EXTAP	34	96	4
NMTAP	34	192	4
NMTAP	35	0	5
NMTAP	35	192	5
NMTAP	36	0	6
NMTAP	36	96	6
NMTAP	36	192	6
NMTAP	37	0	6
NMTAP	37	0	7
NMTAP	38	0	6
NMTAP	38	192	6
NMTAP	39	0	6
NMTAP	39	0	7
NMTAP	39	192	6
NMTAP	39	192	7
NMTAP	40	0	5
NMTAP	40	192	5
NMTAP	41	0	3
NMTAP	41	0	4
NMTAP	41	192	3
NMTAP	41	192	4
NMTAP	42	0	2
NMTAP	42	192	2
NMTAP	43	0	2
NMTAP	43	0	3
NMTAP	43	192	2
NMTAP	43	192	3
NMTAP	44	0	1
NMTAP	44	192	1
NMTAP	45	0	0
NMTAP	45	0	7
NMHLD	46	0	0	384
NMHLD	46	0	1	384
NMHLD	48	0	2	384
NMHLD	48	0	3	384
NMHLD	50	0	4	384
NMHLD	50	0	5	384
NMHLD	52	0	6	384
NMHLD	52	0	7	384
EXTAP	54	0	0
EXTAP	54	0	7
NMSTR	55	0	7
NMSI_	55	0	7	96	288	3
NMSTR	57	0	0
NMSI_	57	0	0	96	288	4
NMSTR	59	0	6
NMSI_	59	0	6	96	288	2
NMSTR	61	0	1
NMSI_	61	0	1	96	288	5
BRTAP	63	0	7
NMTAP	63	96	7
NMTAP	63	192	7
NMTAP	64	0	6
NMTAP	64	96	6
NMTAP	64	192	6
NMTAP	65	0	5
NMTAP	65	96	5
NMTAP	65	192	5
NMTAP	66	0	4
NMTAP	66	0	5
NMTAP	66	192	4
NMTAP	66	192	5
NMTAP	67	0	3
EXTAP	67	96	3
NMTAP	67	192	3
NMTAP	68	0	2
NMTAP	68	96	2
NMTAP	68	192	2
NMTAP	69	0	1
NMTAP	69	96	1
NMTAP	69	192	1
NMTAP	70	0	0
NMTAP	70	0	1
NMTAP	70	192	0
NMTAP	70	192	1
NMTAP	71	0	0
NMTAP	71	96	0
NMTAP	71	192	0
NMTAP	72	0	0
NMTAP	72	0	1
NMTAP	72	96	0
NMTAP	72	96	1
NMTAP	72	192	0
NMTAP	72	192	1
NMTAP	73	0	2
NMTAP	73	96	2
NMTAP	73	192	2
NMTAP	74	0	3
NMTAP	74	0	4
NMTAP	74	96	3
NMTAP	74	96	4
NMTAP	74	192	3
NMTAP	74	192	4
NMTAP	75	0	4
NMTAP	75	96	4
NMTAP	75	192	4
NMTAP	76	0	4
NMTAP	76	0	5
NMTAP	76	96	4
NMTAP	76	96	5
NMTAP	76	192	4
NMTAP	76	192	5
NMTAP	77	0	6
NMTAP	77	96	6
NMTAP	77	192	6
NMTAP	78	0	0
NMTAP	78	0	7
NMTTP	79	0	0	B	0	L1
NMTTP	79	0	7	B	0	L1
NMTTP	80	0	1	B	0	L1
NMTTP	80	0	6	B	0	L1
NMTTP	81	0	2	B	0	L1
NMTTP	81	0	5	B	0	L1
NMTHO	82	0	0	336	C	0	L1
NMTTP	82	0	3	B	0	L1
NMTTP	82	0	4	B	0	L1

T_REC_TAP	130
T_REC_BRK	1
T_REC_XTP	4
T_REC_BXX	0
T_REC_HLD	8
T_REC_XHO	0
T_REC_BHO	0
T_REC_BXH	0
T_REC_STR	4
T_REC_BST	0
T_REC_XST	0
T_REC_XBS	0
T_REC_TTP	14
T_REC_THO	2
T_REC_SLD	4
T_REC_BSL	0
T_REC_ALL	167
T_NUM_TAP	152
T_NUM_BRK	1
T_NUM_HLD	10
T_NUM_SLD	4
T_NUM_ALL	167
T_JUDGE_TAP	153
T_JUDGE_HLD	79
T_JUDGE_SLD	4
T_JUDGE_ALL	236
TTM_EACHPAIRS	34
TTM_SCR_TAP	76000
TTM_SCR_BRK	2600
TTM_SCR_HLD	10000
TTM_SCR_SLD	6000
TTM_SCR_ALL	94600
TTM_SCR_S	91700
TTM_SCR_SS	94500
TTM_RAT_ACV	10010

