VERSION	0.00.00	1.04.00
FES_MODE	0
BPM_DEF	170.000	170.000	170.000	170.000
MET_DEF	4	4
RESOLUTION	384
CLK_DEF	384
COMPATIBLE_CODE	MA2

BPM	0	0	170.000
MET	0	0	4	4

NMTTP	1	0	5	E	0	M1
NMTTP	1	96	3	E	0	M1
NMTAP	1	192	5
NMTAP	1	240	4
EXTAP	1	288	3
EXTAP	1	336	2
NMSTR	2	0	1
NMSLR	2	0	1	96	96	5
NMTAP	2	96	4
NMSTR	2	192	7
NMSCL	2	192	7	96	96	3
NMTAP	2	288	4
NMSTR	3	0	1
NMSLR	3	0	1	96	96	5
NMTAP	3	96	4
NMSTR	3	192	7
NMSCL	3	192	7	96	96	2
NMSTR	3	288	2
NMSLR	3	288	2	96	96	6
BRTAP	4	0	0
CNSI_	4	96	6	0	96	0
NMTAP	4	192	4
NMTAP	4	288	5
NMTAP	5	0	3
NMTAP	5	0	6
NMTAP	5	96	2
NMTAP	5	96	5
NMTAP	5	192	0
NMTAP	5	192	7
NMTAP	5	240	2
NMTAP	5	240	5
BRTAP	5	288	3
BRTAP	5	288	4
NMSTR	6	0	1
NMSCR	6	0	1	96	192	5
NMSTR	7	0	6
NMSLL	7	0	6	96	192	2
NMSTR	8	0	1
NMSUR	8	0	1	96	288	4
CNSCR	9	0	4	0	192	0
NMSTR	10	0	6
NMSI_	10	0	6	96	96	2
NMSTR	10	192	0
NMSI_	10	192	0	96	96	4
NMSTR	11	0	5
NMSCR	11	0	5	96	192	3
NMTTP	12	0	2	E	0	M1
NMTTP	12	96	3	E	0	M1
NMTTP	12	192	4	E	0	M1
NMTTP	12	288	5	E	0	M1
NMTTP	13	0	6	E	0	M1
NMSTR	13	96	7
NMSF_	13	96	7	96	96	3
NMHLD	14	0	1	192
NMHLD	14	192	3	192
NMHLD	15	0	4	192
NMTAP	15	192	6
NMTAP	15	288	6
NMHLD	16	0	6	192
NMHLD	16	192	4	192
NMHLD	17	0	3	192
NMTAP	17	192	1
NMTAP	18	0	2
NMHLD	18	96	2	96
NMTAP	18	192	0
NMHLD	18	288	0	96
NMTAP	19	0	7
NMHLD	19	96	7	96
NMTAP	19	192	5
NMHLD	20	0	0	384
NMHLD	20	192	7	192
EXHLD	21	288	2	48
EXHLD	21	288	3	48
NMSTR	22	0	1
NMSI_	22	0	1	96	48	5
NMTAP	22	48	1
NMSTR	22	96	4
NMSI_	22	96	4	96	48	7
NMTAP	22	144	4
NMSTR	22	192	0
NMSCR	22	192	0	96	48	3
NMTAP	22	240	0
BRTAP	22	288	7
NMHLD	23	0	6	192
NMTAP	23	96	4
NMTAP	23	144	3
NMHLD	23	192	2	288
NMTAP	23	288	4
NMTAP	23	336	5
NMHLD	24	0	6	96
NMTAP	24	192	5
NMTAP	24	264	5
NMTAP	24	288	3
NMTAP	24	360	3
NMHLD	25	0	7	144
NMTAP	25	144	4
NMTAP	25	192	4
NMTAP	25	240	6
NMTAP	25	288	6
NMTAP	25	336	2
NMTAP	26	0	3
NMTAP	26	48	1
NMTAP	26	96	5
NMTAP	26	144	4
NMTAP	26	192	6
EXTAP	26	240	0
EXTAP	26	288	0
NMHLD	27	0	5	96
NMTAP	27	96	7
NMTAP	27	144	0
NMHLD	27	192	1	96
NMTAP	27	288	3
NMHLD	28	0	2	96
NMHLD	28	96	0	96
NMHLD	28	192	6	96
NMTAP	28	288	4
NMTAP	29	0	7
NMTAP	29	48	0
NMTAP	29	96	1
NMTAP	29	144	2
NMTAP	29	192	3
NMTAP	29	240	4
NMTAP	29	288	5
NMSTR	30	0	6
NMSI_	30	0	6	96	48	4
NMSTR	30	0	7
NMSI_	30	0	7	96	48	3
NMTAP	30	96	6
NMTAP	30	96	7
NMSTR	30	192	0
NMSUR	30	192	0	96	48	4
NMSTR	30	192	1
NMSCR	30	192	1	96	48	3
NMTAP	30	288	0
NMTAP	30	288	1
NMSTR	31	0	5
NMSCR	31	0	5	96	192	1
NMTAP	31	96	3
NMTAP	31	192	4
CNSCL	31	288	1	0	288	5
NMTAP	31	288	4
NMHLD	32	0	3	96
NMTAP	32	192	2
NMTAP	32	288	3
NMSTR	33	0	2
NMSCL	33	0	2	96	192	6
NMTAP	33	96	4
NMTAP	33	192	3
NMTAP	33	288	3
CNSCR	33	288	6	0	288	2
NMTAP	34	0	4
NMTAP	34	96	4
NMTAP	34	192	5
NMTAP	34	288	0
NMSTR	35	0	6
NMSCL	35	0	6	96	48	3
NMTAP	35	24	7
NMTAP	35	48	6
NMTAP	35	72	7
NMTAP	35	96	6
NMSTR	35	192	1
NMSCR	35	192	1	96	48	4
NMTAP	35	216	0
NMTAP	35	240	1
NMTAP	35	264	0
NMTAP	35	288	1
NMSTR	36	0	6
NMSI_	36	0	6	96	48	2
NMTAP	36	24	7
NMTAP	36	48	6
NMTAP	36	72	7
NMTAP	36	96	6
NMSTR	36	192	1
NMSI_	36	192	1	96	48	5
NMTAP	36	216	0
NMTAP	36	240	1
NMTAP	36	264	0
NMTAP	36	288	1
NMHLD	37	0	7	96
NMTAP	37	96	5
NMTAP	37	192	3
NMTAP	37	192	5
NMSTR	37	288	6
NMSLL	37	288	6	96	96	2
NMSTR	37	336	2
NMSLL	37	336	2	96	96	6
BRTAP	38	144	4
BRTAP	38	192	0
NMHLD	39	0	6	192
NMHLD	39	192	4	192
NMHLD	40	0	2	192
NMHLD	40	192	0	192
NMHLD	41	0	6	192
NMHLD	41	192	4	192
NMHLD	42	0	2	192
BRTAP	42	192	0
NMHLD	43	0	7	576
NMTAP	43	144	4
NMTAP	43	192	4
NMTAP	43	288	3
NMTAP	44	0	5
NMTAP	44	96	6
NMTAP	44	192	1
NMHLD	44	288	0	480
NMTAP	45	0	3
NMTAP	45	96	2
NMTAP	45	192	6
NMTAP	45	288	1
BRTAP	46	0	3
BRTAP	46	96	1
BRTAP	46	96	5
BRTAP	46	192	2
BRTAP	46	192	6
NMSTR	46	288	0
BRSI_	46	288	0	96	48	4
NMSTR	46	288	7
NMSI_	46	288	7	96	48	5
NMSTR	47	0	0
BRSI_	47	0	0	96	48	2
NMSTR	47	0	7
NMSI_	47	0	7	96	48	3
NMSTR	47	96	0
BRSI_	47	96	0	96	48	4
NMSTR	47	96	7
NMSI_	47	96	7	96	48	5
NMSTR	47	192	0
BRSI_	47	192	0	96	48	2
NMSTR	47	192	7
NMSI_	47	192	7	96	48	3
NMTAP	47	288	0
NMTAP	47	288	7
NMTAP	48	0	0
NMTAP	48	0	7
NMSTR	48	96	6
BRSLL	48	96	6	96	96	2
NMSTR	48	192	2
BRSLL	48	192	2	96	96	6
NMTAP	48	288	6
NMTAP	49	0	2
NMSTR	49	96	1
BRSCR	49	96	1	96	96	5
NMSTR	49	192	5
BRSCR	49	192	5	96	96	1
NMTAP	49	288	1
NMTAP	50	0	5
NMTAP	50	96	7
NMTAP	50	144	7
NMTAP	50	192	0
NMTAP	50	192	6
NMSTR	50	288	5
NMSCR	50	288	5	96	96	1
NMTAP	51	0	3
NMSTR	51	96	2
NMSCL	51	96	2	96	96	6
NMTAP	51	192	4
NMSTR	51	288	5
NMSI_	51	288	5	96	48	0
NMSTR	52	0	4
NMSI_	52	0	4	96	48	1
NMSTR	52	96	6
NMSV_	52	96	6	96	48	3
NMHLD	52	192	0	96
EXTAP	52	288	4
NMTAP	53	0	2
NMTAP	53	0	3
NMSTR	53	96	0
NMSI_	53	96	0	96	48	4
NMSTR	53	96	1
NMSI_	53	96	1	96	48	5
NMTAP	53	288	4
NMSTR	53	288	6
NMSI_	53	288	6	96	48	4
NMTAP	54	0	6
NMSTR	54	0	7
NMSI_	54	0	7	96	48	3
NMSTR	54	96	0
NMSI_	54	96	0	96	48	2
NMTAP	54	96	7
NMTAP	54	192	0
NMTAP	54	192	3
BRTAP	54	288	0
BRTAP	54	288	5
NMSTR	55	0	6
NMSXL	55	0	6	96	96	7
NMTAP	55	96	4
NMSTR	55	192	2
NMSXL	55	192	2	96	96	3
NMTAP	55	288	0
NMSTR	56	0	6
NMSXL	56	0	6	96	96	7
NMTAP	56	96	4
NMHLD	56	192	2	96
NMSTR	56	288	0
NMSLL	56	288	0	96	96	4
NMTAP	57	0	1
NMSTR	57	96	7
NMSLR	57	96	7	96	96	3
NMTAP	57	192	6
NMTAP	57	288	0
NMSTR	58	0	0
NMSLL	58	0	0	96	96	4
NMSLR	58	0	0	96	96	4
NMSTR	58	288	6
NMSI_	58	288	6	96	48	4
NMSTR	58	288	7
NMSI_	58	288	7	96	48	3
NMTAP	59	0	6
NMTAP	59	0	7
NMSTR	59	96	0
NMSI_	59	96	0	96	48	4
NMSTR	59	96	1
NMSI_	59	96	1	96	48	3
BRTAP	59	192	0
BRTAP	59	192	1
NMSTR	59	288	6
NMSI_	59	288	6	96	48	4
NMSTR	59	288	7
NMSI_	59	288	7	96	48	3
NMSTR	60	0	6
NMSI_	60	0	6	96	48	2
NMSTR	60	0	7
NMSI_	60	0	7	96	48	1
NMSTR	60	96	6
NMSI_	60	96	6	96	48	4
NMSTR	60	96	7
NMSI_	60	96	7	96	48	3
NMTAP	60	192	6
NMTAP	60	192	7
NMSTR	60	288	0
NMSCR	60	288	0	96	48	3
NMSTR	60	288	6
NMSCL	60	288	6	96	48	3
EXTAP	61	0	0
EXTAP	61	0	6
NMSTR	61	96	7
NMSLR	61	96	7	96	96	5
NMTAP	61	192	2
NMSTR	61	288	1
BRSF_	61	288	1	96	48	5
CNSI_	61	288	5	0	48	3
NMTAP	62	192	0
NMTAP	62	192	6
NMTAP	62	240	2
NMTAP	62	240	4
NMSTR	62	288	1
NMSCR	62	288	1	96	48	4
NMSTR	62	288	5
NMSCR	62	288	5	96	48	0
NMTAP	63	0	1
NMTAP	63	0	5
NMTAP	63	96	7
NMTAP	63	144	7
NMTAP	63	192	6
NMTAP	63	216	4
NMTAP	63	240	5
NMTAP	63	288	2
NMTAP	63	336	2
NMTAP	63	360	3
NMTAP	64	0	2
NMTAP	64	48	1
NMTAP	64	72	0
NMTAP	64	96	1
NMTAP	64	120	0
NMTAP	64	144	1
BRTAP	64	192	2
BRTAP	64	240	4
BRTAP	64	288	6
BRTAP	64	336	0
NMTAP	65	0	4
NMTAP	65	48	4
NMSTR	65	96	1
NMSCL	65	96	1	96	96	5
NMTAP	65	144	1
NMSTR	65	192	5
NMSCR	65	192	5	96	96	1
NMTAP	65	288	2
NMTTP	66	0	4	E	0	M1
NMTTP	66	24	3	E	0	M1
NMTTP	66	48	2	E	0	M1
NMTTP	66	72	1	E	0	M1
NMTTP	66	96	0	E	0	M1
NMTTP	66	120	7	E	0	M1
NMTTP	66	144	6	E	0	M1
NMTTP	66	168	5	E	0	M1
BXTAP	66	192	1
BXTAP	66	240	1
BXTAP	66	288	2
BXTAP	66	288	4
NMTAP	67	0	3
NMTAP	67	0	5
NMTAP	67	72	0
NMTAP	67	96	0
NMTAP	67	168	3
NMTAP	67	192	1
NMTAP	67	240	4
NMTAP	67	288	1
NMTAP	67	336	3
NMTAP	67	336	5
NMTAP	68	0	3
NMTAP	68	0	5
NMTAP	68	72	1
NMTAP	68	96	1
EXTAP	68	168	5
NMTAP	68	192	0
NMTAP	68	216	7
NMTAP	68	240	0
NMTAP	68	264	7
NMTAP	68	288	1
NMTAP	69	0	3
NMTAP	69	0	5
NMTAP	69	72	1
NMTAP	69	96	1
NMTAP	69	144	4
NMTAP	69	168	4
NMTAP	69	192	3
NMTAP	69	216	5
EXTAP	69	240	1
EXTAP	69	264	7
EXTAP	69	288	1
NMTAP	69	336	3
NMTAP	69	336	5
NMTAP	70	0	3
NMTAP	70	0	5
NMTAP	70	48	2
NMTAP	70	48	6
NMTAP	70	96	1
NMTAP	70	120	1
NMTAP	70	144	4
EXTAP	70	192	2
EXTAP	70	192	6
EXTAP	70	240	3
EXTAP	70	240	5
BXTAP	70	288	1
BXSTR	70	288	7
NMSCL	70	288	7	96	384	0
NMSTR	72	192	0
NMSLR	72	192	0	96	96	4
NMSTR	73	0	7
NMSLL	73	0	7	96	96	3
NMSTR	73	192	0
NMSI_	73	192	0	96	96	4
NMSTR	74	0	7
NMSXR	74	0	7	96	288	7
NMSTR	75	0	4
NMSSR	75	0	4	96	144	0
EXSTR	75	288	5
NMSLR	75	288	5	96	96	1
EXSTR	76	0	1
NMSLR	76	0	1	96	96	5
EXSTR	76	288	6
NMSI_	76	288	6	96	96	1
NMSTR	77	0	4
NMSXR	77	0	4	96	192	1
NMSTR	78	0	7
NMSXR	78	0	7	96	96	6
NMSTR	78	96	0
NMSXL	78	96	0	96	96	1
BRTAP	78	288	5
NMHLD	79	0	4	96
NMSTR	79	96	2
NMSXR	79	96	2	96	288	7
NMHLD	79	192	3	96
NMHLD	80	0	5	96
NMHLD	80	192	4	96
NMSTR	80	288	6
NMSCR	80	288	6	96	144	2
NMHLD	81	0	3	96
NMHLD	81	192	4	96
NMSTR	81	288	2
NMSCL	81	288	2	96	144	6
NMHLD	82	0	3	96
NMTAP	82	192	4
NMTAP	82	288	7
NMTAP	83	0	0
NMSTR	83	96	1
NMSI_	83	96	1	96	48	5
NMTAP	83	144	1
NMHLD	83	192	7	96
CNSI_	83	240	5	0	48	3
NMTAP	84	0	2
NMTAP	84	0	6
NMSTR	84	96	1
NMSCR	84	96	1	96	96	4
NMTAP	84	144	1
NMHLD	84	192	5	288
NMSTR	85	0	7
NMSUL	85	0	7	96	192	2
EXTAP	85	192	0
EXTAP	85	288	1
NMSTR	86	0	0
NMSLR	86	0	0	96	96	4
NMSTR	86	96	4
NMSLR	86	96	4	96	96	0
NMTAP	86	192	0
NMSTR	87	0	5
NMSCR	87	0	5	96	384	2
NMTTP	87	192	1	E	0	M1
NMTTP	87	288	0	E	0	M1
NMTTP	88	0	7	E	0	M1
NMTTP	88	96	6	E	0	M1
NMTTP	88	192	5	E	0	M1
NMTTP	88	288	4	E	0	M1
NMSTR	89	0	2
NMSCL	89	0	2	96	384	6
NMTTP	89	192	7	E	0	M1
NMTTP	89	288	0	E	0	M1
NMTTP	90	0	1	E	0	M1
NMTTP	90	96	2	E	0	M1
NMTTP	90	192	3	E	0	M1
NMTTP	90	288	4	E	0	M1
NMSTR	91	0	2
NMSI_	91	0	2	96	96	4
NMTTP	91	96	6	E	0	M1
NMSTR	91	192	6
NMSI_	91	192	6	96	96	0
NMTTP	91	288	2	E	0	M1
NMSTR	92	0	1
NMSI_	92	0	1	96	96	5
NMTTP	92	96	4	E	0	M1
NMTTP	92	192	0	E	1	M1
NMTTP	93	0	0	C	0	M1
NMSTR	93	288	0
NMSI_	93	288	0	96	48	2
NMSI_	93	288	0	96	48	3
BRSTR	94	0	0
NMSI_	94	0	0	96	48	5
NMSI_	94	0	0	96	48	6
BRSTR	94	96	0
NMSI_	94	96	0	96	48	4
BRTAP	94	192	0
NMTAP	94	288	2
NMTAP	94	288	6
NMSTR	95	0	1
NMSCR	95	0	1	96	48	4
NMTAP	95	96	1
NMSTR	95	96	7
NMSI_	95	96	7	96	48	3
NMSTR	95	192	0
NMSI_	95	192	0	96	48	5
NMTAP	95	192	7
NMTAP	95	288	0
NMSTR	95	288	6
NMSCL	95	288	6	96	48	3
NMTAP	96	0	2
NMTAP	96	0	6
NMTAP	96	96	1
NMTAP	96	96	4
NMSTR	96	192	6
NMSLL	96	192	6	96	96	2
NMSTR	96	288	2
NMSLL	96	288	2	96	96	6
NMTAP	97	0	6
NMTAP	97	96	2
NMSTR	97	192	0
BRSCL	97	192	0	96	48	4
BRSCR	97	192	0	96	48	4
EXTAP	97	288	0
NMSTR	98	0	6
NMSI_	98	0	6	96	48	3
NMSTR	98	48	0
NMSI_	98	48	0	96	48	3
NMTAP	98	96	6
NMTAP	98	144	0
NMHLD	98	192	7	96
NMTAP	98	288	4
NMSTR	99	0	6
NMSUR	99	0	6	96	48	3
NMSTR	99	0	7
NMSCR	99	0	7	96	48	2
NMSTR	99	192	0
NMSCL	99	192	0	96	48	5
NMSTR	99	192	1
NMSUL	99	192	1	96	48	4
NMSTR	100	0	6
NMSUR	100	0	6	96	48	3
NMSTR	100	0	7
NMSCR	100	0	7	96	48	2
NMTAP	100	192	0
NMTAP	100	192	1
NMTAP	100	288	3
NMSTR	100	288	6
NMSCR	100	288	6	96	96	2
NMSTR	101	0	2
NMSV_	101	0	2	96	96	4
NMTAP	101	96	4
NMTAP	101	192	3
NMSTR	101	288	2
NMSCL	101	288	2	96	96	5
NMSTR	102	0	5
NMSCR	102	0	5	96	96	2
NMTAP	102	96	3
NMTAP	102	192	3
EXTAP	102	288	2
EXTAP	102	288	4
NMSTR	103	0	1
NMSI_	103	0	1	96	96	4
NMTAP	103	96	6
NMTAP	103	144	6
CNSV_	103	192	4	0	96	2
NMTAP	103	192	7
NMSTR	103	288	0
NMSCL	103	288	0	96	96	5
NMTAP	104	0	4
NMHLD	104	96	2	96
NMTAP	104	192	7
NMTAP	104	240	7
NMTAP	104	288	3
NMTAP	104	336	4
NMSTR	105	0	1
NMSUR	105	0	1	96	48	5
NMTAP	105	96	5
NMTAP	105	144	6
NMSTR	105	192	7
NMSUL	105	192	7	96	48	3
NMTAP	105	288	2
NMTAP	105	336	1
NMSTR	106	0	0
NMSXL	106	0	0	96	48	2
NMSTR	106	48	0
NMSV_	106	48	0	96	48	5
NMSTR	106	96	0
NMSI_	106	96	0	96	48	4
EXTAP	106	288	3
EXTAP	106	288	5
NMSTR	107	0	0
NMSI_	107	0	0	96	48	4
NMSTR	107	48	6
NMSI_	107	48	6	96	48	1
NMTAP	107	96	0
NMTAP	107	144	6
NMHLD	107	192	3	96
NMSTR	107	288	6
NMSUL	107	288	6	96	48	2
NMSTR	108	0	0
NMSV_	108	0	0	96	48	5
NMSTR	108	96	7
NMSUL	108	96	7	96	48	3
NMSTR	108	192	1
NMSCR	108	192	1	96	24	2
NMSTR	108	288	7
NMSF_	108	288	7	96	48	3
CNSI_	108	312	2	0	24	4
NMSTR	109	96	0
NMSI_	109	96	0	96	48	4
NMSTR	109	192	0
NMSI_	109	192	0	96	48	3
NMSI_	109	192	0	96	48	5
NMSTR	109	288	0
BRSF_	109	288	0	96	96	4
BRTAP	110	0	0
NMHLD	110	192	6	576
NMHLD	111	0	2	384

T_REC_TAP	234
T_REC_BRK	23
T_REC_XTP	22
T_REC_BXX	5
T_REC_HLD	47
T_REC_XHO	2
T_REC_BHO	0
T_REC_BXH	0
T_REC_STR	131
T_REC_BST	2
T_REC_XST	3
T_REC_XBS	1
T_REC_TTP	32
T_REC_THO	0
T_REC_SLD	130
T_REC_BSL	12
T_REC_ALL	644
T_NUM_TAP	422
T_NUM_BRK	43
T_NUM_HLD	49
T_NUM_SLD	130
T_NUM_ALL	644
T_JUDGE_TAP	453
T_JUDGE_HLD	175
T_JUDGE_SLD	142
T_JUDGE_ALL	770
TTM_EACHPAIRS	66
TTM_SCR_TAP	211000
TTM_SCR_BRK	111800
TTM_SCR_HLD	49000
TTM_SCR_SLD	195000
TTM_SCR_ALL	566800
TTM_SCR_S	545650
TTM_SCR_SS	562500
TTM_RAT_ACV	10076

