VERSION	0.00.00	1.04.00
FES_MODE	0
BPM_DEF	170.000	170.000	170.000	170.000
MET_DEF	4	4
RESOLUTION	384
CLK_DEF	384
COMPATIBLE_CODE	MA2

BPM	0	0	170.000
MET	0	0	4	4

BXHLD	2	0	2	288
NMTAP	2	0	5
NMTAP	2	96	5
NMTAP	2	192	4
NMTAP	2	288	4
NMTAP	3	0	3
NMHLD	3	0	5	288
NMTAP	3	96	3
NMTAP	3	192	4
NMTAP	3	288	4
NMTAP	4	0	3
NMTAP	4	96	3
NMTAP	4	192	4
NMTAP	4	288	4
NMHLD	5	0	2	96
NMHLD	5	0	5	96
NMTAP	5	192	3
NMTAP	5	240	4
NMTAP	5	288	3
EXSTR	6	0	3
NMSI_	6	0	3	96	288	0
EXTAP	6	0	4
NMTAP	7	192	7
NMSTR	8	0	7
NMSI_	8	0	7	96	288	4
NMTAP	9	192	3
NMSTR	10	0	2
NMSCL	10	0	2	96	192	7
NMSTR	11	0	6
NMSCL	11	0	6	96	192	3
NMTTP	12	0	4	E	0	M1
NMTTP	12	192	0	C	0	M1
NMTAP	13	0	0
NMTAP	13	96	0
NMTAP	13	192	1
NMTAP	13	192	7
NMTAP	13	288	2
NMTAP	13	288	6
NMHLD	14	0	1	384
NMTAP	14	0	7
NMHLD	15	0	2	384
NMHLD	16	0	3	384
NMHLD	17	0	4	384
EXHLD	18	0	5	96
EXHLD	18	192	5	96
NMTAP	19	0	4
NMHLD	19	0	6	96
NMTAP	19	192	4
NMHLD	19	192	6	96
BRTAP	20	0	7
BRSTR	20	96	7
BRSSR	20	96	7	96	288	3
EXTAP	21	288	1
EXTAP	21	288	4
EXTAP	22	0	1
EXTAP	22	0	4
NMTAP	22	96	0
NMTAP	22	192	7
BRTAP	22	288	1
BRTAP	22	288	6
NMTAP	23	0	2
NMTAP	23	96	1
NMTAP	23	96	3
NMTAP	23	192	5
NMTAP	23	288	4
NMSTR	23	288	6
NMSCR	23	288	6	96	96	1
NMTAP	24	192	2
NMTAP	24	288	2
NMTAP	24	288	3
NMTAP	25	0	5
NMTAP	25	96	3
NMTAP	25	96	5
NMTAP	25	192	2
NMTAP	25	192	4
NMTAP	25	288	1
NMTAP	25	288	3
NMTAP	26	0	0
NMTAP	26	96	7
NMTAP	26	192	6
EXTAP	26	240	6
EXSTR	26	288	6
NMSI_	26	288	6	96	96	2
NMSTR	27	96	0
NMSI_	27	96	0	96	96	4
NMSTR	27	288	7
NMSI_	27	288	7	96	96	3
NMSTR	28	96	0
NMSI_	28	96	0	96	96	4
NMTAP	28	288	5
NMTAP	29	0	4
NMTAP	29	0	5
NMTAP	29	96	3
NMTAP	29	96	6
NMTAP	29	192	2
NMTAP	29	192	3
NMTAP	29	288	1
NMTAP	29	288	4
EXTAP	30	0	0
EXTAP	30	0	5
EXTAP	30	96	0
EXTAP	30	96	5
EXTAP	30	192	1
EXTAP	30	192	6
EXTAP	30	288	2
EXTAP	30	288	7
NMHLD	31	0	1	96
NMTAP	31	96	0
NMHLD	31	192	6	96
NMTAP	31	288	7
NMHLD	32	0	1	96
NMTAP	32	96	0
NMTAP	32	192	1
NMTAP	32	192	7
NMTAP	32	288	2
NMTAP	32	288	6
NMHLD	33	0	5	96
NMTAP	33	96	4
NMHLD	33	192	2	96
NMTAP	33	288	3
NMTAP	34	0	4
NMTAP	34	96	3
NMTAP	34	96	5
EXTAP	34	192	2
EXTAP	34	192	6
NMHLD	35	0	7	96
NMHLD	35	96	6	96
NMHLD	35	192	5	96
NMTAP	35	288	4
NMHLD	36	0	3	96
NMHLD	36	96	2	96
NMHLD	36	192	1	96
NMTAP	36	288	0
NMHLD	37	0	0	96
NMHLD	37	0	1	96
NMHLD	37	192	0	96
NMHLD	37	192	7	96
EXTAP	38	0	6
EXTAP	38	0	7
EXSTR	38	96	6
NMSI_	38	96	6	96	96	3
EXTAP	38	96	7
BXSTR	39	0	2
NMSCL	39	0	2	96	288	5
NMTAP	40	192	4
NMTAP	40	192	5
NMSTR	41	0	3
BRSCL	41	0	3	96	288	6
BXTAP	42	192	6
NMHLD	43	0	4	96
NMHLD	43	0	6	96
NMHLD	43	192	3	96
NMHLD	43	192	5	96
NMHLD	44	0	2	96
NMHLD	44	0	4	96
NMHLD	44	192	1	96
NMHLD	44	192	3	96
NMSTR	45	0	0
NMSSL	45	0	0	96	288	4
EXTAP	46	0	5
EXTAP	46	96	4
EXTAP	46	192	3
EXTAP	46	192	5
BRTAP	47	0	1
BRTAP	47	0	7
NMTAP	47	96	4
NMTAP	47	96	5
NMTAP	47	192	1
NMTAP	47	192	7
NMTAP	47	288	2
NMTAP	47	288	3
NMTAP	48	0	0
NMTAP	48	0	1
NMTAP	48	96	6
NMTAP	48	96	7
NMTAP	48	192	4
NMTAP	48	192	5
NMTAP	48	288	2
NMTAP	48	288	3
NMTAP	49	0	0
NMTAP	49	0	1
NMTAP	49	96	3
NMTAP	49	96	5
NMTAP	49	192	6
NMTAP	49	192	7
NMTAP	49	288	2
NMTAP	49	288	4
NMTAP	50	0	4
NMTAP	50	0	6
NMTAP	50	96	0
NMTAP	50	96	7
BRTAP	50	192	1
BRTAP	50	192	5
NMSTR	51	0	6
NMSI_	51	0	6	96	96	3
NMSTR	51	192	2
BRSI_	51	192	2	96	96	7
NMSTR	52	0	6
NMSI_	52	0	6	96	96	3
NMSTR	52	192	2
BRSI_	52	192	2	96	96	7
NMHLD	53	0	6	96
NMHLD	53	96	0	96
NMHLD	53	192	2	96
NMTAP	53	288	4
BRTAP	54	0	3
BRTAP	54	0	5
BRTAP	54	96	1
BRTAP	54	96	7
BRTAP	54	192	2
BRTAP	54	192	6
NMTAP	55	0	0
NMTAP	55	0	5
NMTAP	55	96	2
NMTAP	55	96	3
NMTAP	55	192	4
NMTAP	55	192	5
NMTAP	55	288	3
NMSTR	55	288	6
NMSCL	55	288	6	96	192	1
EXTAP	56	192	0
EXTAP	56	288	0
NMTAP	57	0	2
NMTAP	57	0	7
NMTAP	57	96	4
NMTAP	57	96	5
NMTAP	57	192	2
NMTAP	57	192	3
NMSTR	57	288	1
NMSCR	57	288	1	96	192	6
NMTAP	57	288	4
EXTAP	58	192	7
EXTAP	58	288	7
NMTAP	59	0	6
NMTAP	59	0	7
NMSTR	59	96	6
NMSI_	59	96	6	96	96	2
NMSTR	59	96	7
NMSI_	59	96	7	96	96	3
BRTAP	60	0	0
BRTAP	60	0	1
BRTAP	60	96	0
BRTAP	60	96	1
BRTAP	60	192	6
BRTAP	60	192	7
BRTAP	60	288	6
BRTAP	60	288	7
NMTAP	61	0	0
NMTAP	61	0	1
NMTAP	61	96	2
NMTAP	61	96	3
NMTAP	61	192	4
NMTAP	61	192	5
NMTAP	61	288	6
NMTAP	61	288	7
BRHLD	62	0	0	192
BRHLD	62	0	5	192
NMHLD	63	0	6	96
NMTAP	63	96	4
NMTAP	63	144	4
NMTAP	63	192	5
NMTAP	63	288	3
NMTAP	63	288	6
NMHLD	64	0	1	96
NMTAP	64	96	3
NMTAP	64	144	3
NMTAP	64	192	2
NMTAP	64	288	1
NMTAP	64	288	4
NMHLD	65	0	5	96
NMHLD	65	96	7	96
NMHLD	65	192	0	96
NMHLD	65	288	2	96
NMHLD	66	0	4	96
NMTAP	66	96	5
EXTAP	66	192	3
EXTAP	66	240	3
EXTAP	66	288	3
NMHLD	67	0	2	96
NMTAP	67	0	4
NMTAP	67	96	3
NMTAP	67	192	3
NMHLD	67	192	5	96
NMTAP	67	288	4
NMHLD	68	0	1	96
NMTAP	68	0	5
NMTAP	68	96	3
NMTAP	68	192	2
NMTAP	68	192	4
NMTAP	68	288	1
NMTAP	68	288	3
NMSTR	69	0	0
NMSCR	69	0	0	96	96	3
NMSTR	69	192	7
NMSCL	69	192	7	96	96	4
NMHLD	70	0	2	96
NMTAP	70	96	3
EXTAP	70	192	3
EXTAP	70	192	5
EXTAP	70	240	3
EXTAP	70	240	5
EXSTR	70	288	3
NMSLL	70	288	3	96	384	7
EXTAP	70	288	5
CNSV_	72	0	7	0	384	5
CNSCL	73	0	5	0	96	4
CNSI_	73	96	4	0	288	2
NMTTP	75	0	0	B	0	M1
NMTTP	75	0	1	B	0	M1
NMTTP	75	192	2	B	0	M1
NMTTP	75	192	3	B	0	M1
NMTTP	76	0	4	B	0	M1
NMTTP	76	0	5	B	0	M1
NMTTP	76	192	6	B	0	M1
NMTTP	76	192	7	B	0	M1
NMHLD	77	0	0	96
NMTAP	77	192	0
NMTAP	77	192	7
NMSTR	77	288	0
NMSXL	77	288	0	96	192	2
NMSTR	77	288	7
NMSXR	77	288	7	96	192	5
EXTAP	79	0	5
NMTAP	79	96	4
NMTAP	79	192	3
NMTAP	79	288	2
NMTAP	79	288	4
NMHLD	80	0	1	96
NMHLD	80	0	3	96
NMHLD	80	192	2	96
NMHLD	80	192	4	96
NMHLD	81	0	1	96
NMTAP	81	96	3
NMHLD	81	192	5	96
NMSTR	81	288	3
NMSCR	81	288	3	96	192	7
NMSUR	81	288	3	96	192	0
EXTAP	82	288	0
EXTAP	82	288	1
NMTAP	83	0	2
NMTAP	83	96	1
NMTAP	83	96	3
NMTAP	83	192	5
NMTAP	83	288	4
NMTAP	83	288	6
NMTAP	84	0	1
NMTAP	84	96	0
NMTAP	84	96	2
NMTAP	84	192	6
NMTAP	84	288	5
NMTAP	84	288	7
NMHLD	85	0	0	96
NMHLD	85	0	6	96
NMHLD	85	192	1	96
NMHLD	85	192	7	96
NMTAP	86	0	1
NMTAP	86	0	7
NMTAP	86	96	3
NMTAP	86	96	5
BRTAP	86	192	2
BRTAP	86	192	6
NMHLD	87	0	1	384
NMTAP	87	0	3
NMTTP	87	192	2	E	0	M1
NMTTP	87	288	3	E	0	M1
NMTTP	88	0	4	E	0	M1
NMTAP	88	192	4
NMTAP	88	192	5
NMTAP	89	0	4
NMHLD	89	0	6	384
NMTTP	89	192	6	E	0	M1
NMTTP	89	288	5	E	0	M1
NMTTP	90	0	4	E	0	M1
EXTAP	90	192	3
EXTAP	90	240	3
EXTAP	90	288	3
NMHLD	91	0	1	96
NMHLD	91	0	3	96
NMHLD	91	192	1	96
NMHLD	91	192	3	96
NMHLD	92	0	4	96
NMHLD	92	0	5	96
NMHLD	92	192	4	96
NMHLD	92	192	5	96
NMTHO	93	0	0	192	C	0	M1
NMTTP	93	0	4	B	0	M1
NMTTP	93	0	5	B	0	M1
EXTAP	94	0	7
EXTAP	94	96	0
EXTAP	94	96	7
EXTAP	94	192	1
EXTAP	94	192	6
BRTAP	95	0	0
BRTAP	95	0	7
NMTAP	95	96	2
NMTAP	95	96	3
NMTAP	95	192	4
NMTAP	95	192	6
NMTAP	95	288	0
NMTAP	95	288	7
NMTAP	96	0	1
NMTAP	96	0	3
NMTAP	96	96	4
NMTAP	96	96	5
NMTAP	96	192	6
NMTAP	96	192	7
NMTAP	96	288	0
NMTAP	96	288	5
BRTAP	97	0	2
BRTAP	97	0	3
NMTAP	97	96	0
NMTAP	97	96	1
NMTAP	97	192	6
NMTAP	97	192	7
NMTAP	97	288	4
NMTAP	97	288	5
NMTAP	98	0	1
NMTAP	98	0	3
NMTAP	98	96	0
NMTAP	98	96	7
BRTAP	98	192	1
BRTAP	98	192	5
NMSTR	99	0	2
NMSI_	99	0	2	96	96	5
NMSTR	99	192	6
BRSI_	99	192	6	96	96	1
NMSTR	100	0	2
NMSI_	100	0	2	96	96	5
NMSTR	100	192	6
BRSI_	100	192	6	96	96	1
NMHLD	101	0	2	96
NMHLD	101	96	0	96
NMHLD	101	192	7	96
NMHLD	101	288	5	96
NMSTR	102	0	4
NMSI_	102	0	4	96	96	1
NMSI_	102	0	4	96	96	7
BRTAP	102	288	2
BRTAP	102	288	6
NMTAP	103	0	1
NMTAP	103	0	5
NMTAP	103	96	6
NMTAP	103	96	7
NMTAP	103	192	0
NMTAP	103	192	1
NMSTR	103	288	2
NMSCL	103	288	2	96	192	5
NMTAP	103	288	7
EXTAP	104	192	4
EXTAP	104	288	4
NMTAP	105	0	3
NMTAP	105	0	6
NMTAP	105	96	0
NMTAP	105	96	1
NMTAP	105	192	6
NMTAP	105	192	7
NMTAP	105	288	0
NMSTR	105	288	5
NMSCR	105	288	5	96	192	2
EXTAP	106	192	3
EXTAP	106	288	2
NMTAP	107	0	0
NMTAP	107	0	1
NMSTR	107	96	0
NMSI_	107	96	0	96	96	4
NMSTR	107	96	1
NMSI_	107	96	1	96	96	5
BRTAP	108	0	5
BRTAP	108	0	6
BRTAP	108	96	3
BRTAP	108	96	4
BRTAP	108	192	1
BRTAP	108	192	2
BRTAP	108	288	0
BRTAP	108	288	7
NMTAP	109	0	1
NMTAP	109	0	6
NMTAP	109	96	2
NMTAP	109	144	2
NMTAP	109	192	3
NMTAP	109	288	4
NMTAP	109	288	5
BRHLD	110	0	0	768
NMHLD	110	0	6	384

T_REC_TAP	218
T_REC_BRK	39
T_REC_XTP	50
T_REC_BXX	1
T_REC_HLD	72
T_REC_XHO	2
T_REC_BHO	3
T_REC_BXH	1
T_REC_STR	31
T_REC_BST	1
T_REC_XST	4
T_REC_XBS	1
T_REC_TTP	18
T_REC_THO	1
T_REC_SLD	33
T_REC_BSL	6
T_REC_ALL	481
T_NUM_TAP	321
T_NUM_BRK	52
T_NUM_HLD	75
T_NUM_SLD	33
T_NUM_ALL	481
T_JUDGE_TAP	363
T_JUDGE_HLD	228
T_JUDGE_SLD	39
T_JUDGE_ALL	630
TTM_EACHPAIRS	144
TTM_SCR_TAP	160500
TTM_SCR_BRK	135200
TTM_SCR_HLD	75000
TTM_SCR_SLD	49500
TTM_SCR_ALL	420200
TTM_SCR_S	402550
TTM_SCR_SS	415000
TTM_RAT_ACV	10125

