VERSION	0.00.00	1.04.00
FES_MODE	0
BPM_DEF	170.000	170.000	170.000	170.000
MET_DEF	4	4
RESOLUTION	384
CLK_DEF	384
COMPATIBLE_CODE	MA2

BPM	0	0	170.000
MET	0	0	4	4

NMTAP	6	0	1
NMTAP	6	192	1
NMTAP	7	0	2
NMTAP	7	192	2
NMTAP	8	0	3
NMTAP	8	192	3
NMTAP	9	0	4
NMTAP	9	0	5
NMTAP	10	0	6
NMTAP	10	192	6
NMTAP	11	0	5
NMTAP	11	192	5
NMTAP	12	0	4
NMTAP	12	192	4
NMTAP	13	0	2
NMTAP	13	0	3
NMTAP	14	0	2
NMTAP	14	192	2
NMTAP	15	0	1
NMTAP	15	192	1
NMTAP	16	0	0
NMTAP	16	192	0
NMTAP	17	0	6
NMTAP	17	0	7
NMTAP	18	0	5
NMTAP	18	192	5
NMTAP	19	0	6
NMTAP	19	192	6
NMTAP	20	0	7
NMTAP	20	192	7
NMSTR	21	0	0
NMSI_	21	0	0	96	288	3
NMSTR	21	0	7
NMSI_	21	0	7	96	288	4
NMTAP	23	0	4
NMTAP	23	96	4
NMTAP	23	192	5
NMTAP	24	0	6
NMTAP	24	96	6
NMTAP	24	192	7
NMTAP	25	0	0
NMTAP	25	96	0
NMTAP	25	192	1
NMTAP	26	0	2
NMTAP	26	96	2
NMTAP	26	192	2
NMTAP	26	192	3
NMTAP	27	0	3
NMTAP	27	96	3
NMTAP	27	192	2
NMTAP	28	0	1
NMTAP	28	96	1
NMTAP	28	192	0
NMTAP	29	0	7
NMTAP	29	96	7
NMTAP	29	192	6
NMTAP	30	0	5
NMTAP	30	96	5
NMTAP	30	192	4
NMTAP	30	192	5
NMTAP	31	0	5
NMTAP	31	96	5
NMTAP	31	192	4
NMTAP	31	192	5
NMTAP	32	0	6
NMTAP	32	96	6
NMTAP	32	192	6
NMTAP	32	192	7
NMTAP	33	0	0
NMTAP	33	96	0
NMTAP	33	192	0
NMTAP	33	192	1
NMTAP	34	0	2
NMTAP	34	0	3
NMTAP	34	96	2
NMTAP	34	96	3
NMTAP	34	192	2
NMTAP	34	192	3
NMTAP	35	0	2
NMTAP	35	96	2
NMTAP	35	192	2
NMTAP	35	192	3
NMTAP	36	0	1
NMTAP	36	96	1
NMTAP	36	192	0
NMTAP	36	192	1
NMTAP	37	0	7
NMTAP	37	96	7
NMTAP	37	192	6
NMTAP	37	192	7
NMTAP	38	0	4
NMTAP	38	0	5
NMTAP	38	96	4
NMTAP	38	96	5
NMTAP	38	192	4
NMTAP	38	192	5
NMHLD	39	0	5	192
NMHLD	39	192	4	192
NMHLD	40	0	3	192
NMTAP	40	192	2
NMHLD	41	0	2	192
NMHLD	41	192	3	192
NMHLD	42	0	4	192
NMTAP	42	192	5
NMHLD	43	0	6	192
NMHLD	43	192	5	192
NMHLD	44	0	4	192
NMTAP	44	192	3
NMHLD	45	0	1	192
NMHLD	45	192	2	192
NMHLD	46	0	3	192
NMTAP	46	192	4
NMTAP	47	0	2
NMTAP	47	96	2
NMTAP	47	192	1
NMTAP	47	288	1
NMTAP	48	0	0
NMTAP	48	96	0
NMTAP	48	192	6
NMTAP	48	192	7
NMTAP	49	0	5
NMTAP	49	96	5
NMTAP	49	192	6
NMTAP	49	288	6
NMTAP	50	0	7
NMTAP	50	96	7
NMTAP	50	192	0
NMTAP	50	192	1
NMTAP	51	0	1
NMTAP	51	96	1
NMTAP	51	192	2
NMTAP	51	288	2
NMTAP	52	0	3
NMTAP	52	96	3
NMTAP	52	192	4
NMTAP	52	192	5
NMTAP	53	0	6
NMTAP	53	96	6
NMTAP	53	192	5
NMTAP	53	288	5
NMTAP	54	0	4
NMTAP	54	96	4
BXTAP	54	192	2
BXTAP	54	192	3
NMTAP	55	0	2
NMTAP	55	96	2
NMTAP	55	192	1
NMTAP	55	288	1
NMTAP	56	0	0
NMTAP	56	96	0
NMTAP	56	192	6
NMTAP	56	192	7
NMTAP	57	0	5
NMTAP	57	96	5
NMTAP	57	192	6
NMTAP	57	288	6
NMTAP	58	0	7
NMTAP	58	96	7
NMTAP	58	192	0
NMTAP	58	192	1
NMTAP	59	0	1
NMTAP	59	96	1
NMTAP	59	192	2
NMTAP	59	288	2
NMTAP	60	0	3
NMTAP	60	96	3
NMTAP	60	192	4
NMTAP	60	192	5
NMTAP	61	0	6
NMTAP	61	96	6
NMTAP	61	192	5
NMTAP	61	288	5
NMTAP	62	0	4
NMTAP	62	96	4
NMTAP	62	192	2
NMTAP	62	192	3
NMTAP	63	0	3
NMTAP	63	96	2
NMTAP	63	192	1
NMTAP	63	288	0
NMTAP	64	0	7
NMTAP	64	96	6
NMTAP	64	192	4
NMTAP	64	192	5
NMTAP	65	0	4
NMTAP	65	96	5
NMTAP	65	192	6
NMTAP	65	288	7
NMTAP	66	0	0
NMTAP	66	96	1
NMTAP	66	192	2
NMTAP	66	192	3
NMTAP	67	0	3
NMTAP	67	96	2
NMTAP	67	192	1
NMTAP	67	288	0
NMTAP	68	0	7
NMTAP	68	96	6
NMTAP	68	192	5
NMTAP	68	288	4
NMTAP	69	0	3
NMTAP	69	0	4
NMTAP	69	96	3
NMTAP	69	96	4
NMTAP	69	192	2
NMTAP	69	192	5
NMTAP	69	288	2
NMTAP	69	288	5
NMTAP	70	0	1
NMTAP	70	0	6
NMTAP	70	96	1
NMTAP	70	96	6
NMTAP	70	192	0
NMTAP	70	192	7
EXSTR	71	0	0
NMSI_	71	0	0	96	192	4
NMSTR	72	0	6
NMSI_	72	0	6	96	192	3
NMSTR	73	0	1
NMSUR	73	0	1	96	480	4
NMSTR	75	0	6
NMSI_	75	0	6	96	192	2
NMSTR	76	0	0
NMSI_	76	0	0	96	192	4
NMSTR	77	0	6
NMSUL	77	0	6	96	480	3
NMTAP	79	0	2
NMTAP	79	96	2
NMTAP	79	192	2
NMTAP	80	0	1
NMTAP	80	96	1
NMTAP	80	192	1
NMTAP	81	0	0
NMTAP	81	96	0
NMTAP	81	192	0
NMTAP	82	0	6
NMTAP	82	0	7
NMTAP	82	192	6
NMTAP	82	192	7
NMTAP	83	0	5
NMTAP	83	96	5
NMTAP	83	192	5
NMTAP	84	0	6
NMTAP	84	96	6
NMTAP	84	192	6
NMTAP	85	0	7
NMTAP	85	96	7
NMTAP	85	192	7
NMTAP	86	0	0
NMTAP	86	0	1
NMTAP	86	192	0
NMTAP	86	192	1
NMTTP	87	0	1	B	0	L1
NMTTP	87	192	2	B	0	L1
NMTTP	88	0	3	B	0	L1
NMTTP	88	192	4	B	0	L1
NMTTP	89	0	5	B	0	L1
NMTTP	89	192	6	B	0	L1
NMTTP	90	0	0	C	0	L1
NMTTP	91	0	6	B	0	L1
NMTTP	91	192	5	B	0	L1
NMTTP	92	0	4	B	0	L1
NMTTP	92	192	3	B	0	L1
NMTTP	93	0	2	B	0	L1
NMTTP	93	192	1	B	0	L1
NMTTP	94	0	0	C	1	L1
EXTAP	95	0	1
EXTAP	95	96	1
NMTAP	95	192	0
NMTAP	95	192	1
NMTAP	95	288	0
NMTAP	95	288	1
NMTAP	96	0	7
NMTAP	96	96	7
NMTAP	96	192	6
NMTAP	96	192	7
NMTAP	97	0	5
NMTAP	97	96	5
NMTAP	97	192	6
NMTAP	97	192	7
NMTAP	97	288	6
NMTAP	97	288	7
NMTAP	98	0	0
NMTAP	98	96	0
NMTAP	98	192	0
NMTAP	98	192	1
NMTAP	99	0	1
NMTAP	99	96	1
NMTAP	99	192	2
NMTAP	99	192	3
NMTAP	99	288	2
NMTAP	99	288	3
NMTAP	100	0	4
NMTAP	100	96	4
NMTAP	100	192	4
NMTAP	100	192	5
NMTAP	101	0	6
NMTAP	101	96	6
NMTAP	101	192	4
NMTAP	101	192	5
NMTAP	101	288	4
NMTAP	101	288	5
NMTAP	102	0	3
NMTAP	102	96	3
BRTAP	102	192	2
BRTAP	102	192	3
NMTAP	103	0	2
NMTAP	103	96	2
NMTAP	103	192	2
NMTAP	103	288	2
NMTAP	103	288	3
NMTAP	104	0	1
NMTAP	104	96	1
NMTAP	104	192	1
NMTAP	104	288	0
NMTAP	104	288	1
NMTAP	105	0	7
NMTAP	105	96	7
NMTAP	105	192	7
NMTAP	105	288	6
NMTAP	105	288	7
NMTAP	106	0	4
NMTAP	106	0	5
NMTAP	106	96	4
NMTAP	106	96	5
NMTAP	106	192	4
NMTAP	106	192	5
NMTAP	107	0	5
NMTAP	107	96	5
NMTAP	107	192	5
NMTAP	107	288	4
NMTAP	107	288	5
NMTAP	108	0	6
NMTAP	108	96	6
NMTAP	108	192	6
NMTAP	108	288	6
NMTAP	108	288	7
NMTAP	109	0	0
NMTAP	109	96	0
NMTAP	109	192	0
NMTAP	109	288	0
NMTAP	109	288	1
NMTAP	110	0	2
NMTAP	110	0	3
NMTAP	110	96	2
NMTAP	110	96	3
NMTAP	110	192	2
NMTAP	110	192	3
NMHLD	111	0	3	384
NMHLD	111	0	4	384

T_REC_TAP	300
T_REC_BRK	2
T_REC_XTP	2
T_REC_BXX	2
T_REC_HLD	14
T_REC_XHO	0
T_REC_BHO	0
T_REC_BXH	0
T_REC_STR	7
T_REC_BST	0
T_REC_XST	1
T_REC_XBS	0
T_REC_TTP	14
T_REC_THO	0
T_REC_SLD	8
T_REC_BSL	0
T_REC_ALL	350
T_NUM_TAP	324
T_NUM_BRK	4
T_NUM_HLD	14
T_NUM_SLD	8
T_NUM_ALL	350
T_JUDGE_TAP	328
T_JUDGE_HLD	64
T_JUDGE_SLD	8
T_JUDGE_ALL	400
TTM_EACHPAIRS	64
TTM_SCR_TAP	162000
TTM_SCR_BRK	10400
TTM_SCR_HLD	14000
TTM_SCR_SLD	12000
TTM_SCR_ALL	198400
TTM_SCR_S	192100
TTM_SCR_SS	198000
TTM_RAT_ACV	10020

