VERSION	0.00.00	1.04.00
FES_MODE	0
BPM_DEF	170.000	170.000	170.000	170.000
MET_DEF	4	4
RESOLUTION	384
CLK_DEF	384
COMPATIBLE_CODE	MA2

BPM	0	0	170.000
MET	0	0	4	4

NMTAP	2	0	7
NMTAP	2	192	7
NMTAP	3	0	7
NMTAP	4	0	0
NMTAP	4	192	0
NMTAP	5	0	0
NMTAP	5	0	7
NMTAP	6	0	0
NMTAP	6	192	0
NMTAP	7	0	1
NMTAP	8	0	2
NMTAP	8	192	2
NMTAP	9	0	3
NMTAP	10	0	4
NMTAP	10	192	4
NMTAP	11	0	5
NMTAP	12	0	6
NMTAP	12	192	6
NMTAP	13	0	6
NMTAP	13	0	7
NMTAP	14	0	7
NMTAP	14	192	7
NMTAP	15	0	6
NMTAP	16	0	5
NMTAP	16	192	5
NMTAP	17	0	4
NMTAP	18	0	3
NMTAP	18	192	3
NMTAP	19	0	2
NMTAP	20	0	1
NMTAP	20	192	1
NMTAP	21	0	0
NMTAP	22	0	0
NMTAP	22	0	7
NMTAP	23	0	0
NMTAP	23	192	0
NMTAP	24	0	1
NMTAP	24	192	1
NMTAP	25	0	2
NMTAP	25	192	2
NMTAP	26	0	2
NMTAP	26	0	3
NMTAP	27	0	4
NMTAP	27	192	4
NMTAP	28	0	5
NMTAP	28	192	5
NMTAP	29	0	6
NMTAP	29	192	6
NMTAP	30	0	6
NMTAP	30	0	7
NMTAP	31	0	7
NMTAP	31	192	7
NMTAP	32	0	6
NMTAP	32	192	6
NMTAP	33	0	5
NMTAP	33	192	5
NMTAP	34	0	3
NMTAP	34	0	4
NMTAP	35	0	3
NMTAP	35	192	3
NMTAP	36	0	2
NMTAP	36	192	2
NMTAP	37	0	1
NMTAP	37	192	1
NMTAP	38	0	0
NMTAP	38	0	7
NMTTP	39	0	0	B	0	L1
NMTTP	40	0	7	B	0	L1
NMTTP	41	0	1	B	0	L1
NMTTP	42	0	6	B	0	L1
NMTTP	43	0	2	B	0	L1
NMTTP	44	0	5	B	0	L1
NMTTP	45	0	3	B	0	L1
NMTTP	46	0	0	C	1	L1
NMTAP	47	0	0
NMTAP	47	96	0
NMTAP	47	192	0
NMTAP	48	0	1
NMTAP	48	192	1
NMTAP	49	0	2
NMTAP	49	192	2
NMTAP	50	0	2
NMTAP	50	0	3
NMTAP	51	0	4
NMTAP	51	96	4
NMTAP	51	192	4
NMTAP	52	0	5
NMTAP	52	192	5
NMTAP	53	0	6
NMTAP	53	192	6
NMTAP	54	0	6
NMTAP	54	0	7
NMTAP	55	0	7
NMTAP	55	96	7
NMTAP	55	192	7
NMTAP	56	0	6
NMTAP	56	192	6
NMTAP	57	0	5
NMTAP	57	192	5
NMTAP	58	0	3
NMTAP	58	0	4
NMTAP	59	0	3
NMTAP	59	96	3
NMTAP	59	192	3
NMTAP	60	0	2
NMTAP	60	192	2
NMTAP	61	0	1
NMTAP	61	192	1
BRTAP	62	0	0
BRTAP	62	0	7
NMTAP	63	0	1
NMTAP	63	192	1
NMTAP	64	0	0
NMTAP	64	0	1
NMTAP	65	0	2
NMTAP	65	192	2
NMTAP	66	0	2
NMTAP	66	0	3
NMTAP	67	0	5
NMTAP	67	192	5
NMTAP	68	0	4
NMTAP	68	0	5
NMTAP	69	0	6
NMTAP	69	192	6
NMTAP	70	0	6
NMTAP	70	0	7
NMHLD	71	0	6	384
NMHLD	71	0	7	384
NMHLD	73	0	4	384
NMHLD	73	0	5	384
NMHLD	75	0	2	384
NMHLD	75	0	3	384
NMHLD	77	0	0	384
NMHLD	77	0	1	384
NMTAP	79	0	0
NMTAP	79	192	0
NMTAP	80	0	1
NMTAP	80	192	1
NMTAP	81	0	2
NMTAP	81	192	2
NMTAP	82	0	3
NMTAP	82	0	4
NMTAP	82	192	3
NMTAP	82	192	4
NMTAP	83	0	4
NMTAP	83	192	4
NMTAP	84	0	5
NMTAP	84	192	5
NMTAP	85	0	6
NMTAP	85	192	6
NMTAP	86	0	0
NMTAP	86	0	7
NMSTR	87	0	7
NMSI_	87	0	7	96	288	3
NMSTR	89	0	2
NMSI_	89	0	2	96	288	5
NMSTR	91	0	6
NMSI_	91	0	6	96	288	2
NMSTR	93	0	1
NMSI_	93	0	1	96	288	5
BRTAP	95	0	7
NMTAP	95	96	7
NMTAP	95	192	7
NMTAP	96	0	6
NMTAP	96	192	6
NMTAP	97	0	5
NMTAP	97	96	5
NMTAP	97	192	5
NMTAP	98	0	4
NMTAP	98	0	5
NMTAP	98	192	4
NMTAP	98	192	5
NMTAP	99	0	3
NMTAP	99	96	3
NMTAP	99	192	3
NMTAP	100	0	2
NMTAP	100	192	2
NMTAP	101	0	1
NMTAP	101	96	1
NMTAP	101	192	1
NMTAP	102	0	0
NMTAP	102	0	1
NMTAP	102	192	0
NMTAP	102	192	1
NMTAP	103	0	0
NMTAP	103	96	0
NMTAP	103	192	0
NMTAP	104	0	1
NMTAP	104	192	1
NMTAP	105	0	2
NMTAP	105	96	2
NMTAP	105	192	2
NMTAP	106	0	3
NMTAP	106	0	4
NMTAP	106	192	3
NMTAP	106	192	4
NMTAP	107	0	4
NMTAP	107	96	4
NMTAP	107	192	4
NMTAP	108	0	5
NMTAP	108	192	5
NMTAP	109	0	6
NMTAP	109	96	6
NMTAP	109	192	6
BRTAP	110	0	0
BRTAP	110	0	7
NMTAP	110	192	0
NMTAP	110	192	7
NMHLD	111	0	0	384
NMHLD	111	0	7	384

T_REC_TAP	179
T_REC_BRK	5
T_REC_XTP	0
T_REC_BXX	0
T_REC_HLD	10
T_REC_XHO	0
T_REC_BHO	0
T_REC_BXH	0
T_REC_STR	4
T_REC_BST	0
T_REC_XST	0
T_REC_XBS	0
T_REC_TTP	8
T_REC_THO	0
T_REC_SLD	4
T_REC_BSL	0
T_REC_ALL	210
T_NUM_TAP	191
T_NUM_BRK	5
T_NUM_HLD	10
T_NUM_SLD	4
T_NUM_ALL	210
T_JUDGE_TAP	196
T_JUDGE_HLD	80
T_JUDGE_SLD	4
T_JUDGE_ALL	280
TTM_EACHPAIRS	31
TTM_SCR_TAP	95500
TTM_SCR_BRK	13000
TTM_SCR_HLD	10000
TTM_SCR_SLD	6000
TTM_SCR_ALL	124500
TTM_SCR_S	120300
TTM_SCR_SS	124000
TTM_RAT_ACV	10040

