VERSION	0.00.00	1.04.00
FES_MODE	0
BPM_DEF	163.000	163.000	163.000	163.000
MET_DEF	4	4
RESOLUTION	384
CLK_DEF	384
COMPATIBLE_CODE	MA2

BPM	0	0	163.000
MET	0	0	4	4

NMTAP	1	192	3
NMTAP	1	192	4
NMTAP	1	288	3
NMSTR	1	288	4
NMSCR	1	288	4	96	576	3
NMTTP	2	0	0	C	1	M1
NMTAP	4	0	5
NMHLD	4	96	5	480
NMTAP	4	192	4
NMTAP	4	288	4
NMTAP	5	0	6
NMTAP	5	96	6
NMTAP	5	192	4
NMSTR	5	288	3
NMSCL	5	288	3	96	576	4
NMTAP	5	288	4
NMTTP	6	0	5	E	0	M1
NMTTP	6	96	6	E	0	M1
NMTTP	6	192	7	E	0	M1
NMTTP	6	288	0	E	0	M1
NMTTP	7	0	1	E	0	M1
NMTTP	7	96	2	E	0	M1
NMTTP	7	192	3	E	0	M1
NMTTP	7	288	4	E	0	M1
NMTAP	8	0	2
NMHLD	8	96	2	192
NMTAP	8	192	3
NMTAP	8	288	3
NMTAP	9	48	4
NMTAP	9	96	5
NMTAP	9	144	3
NMTAP	9	192	2
NMTAP	9	240	4
NMTAP	9	288	3
NMTAP	9	288	5
NMTAP	10	0	2
NMTAP	10	24	2
NMTAP	10	48	3
NMTAP	10	72	1
NMTAP	10	120	0
NMTAP	10	120	1
NMTAP	10	168	7
NMTAP	10	192	0
NMTAP	10	240	6
NMTAP	10	240	7
NMTAP	10	288	5
NMTAP	10	312	4
NMTAP	10	360	3
NMTAP	10	360	6
NMTAP	11	24	5
NMTAP	11	48	4
NMTAP	11	96	4
NMTAP	11	120	6
NMTAP	11	168	0
NMTAP	11	168	7
NMTAP	11	216	1
NMTAP	11	240	3
NMTAP	11	288	3
NMTAP	11	312	2
NMTAP	11	360	3
NMTAP	11	360	4
NMTAP	12	24	5
NMTAP	12	48	4
NMTAP	12	72	6
NMTAP	12	120	6
NMTAP	12	120	7
NMTAP	12	168	0
NMTAP	12	192	7
NMTAP	12	240	0
NMTAP	12	240	1
NMTAP	12	288	2
NMTAP	12	312	3
NMTAP	12	360	1
NMTAP	12	360	4
NMTAP	13	24	2
NMTAP	13	48	3
NMTAP	13	96	3
NMTAP	13	120	1
NMTAP	13	168	0
NMTAP	13	168	7
NMTAP	13	216	5
NMTAP	13	240	4
NMTAP	13	288	4
NMTAP	13	312	6
BRTAP	13	360	3
BRTAP	13	360	7
NMTAP	14	24	1
NMTAP	14	48	0
NMTAP	14	72	1
NMTAP	14	120	2
NMTAP	14	120	3
NMTAP	14	168	4
NMTAP	14	192	3
NMTAP	14	240	4
NMTAP	14	240	5
NMTAP	14	288	6
NMTAP	14	312	7
NMTAP	14	360	0
NMTAP	14	360	5
NMTAP	15	24	6
NMTAP	15	48	7
NMTAP	15	96	7
NMTAP	15	120	5
NMTAP	15	168	2
NMTAP	15	168	3
NMTAP	15	216	1
NMTAP	15	240	0
NMTAP	15	288	0
NMTAP	15	312	2
NMTAP	15	360	4
NMTAP	15	360	5
NMTAP	16	24	6
NMTAP	16	48	7
NMTAP	16	72	6
NMTAP	16	120	4
NMTAP	16	120	5
NMTAP	16	168	3
NMTAP	16	192	4
NMTAP	16	240	2
NMTAP	16	240	3
NMTAP	16	288	1
NMTAP	16	312	0
NMTAP	16	360	2
NMTAP	16	360	7
NMTAP	17	24	1
NMTAP	17	48	0
NMTAP	17	96	0
NMTAP	17	120	2
NMTAP	17	168	4
NMTAP	17	168	5
NMTAP	17	216	7
NMTAP	17	240	0
NMTAP	17	288	0
NMTAP	17	312	7
BRTAP	17	360	1
BRTAP	17	360	6
NMSTR	18	48	5
NMSI_	18	48	5	96	48	1
NMSTR	18	96	1
NMSI_	18	96	1	96	48	7
NMTAP	18	144	5
CNSI_	18	240	7	0	48	4
NMTAP	18	288	1
NMSTR	18	336	0
NMSI_	18	336	0	96	72	2
NMTAP	19	48	4
NMTAP	19	96	4
CNSI_	19	120	2	0	72	7
NMHLD	19	192	5	96
CNSI_	19	192	7	0	72	3
CNSI_	19	264	3	0	48	6
NMHLD	20	0	4	48
NMHLD	20	0	7	48
NMSTR	20	72	4
NMSI_	20	72	4	96	48	7
NMTAP	20	72	7
NMSTR	20	144	0
NMSI_	20	144	0	96	48	3
EXTAP	20	240	0
NMTAP	20	336	2
NMSTR	20	336	6
NMSI_	20	336	6	96	48	1
NMSTR	21	48	2
NMSI_	21	48	2	96	48	5
NMTAP	21	48	6
NMTAP	21	144	0
NMTAP	21	144	2
NMTAP	21	240	1
NMTAP	21	240	7
NMHLD	21	288	1	96
NMHLD	21	288	7	96
BRSTR	22	48	0
NMSV_	22	48	0	96	48	3
BRSTR	22	48	6
NMSV_	22	48	6	96	48	3
NMTAP	22	144	0
NMTAP	22	144	6
NMTAP	22	288	1
NMTAP	22	288	5
NMSTR	22	336	1
NMSXL	22	336	1	96	288	5
NMTAP	22	336	5
NMTAP	23	48	4
NMTAP	23	96	4
NMSTR	23	192	6
NMSI_	23	192	6	96	48	0
NMTAP	23	288	6
NMHLD	24	0	7	72
NMSTR	24	72	4
NMSCL	24	72	4	96	48	1
NMSTR	24	144	7
NMSI_	24	144	7	96	48	3
NMTAP	24	240	7
NMTAP	24	336	0
BXHLD	24	336	5	336
NMSTR	25	48	1
NMSI_	25	48	1	96	48	6
NMTAP	25	144	1
NMTAP	25	240	7
NMTAP	25	288	7
NMHLD	26	0	1	48
NMHLD	26	0	4	48
NMHLD	26	72	1	48
NMHLD	26	72	4	48
NMSTR	26	144	0
NMSCR	26	144	0	96	96	4
NMTAP	26	144	3
NMHLD	27	0	5	48
NMHLD	27	72	5	48
NMHLD	27	144	4	48
NMHLD	27	144	6	48
NMHLD	27	216	3	120
NMHLD	27	216	7	120
NMTAP	28	0	4
NMTAP	28	0	6
NMTAP	28	48	5
NMTAP	28	72	5
NMTAP	28	96	4
NMTAP	28	144	3
NMTAP	28	144	6
NMTAP	28	192	5
NMTAP	28	216	4
NMTAP	28	240	6
NMTAP	28	288	3
NMTAP	28	288	7
NMTAP	29	0	1
NMTAP	29	0	4
NMTAP	29	48	2
NMTAP	29	72	2
NMTAP	29	96	3
NMTAP	29	144	1
NMTAP	29	144	4
NMTAP	29	192	2
NMTAP	29	216	3
NMTAP	29	240	1
NMTAP	29	288	0
NMTAP	29	288	7
NMHLD	30	0	6	72
NMTAP	30	72	4
NMTAP	30	96	4
NMTAP	30	144	3
NMTAP	30	144	5
NMTAP	30	192	2
NMTAP	30	216	3
NMTAP	30	240	1
NMTAP	30	288	0
NMTAP	30	288	4
NMHLD	31	0	1	72
NMTAP	31	72	3
NMTAP	31	96	3
NMTAP	31	144	2
NMTAP	31	144	4
NMTAP	31	192	5
NMTAP	31	216	4
NMTAP	31	240	6
NMTAP	31	288	0
NMTAP	31	288	7
NMHLD	32	0	0	48
NMHLD	32	0	7	48
NMHLD	32	72	6	48
NMHLD	32	72	7	48
NMHLD	32	144	5	48
NMHLD	32	144	6	48
NMHLD	32	216	4	48
NMHLD	32	216	5	48
NMHLD	32	288	3	48
NMHLD	32	288	4	48
NMHLD	32	360	2	48
NMHLD	32	360	3	48
NMHLD	33	48	1	48
NMHLD	33	48	2	48
NMHLD	33	120	0	48
NMHLD	33	120	1	48
EXSTR	33	192	2
NMSI_	33	192	2	96	48	7
EXSTR	33	192	6
NMSI_	33	192	6	96	48	3
NMTAP	33	288	2
NMSTR	33	288	6
NMSCR	33	288	6	96	96	5
BRTAP	34	0	0
BRTAP	34	0	6
NMSTR	34	144	1
NMSI_	34	144	1	96	48	5
NMSTR	34	192	7
NMSI_	34	192	7	96	48	3
NMSTR	34	240	1
NMSCR	34	240	1	96	48	4
NMTAP	34	288	7
NMTAP	34	336	1
EXTAP	35	48	3
EXTAP	35	48	5
EXSTR	35	96	2
NMSI_	35	96	2	96	48	4
EXSTR	35	96	6
NMSI_	35	96	6	96	48	4
NMSTR	35	192	2
NMSI_	35	192	2	96	48	7
NMSTR	35	192	6
NMSI_	35	192	6	96	48	2
NMSTR	35	288	2
NMSCR	35	288	2	96	48	5
NMSTR	35	288	6
NMSCR	35	288	6	96	48	1
BXTAP	36	0	2
BXTAP	36	0	6
NMSTR	36	144	6
NMSI_	36	144	6	96	48	0
NMSTR	36	192	2
NMSI_	36	192	2	96	48	4
NMSTR	36	240	6
NMSI_	36	240	6	96	48	2
NMTAP	36	288	2
NMTAP	36	336	6
EXTAP	37	48	1
EXTAP	37	48	3
EXTAP	37	96	0
EXTAP	37	96	4
NMTAP	37	192	6
NMTAP	37	192	7
NMTAP	37	240	5
NMTAP	37	288	0
NMTAP	37	288	1
NMTAP	37	336	2
NMHLD	38	0	4	48
NMHLD	38	0	5	48
NMHLD	38	72	1	48
NMHLD	38	72	3	48
NMHLD	38	144	6	96
NMTAP	38	144	7
NMTAP	38	240	4
NMTAP	38	288	2
NMSTR	38	336	0
NMSI_	38	336	0	96	48	4
NMSTR	39	0	4
NMSI_	39	0	4	96	48	0
NMSTR	39	48	0
NMSCR	39	48	0	96	96	6
BRTAP	39	96	6
BRTAP	39	144	6
NMTAP	39	336	7
NMTAP	40	0	0
NMTAP	40	0	6
NMTAP	40	48	5
NMTAP	40	96	1
NMTAP	40	96	3
NMTAP	40	144	4
NMTAP	40	144	5
NMTAP	40	192	6
NMTAP	40	192	7
NMTAP	40	240	0
NMTAP	40	240	1
NMTAP	40	288	2
NMTAP	40	288	3
NMTTP	40	336	0	C	1	M1
NMTTP	40	336	1	B	0	M1
NMTTP	40	336	1	A	0	M1
NMTTP	40	336	5	B	0	M1
NMTTP	40	336	5	A	0	M1
EXTAP	41	48	7
EXSTR	41	96	7
NMSI_	41	96	7	96	48	2
NMSI_	41	96	7	96	48	4
NMSTR	41	192	7
NMSI_	41	192	7	96	48	3
NMSTR	41	288	7
NMSI_	41	288	7	96	48	1
EXTAP	42	0	2
BRTAP	42	0	7
CNSLR	42	48	1	0	48	5
NMSTR	42	144	2
NMSI_	42	144	2	96	48	5
NMSTR	42	192	6
NMSI_	42	192	6	96	48	3
NMSTR	42	240	2
NMSI_	42	240	2	96	48	7
NMTAP	42	288	6
NMTAP	42	336	2
EXTAP	43	48	0
EXTAP	43	48	6
EXSTR	43	96	1
NMSI_	43	96	1	96	48	3
EXSTR	43	96	5
NMSI_	43	96	5	96	48	3
NMSTR	43	192	1
NMSI_	43	192	1	96	48	5
NMSTR	43	192	5
NMSI_	43	192	5	96	48	0
NMSTR	43	288	1
NMSCL	43	288	1	96	48	6
NMSTR	43	288	5
NMSCL	43	288	5	96	48	2
BXTAP	44	0	1
BXTAP	44	0	5
NMSTR	44	144	1
NMSI_	44	144	1	96	48	5
NMSTR	44	192	0
NMSI_	44	192	0	96	48	4
NMSTR	44	240	1
NMSCL	44	240	1	96	48	6
NMTAP	44	288	0
NMTAP	44	336	1
EXTAP	45	48	5
EXTAP	45	48	7
EXTAP	45	96	0
EXTAP	45	96	4
NMTAP	45	192	2
NMTAP	45	192	6
NMTAP	45	240	3
NMTAP	45	288	4
NMTAP	45	288	5
NMTAP	45	336	6
NMHLD	46	0	6	48
NMHLD	46	0	7	48
NMHLD	46	72	1	48
NMHLD	46	72	2	48
NMTAP	46	144	4
NMHLD	46	144	5	144
NMTAP	46	240	4
NMTAP	46	288	6
NMSTR	46	336	7
NMSI_	46	336	7	96	48	3
NMSTR	47	0	3
NMSI_	47	0	3	96	48	7
NMSTR	47	48	7
NMSCL	47	48	7	96	96	1
BRTAP	47	96	5
BRTAP	47	144	5
NMTAP	47	336	7
NMTAP	48	0	0
NMTAP	48	0	6
NMTAP	48	48	2
NMTAP	48	96	1
NMTAP	48	96	3
NMTAP	48	144	5
NMTAP	48	192	4
NMTAP	48	192	6
NMSTR	48	240	3
NMSCL	48	240	3	96	48	0
NMSTR	48	240	7
NMSCL	48	240	7	96	48	4
NMTAP	48	288	0
NMTAP	48	288	4
NMSTR	48	336	3
NMSXL	48	336	3	96	192	6
NMSTR	48	336	7
NMSXL	48	336	7	96	192	2
NMTAP	49	336	1
NMTAP	49	360	3
NMHLD	50	0	2	72
NMHLD	50	72	0	72
NMHLD	50	144	7	72
NMTAP	50	216	5
NMTAP	50	288	6
NMTAP	50	288	7
NMTAP	50	336	6
NMTAP	50	336	7
NMTAP	51	0	0
NMTAP	51	0	5
NMTAP	51	48	6
NMTAP	51	72	7
NMTAP	51	120	5
NMTAP	51	144	4
NMTAP	51	192	2
NMTAP	51	216	3
NMTAP	51	240	2
NMTAP	51	264	3
NMTAP	51	288	1
NMTAP	51	336	7
NMTAP	51	360	7
NMHLD	52	0	2	72
EXTAP	52	48	0
NMHLD	52	72	0	72
EXTAP	52	120	7
NMHLD	52	144	7	72
EXTAP	52	192	5
NMHLD	52	216	5	72
EXTAP	52	264	4
NMTAP	52	288	4
EXTAP	52	336	3
EXSTR	52	336	7
NMSLL	52	336	7	96	48	3
EXTAP	53	48	4
EXTAP	53	96	2
EXTAP	53	144	0
EXTAP	53	144	5
NMTAP	53	192	6
NMTAP	53	216	7
NMTAP	53	240	6
BXTAP	53	288	0
NMTAP	54	0	1
NMHLD	54	0	7	48
NMTAP	54	12	2
NMTAP	54	24	3
NMTAP	54	72	1
NMHLD	54	72	7	48
NMTAP	54	84	2
NMTAP	54	96	3
NMSTR	54	144	1
BRSI_	54	144	1	96	48	4
BRSI_	54	144	1	96	48	6
NMHLD	54	144	7	48
NMTAP	54	156	2
NMTAP	54	168	3
NMTAP	54	240	1
NMTTP	54	336	3	B	0	M1
NMTTP	54	336	3	A	1	M1
NMTTP	54	336	4	E	0	M1
NMTTP	54	336	7	B	0	M1
NMTTP	54	336	7	E	0	M1
NMTTP	54	336	7	A	0	M1
NMTAP	55	48	1
NMTAP	55	72	0
NMTAP	55	96	1
NMTAP	55	120	0
NMTAP	55	144	1
NMTAP	55	168	0
NMTAP	55	192	1
NMTAP	55	216	7
NMTAP	55	240	1
NMTAP	55	264	0
NMTAP	55	288	1
NMTAP	55	312	2
NMTAP	55	336	1
NMTAP	55	360	3
NMHLD	56	0	0	48
NMHLD	56	72	0	48
NMHLD	56	144	1	48
NMHLD	56	144	7	48
NMHLD	56	216	1	48
NMHLD	56	216	7	48
NMTAP	56	288	2
NMTAP	56	288	6
NMTAP	56	336	2
NMTAP	56	336	6
NMTAP	57	0	5
NMTAP	57	24	5
NMTAP	57	48	4
NMTAP	57	72	6
NMTAP	57	96	2
NMTAP	57	120	2
NMTAP	57	144	3
NMTAP	57	168	1
NMTAP	57	192	4
NMTAP	57	204	5
NMTAP	57	216	6
NMTAP	57	228	7
NMTAP	57	240	0
NMTAP	57	252	1
NMTAP	57	264	2
NMTAP	57	276	3
BXTAP	57	288	0
BXTAP	57	288	4
NMHLD	58	0	1	48
NMHLD	58	0	3	48
NMHLD	58	72	1	48
NMHLD	58	72	3	48
NMTAP	58	144	1
NMSTR	58	144	3
NMSCR	58	144	3	96	72	6
NMHLD	59	0	4	48
NMHLD	59	0	5	48
NMHLD	59	72	4	48
NMHLD	59	72	5	48
NMHLD	59	144	3	48
NMHLD	59	144	6	48
NMTAP	59	216	3
NMTAP	59	216	6
NMTAP	59	288	5
NMTAP	59	312	4
NMTAP	59	336	5
NMTAP	59	360	4
NMTAP	60	0	6
NMTAP	60	48	2
NMTAP	60	72	3
NMTAP	60	96	2
NMTAP	60	144	4
NMTAP	60	168	3
NMTAP	60	192	4
NMTAP	60	240	2
NMTAP	60	240	3
NMTAP	60	288	1
NMTAP	60	288	4
NMTAP	61	0	3
NMTAP	61	0	6
NMTAP	61	48	5
NMTAP	61	72	4
NMTAP	61	96	5
NMTAP	61	144	3
NMTAP	61	168	4
NMTAP	61	192	3
NMTAP	61	240	4
NMTAP	61	240	5
NMTAP	61	288	3
NMTAP	61	288	7
NMTAP	62	0	0
EXTAP	62	0	2
NMTAP	62	72	0
EXTAP	62	96	2
NMTAP	62	144	1
EXTAP	62	192	2
NMTAP	62	216	3
NMTAP	62	240	2
EXTAP	62	288	1
NMTAP	62	288	4
NMTAP	63	0	4
EXTAP	63	0	6
NMTAP	63	72	4
EXTAP	63	96	6
NMTAP	63	144	5
EXTAP	63	192	6
NMTAP	63	216	7
NMTAP	63	240	6
NMSTR	63	288	0
NMSUL	63	288	0	96	384	7
EXTAP	63	288	5
NMTTP	64	0	0	C	1	M1
CNSCL	65	0	7	0	288	0
NMSTR	66	0	1
NMSXL	66	0	1	96	480	0
NMTAP	66	0	4
NMTAP	66	96	4
NMTAP	66	192	5
NMTAP	66	288	5
NMTAP	67	0	4
NMTAP	67	96	4
NMTAP	67	192	5
NMTAP	67	288	6
NMTAP	67	288	7
NMTAP	68	0	0
NMTAP	68	0	5
NMTAP	68	48	0
NMTAP	68	96	0
NMTAP	68	96	5
NMTAP	68	144	0
NMTAP	68	192	1
NMTAP	68	192	4
NMTAP	68	240	1
NMTAP	68	288	1
NMTAP	68	288	4
NMTAP	68	336	1
NMTAP	69	0	2
NMTAP	69	0	5
NMTAP	69	48	6
NMTAP	69	96	3
NMTAP	69	96	7
NMTAP	69	144	2
NMTAP	69	192	1
NMTAP	69	192	5
NMTAP	69	240	6
NMTAP	69	288	0
NMTAP	69	304	7
NMTAP	69	320	0
NMTAP	69	336	7
NMTAP	69	352	0
NMTAP	69	368	7
NMHLD	70	0	1	48
NMHLD	70	0	6	48
NMHLD	70	72	2	48
NMHLD	70	72	3	48
NMHLD	70	144	4	48
NMHLD	70	144	5	48
NMHLD	70	216	6	48
NMHLD	70	216	7	48
NMHLD	70	288	1	48
NMHLD	70	288	3	48
NMHLD	70	360	4	48
NMHLD	70	360	5	48
NMHLD	71	48	0	48
NMHLD	71	48	1	48
NMHLD	71	120	3	48
NMHLD	71	120	4	48
NMSTR	71	192	1
NMSI_	71	192	1	96	48	4
NMSTR	71	192	6
NMSI_	71	192	6	96	48	3
NMSTR	71	288	1
NMSCL	71	288	1	96	96	2
NMTAP	71	288	6
BRTAP	72	0	1
BRTAP	72	0	7
NMSTR	72	144	6
NMSI_	72	144	6	96	48	1
NMSTR	72	192	1
NMSI_	72	192	1	96	48	4
NMSTR	72	240	4
NMSF_	72	240	4	96	48	0
NMTAP	72	288	4
EXTAP	73	48	1
EXTAP	73	48	7
EXSTR	73	96	2
NMSI_	73	96	2	96	48	4
EXSTR	73	96	6
NMSI_	73	96	6	96	48	0
NMSTR	73	192	2
NMSV_	73	192	2	96	48	7
NMSTR	73	192	6
NMSV_	73	192	6	96	48	3
NMSTR	73	288	2
NMSI_	73	288	2	96	48	0
NMSTR	73	288	6
NMSI_	73	288	6	96	48	4
BXTAP	74	0	2
BXTAP	74	0	6
NMSTR	74	144	1
BRSCL	74	144	1	96	48	6
NMSTR	74	192	6
BRSCL	74	192	6	96	48	3
NMSTR	74	240	3
NMSF_	74	240	3	96	48	7
NMTAP	74	288	3
EXTAP	75	48	0
EXTAP	75	48	6
EXTAP	75	96	1
EXTAP	75	96	5
NMTAP	75	192	6
NMTAP	75	216	7
NMTAP	75	240	6
NMTAP	75	288	0
NMTAP	75	288	5
NMTAP	75	336	2
NMTAP	75	336	3
NMHLD	76	0	0	48
NMHLD	76	0	1	48
NMHLD	76	72	5	48
NMHLD	76	72	6	48
NMTAP	76	144	2
NMHLD	76	144	3	144
NMTAP	76	240	1
NMTAP	76	288	0
NMSTR	76	336	7
NMSI_	76	336	7	96	48	3
NMSTR	77	0	3
NMSI_	77	0	3	96	48	7
NMSTR	77	48	7
NMSCR	77	48	7	96	96	5
BRTAP	77	96	4
BXHLD	77	192	6	96
NMTAP	77	336	7
NMTAP	77	360	7
NMTAP	78	0	0
NMTAP	78	0	6
NMTAP	78	48	5
NMTAP	78	96	3
NMTAP	78	96	4
NMTAP	78	144	1
NMTAP	78	144	2
NMTAP	78	192	0
NMTAP	78	192	7
NMSTR	78	240	5
NMSI_	78	240	5	96	48	0
NMSI_	78	240	5	96	48	1
NMTAP	78	240	6
EXTAP	78	288	5
EXTAP	79	48	0
EXTAP	79	48	2
NMSTR	79	96	3
NMSUL	79	96	3	96	48	7
NMSTR	79	96	7
NMSUL	79	96	7	96	48	3
NMSTR	79	192	3
NMSCR	79	192	3	96	48	6
NMSTR	79	192	7
NMSCR	79	192	7	96	48	2
EXSTR	79	288	3
NMSLL	79	288	3	96	72	6
EXSTR	79	288	7
NMSLL	79	288	7	96	72	2
BXTAP	80	0	3
BXTAP	80	0	7
NMSTR	80	144	0
NMSCR	80	144	0	96	48	3
NMSTR	80	192	3
NMSI_	80	192	3	96	48	7
NMSTR	80	240	7
NMSCL	80	240	7	96	48	4
NMSUR	80	240	7	96	48	4
NMTAP	80	288	7
EXTAP	81	48	3
EXTAP	81	48	5
EXSTR	81	96	2
NMSUL	81	96	2	96	48	6
EXSTR	81	96	6
NMSUL	81	96	6	96	48	2
NMSTR	81	192	2
NMSCR	81	192	2	96	48	5
NMSTR	81	192	6
NMSCR	81	192	6	96	48	1
EXSTR	81	288	2
NMSLL	81	288	2	96	72	5
EXSTR	81	288	6
NMSLL	81	288	6	96	72	1
BXTAP	82	0	2
BXTAP	82	0	6
NMSTR	82	144	7
NMSUR	82	144	7	96	48	3
NMSTR	82	192	3
NMSCR	82	192	3	96	48	6
NMSTR	82	240	6
BRSF_	82	240	6	96	48	2
NMTAP	82	288	6
EXTAP	83	48	1
EXTAP	83	48	3
EXTAP	83	96	0
EXTAP	83	96	4
NMTAP	83	192	6
NMTAP	83	192	7
NMTAP	83	240	5
NMTAP	83	288	0
NMTAP	83	288	1
NMTAP	83	336	2
NMHLD	84	0	4	48
NMHLD	84	0	5	48
NMHLD	84	72	1	48
NMHLD	84	72	2	48
NMTAP	84	144	0
NMHLD	84	144	6	96
NMTAP	84	240	7
NMTAP	84	288	4
NMSTR	84	336	6
NMSI_	84	336	6	96	48	3
NMSTR	85	0	3
NMSI_	85	0	3	96	48	6
NMSTR	85	48	6
NMSI_	85	48	6	96	48	1
NMSTR	85	96	1
NMSCL	85	96	1	96	96	2
NMTAP	85	144	2
BRTAP	85	192	2
NMTAP	85	336	0
NMSTR	85	336	1
NMSI_	85	336	1	96	48	5
NMTAP	86	0	2
NMTAP	86	48	1
NMSTR	86	48	7
NMSI_	86	48	7	96	48	3
NMTAP	86	96	6
NMSTR	86	144	2
NMSI_	86	144	2	96	48	0
NMTAP	86	144	7
NMTAP	86	192	1
NMTAP	86	240	2
NMSTR	86	240	5
NMSI_	86	240	5	96	48	3
NMTAP	86	288	6
NMTAP	86	336	5
NMSTR	86	336	7
NMSCR	86	336	7	96	96	4
NMTTP	87	48	2	B	1	M1
NMTTP	87	48	2	E	0	M1
NMTTP	87	48	3	E	0	M1
CNSXR	87	144	4	0	144	0
NMTAP	87	336	1
NMSTR	87	336	7
NMSI_	87	336	7	96	48	3
NMTAP	88	0	6
NMSTR	88	48	2
NMSI_	88	48	2	96	48	6
NMTAP	88	48	7
NMTAP	88	96	1
NMTAP	88	144	2
NMSTR	88	144	4
NMSI_	88	144	4	96	48	7
NMTAP	88	192	5
NMSTR	88	240	2
NMSI_	88	240	2	96	48	4
NMTAP	88	240	4
NMTAP	88	288	1
NMSTR	88	336	0
NMSCL	88	336	0	96	96	3
NMTAP	88	336	2
NMTTP	89	48	5	B	1	M1
NMTTP	89	48	5	E	0	M1
NMTTP	89	48	6	E	0	M1
CNSCR	89	144	3	0	96	0
NMTAP	89	336	0
NMTAP	89	336	1
NMTAP	90	0	2
NMHLD	90	0	7	48
NMTAP	90	12	3
NMTAP	90	24	4
NMTAP	90	72	2
NMHLD	90	72	7	48
NMTAP	90	84	3
NMTAP	90	96	4
NMSTR	90	144	2
NMSCL	90	144	2	96	48	7
NMSTR	90	144	7
NMSCL	90	144	7	96	48	4
NMTAP	90	156	3
NMTAP	90	168	4
NMTAP	90	240	2
NMSTR	90	240	7
NMSI_	90	240	7	96	48	3
NMSTR	90	336	7
NMSF_	90	336	7	96	48	3
BRSTR	91	48	7
NMSXL	91	48	7	96	240	3
BRSXR	91	48	7	96	264	3
CNSCL	92	0	3	0	192	0
CNSCR	92	24	3	0	168	6
NMTAP	92	288	0
NMTAP	92	288	6
NMHLD	93	0	1	48
NMHLD	93	0	5	48
NMHLD	93	72	1	48
NMHLD	93	72	5	48
NMTAP	93	144	2
NMTAP	93	144	6
NMTAP	93	192	2
NMTAP	93	192	6
NMSTR	93	240	7
NMSCL	93	240	7	96	48	4
NMTAP	93	288	0
NMTAP	93	288	1
NMTAP	93	336	2
NMTAP	93	336	7
NMSTR	94	0	3
NMSCL	94	0	3	96	48	0
NMTAP	94	48	4
NMTAP	94	96	3
NMTAP	94	96	5
NMTAP	94	144	6
NMTAP	94	192	7
NMTAP	94	216	7
NMTAP	94	240	7
NMTAP	94	264	7
NMTAP	94	288	7
BRTAP	94	312	7
NMHLD	95	0	0	48
NMHLD	95	0	6	48
NMHLD	95	72	0	48
NMHLD	95	72	6	48
NMTAP	95	144	1
NMTAP	95	144	5
NMTAP	95	192	1
NMTAP	95	192	5
NMSTR	95	240	0
NMSCR	95	240	0	96	48	3
NMTAP	95	288	6
NMTAP	95	288	7
NMTAP	95	336	0
NMTAP	95	336	5
NMSTR	96	0	4
NMSCR	96	0	4	96	48	7
NMTAP	96	48	3
NMTAP	96	96	2
NMTAP	96	96	4
NMTAP	96	144	1
NMSTR	96	192	0
NMSI_	96	192	0	96	48	3
NMSI_	96	192	0	96	48	5
NMTAP	96	240	1
NMTAP	96	288	0
NMTAP	97	0	1
NMTAP	97	24	0
NMTAP	97	48	2
NMTAP	97	72	7
NMTAP	97	96	3
NMTAP	97	120	6
NMTAP	97	144	4
NMTAP	97	168	5
NMTAP	97	192	2
NMTAP	97	216	3
NMTAP	97	240	1
NMTAP	97	264	4
NMTAP	97	288	0
NMTAP	97	312	5
NMTAP	97	336	7
NMTAP	97	360	6
NMTAP	98	0	0
NMTAP	98	12	1
NMTAP	98	24	2
NMTAP	98	36	3
NMTAP	98	48	4
NMTAP	98	60	5
NMTAP	98	72	6
NMTAP	98	84	7
NMTAP	98	96	0
NMTAP	98	108	1
NMTAP	98	120	2
NMTAP	98	132	3
NMTAP	98	144	4
NMTAP	98	156	5
NMTAP	98	168	6
NMTAP	98	180	7
NMTAP	98	192	0
NMTAP	98	204	1
NMTAP	98	216	2
NMTAP	98	228	3
NMTAP	98	240	4
NMTAP	98	252	5
NMTAP	98	264	6
NMTAP	98	276	7
NMSTR	98	288	0
BRSF_	98	288	0	96	48	4
NMTAP	98	288	4
BRTAP	99	0	0
NMTAP	99	192	3
NMTAP	99	192	5
NMHLD	99	288	6	72
NMHLD	99	360	4	72
NMTAP	100	48	5
NMHLD	100	96	1	72
NMHLD	100	168	3	72
NMSTR	100	240	2
NMSCR	100	240	2	96	48	5
NMTAP	100	288	2

T_REC_TAP	524
T_REC_BRK	17
T_REC_XTP	47
T_REC_BXX	13
T_REC_HLD	112
T_REC_XHO	0
T_REC_BHO	0
T_REC_BXH	2
T_REC_STR	106
T_REC_BST	3
T_REC_XST	16
T_REC_XBS	0
T_REC_TTP	27
T_REC_THO	0
T_REC_SLD	124
T_REC_BSL	7
T_REC_ALL	998
T_NUM_TAP	720
T_NUM_BRK	42
T_NUM_HLD	112
T_NUM_SLD	124
T_NUM_ALL	998
T_JUDGE_TAP	753
T_JUDGE_HLD	160
T_JUDGE_SLD	131
T_JUDGE_ALL	1044
TTM_EACHPAIRS	214
TTM_SCR_TAP	360000
TTM_SCR_BRK	109200
TTM_SCR_HLD	112000
TTM_SCR_SLD	186000
TTM_SCR_ALL	767200
TTM_SCR_S	740150
TTM_SCR_SS	763000
TTM_RAT_ACV	10055

