VERSION	0.00.00	1.04.00
FES_MODE	0
BPM_DEF	163.000	163.000	163.000	163.000
MET_DEF	4	4
RESOLUTION	384
CLK_DEF	384
COMPATIBLE_CODE	MA2

BPM	0	0	163.000
MET	0	0	4	4

BXSTR	2	0	2
NMSCL	2	0	2	96	480	3
NMTTP	4	0	3	E	0	M1
NMTTP	4	96	2	E	0	M1
NMTTP	4	192	1	E	0	M1
NMTTP	4	288	0	E	0	M1
NMTTP	5	0	7	E	0	M1
NMTTP	5	96	0	C	0	M1
NMTTP	5	192	3	E	0	M1
NMTTP	5	192	4	E	0	M1
BXSTR	6	0	5
NMSCR	6	0	5	96	480	4
NMTTP	8	0	5	E	0	M1
NMTTP	8	96	6	E	0	M1
NMTTP	8	192	7	E	0	M1
NMTTP	8	288	0	E	0	M1
NMTTP	9	0	0	C	1	M1
NMTAP	10	0	1
NMTAP	10	48	1
NMTAP	10	96	0
NMTAP	10	192	6
NMTAP	10	240	6
NMTAP	10	288	7
NMTAP	11	0	2
NMTAP	11	48	2
NMTAP	11	96	0
NMTAP	11	192	5
NMTAP	11	288	5
NMTAP	11	288	7
NMTAP	12	0	1
NMHLD	12	48	1	72
NMHLD	12	120	3	72
NMHLD	12	192	2	72
NMHLD	12	264	4	72
NMTAP	12	336	3
NMTAP	13	48	2
NMTAP	13	48	4
NMSTR	13	96	2
NMSCR	13	96	2	96	96	5
NMTAP	13	96	4
NMTAP	14	0	6
NMTAP	14	48	6
NMTAP	14	96	7
NMTAP	14	192	1
NMTAP	14	240	1
NMTAP	14	288	0
NMTAP	15	0	5
NMTAP	15	48	5
NMTAP	15	96	7
NMTAP	15	192	2
NMTAP	15	288	0
NMTAP	15	288	2
NMTAP	16	0	6
NMHLD	16	48	6	72
NMHLD	16	120	4	72
NMHLD	16	192	5	72
NMHLD	16	264	3	72
NMTAP	16	336	4
NMTAP	17	48	2
NMTAP	17	48	5
NMSTR	17	96	2
NMSV_	17	96	2	96	96	3
NMSTR	17	96	5
NMSV_	17	96	5	96	96	4
EXTAP	18	0	2
EXTAP	18	0	5
NMTAP	18	96	2
EXTAP	18	144	3
NMTAP	18	192	2
NMTAP	18	288	1
NMTAP	18	288	4
EXTAP	19	0	2
EXTAP	19	0	3
NMTAP	19	96	5
EXTAP	19	144	4
NMTAP	19	192	5
NMTAP	19	288	3
NMTAP	19	288	6
NMSTR	20	0	7
NMSI_	20	0	7	96	96	4
NMTAP	20	288	1
NMSTR	21	0	0
NMSI_	21	0	0	96	96	3
NMTAP	21	288	4
EXTAP	22	0	3
EXTAP	22	0	4
NMTAP	22	96	5
EXTAP	22	144	4
NMTAP	22	192	5
NMTAP	22	288	3
NMTAP	22	288	6
EXTAP	23	0	4
EXTAP	23	0	5
NMTAP	23	96	2
EXTAP	23	144	3
NMTAP	23	192	2
NMTAP	23	288	1
NMTAP	23	288	4
NMSTR	24	0	0
NMSXL	24	0	0	96	192	0
EXTAP	24	288	6
NMSTR	25	0	7
NMSXR	25	0	7	96	192	7
EXTAP	25	288	0
EXTAP	26	0	0
EXTAP	26	0	1
EXTAP	26	72	0
EXTAP	26	72	1
EXTAP	26	144	0
EXTAP	26	144	1
BXTAP	26	216	2
BXTAP	26	216	7
EXTAP	27	0	6
EXTAP	27	0	7
EXTAP	27	72	6
EXTAP	27	72	7
EXTAP	27	144	6
EXTAP	27	144	7
BXTAP	27	216	0
BXTAP	27	216	5
NMSTR	28	0	4
NMSCR	28	0	4	96	96	7
NMSTR	28	192	1
NMSCR	28	192	1	96	96	4
NMSTR	29	0	6
NMSCR	29	0	6	96	96	1
NMTAP	29	192	2
NMTAP	29	288	2
NMTAP	29	288	3
NMHLD	30	0	1	72
NMHLD	30	72	3	72
NMTAP	30	144	2
NMTAP	30	240	2
NMTAP	30	240	4
NMTAP	30	288	2
NMTAP	30	288	4
NMHLD	31	0	6	72
NMHLD	31	72	4	72
NMTAP	31	144	5
NMTAP	31	240	3
NMTAP	31	240	5
NMTAP	31	288	3
NMTAP	31	288	5
NMHLD	32	0	1	72
NMHLD	32	72	3	72
NMHLD	32	144	2	72
NMHLD	32	216	6	72
NMHLD	32	288	4	72
NMHLD	32	360	5	72
NMHLD	33	48	1	72
NMHLD	33	120	7	72
NMSTR	33	192	0
NMSV_	33	192	0	96	48	3
NMSV_	33	192	0	96	48	5
BRTAP	34	0	2
BRTAP	34	0	6
NMTAP	34	144	1
NMTAP	34	144	7
NMTAP	34	192	1
NMTAP	34	192	7
NMTAP	34	288	0
NMTAP	34	288	6
NMSTR	34	336	0
NMSCR	34	336	0	96	72	3
NMSTR	34	336	6
NMSUR	34	336	6	96	72	3
NMSTR	35	192	4
NMSI_	35	192	4	96	48	1
NMSI_	35	192	4	96	48	7
BRTAP	36	0	2
BRTAP	36	0	6
NMTAP	36	144	3
NMTAP	36	144	5
NMTAP	36	192	3
NMTAP	36	192	5
NMTAP	36	288	2
NMTAP	36	288	4
NMSTR	36	336	2
NMSCR	36	336	2	96	144	1
NMTAP	36	336	4
EXTAP	37	192	3
EXTAP	37	288	2
EXTAP	37	288	3
NMTAP	38	0	4
NMTAP	38	48	4
NMSTR	38	96	3
BRSI_	38	96	3	96	96	0
BRSCR	38	96	3	96	96	5
EXTAP	39	0	6
EXTAP	39	0	7
NMTAP	39	96	0
NMTAP	39	96	5
NMTAP	39	144	0
NMTAP	39	144	5
NMTAP	39	240	2
NMTAP	39	240	7
NMTAP	39	336	6
NMTAP	40	0	6
NMTAP	40	48	4
NMTAP	40	96	4
NMTAP	40	144	3
NMTAP	40	240	2
NMTAP	40	240	4
NMTAP	40	336	1
NMTAP	40	336	3
NMTAP	41	48	4
NMTAP	41	48	5
NMTAP	41	144	6
NMTAP	41	144	7
NMTAP	41	192	6
NMSTR	41	192	7
NMSV_	41	192	7	96	48	2
NMSV_	41	192	7	96	48	4
BRTAP	42	0	1
BRTAP	42	0	5
NMTAP	42	144	0
NMTAP	42	144	6
NMTAP	42	192	0
NMTAP	42	192	6
NMTAP	42	288	1
NMTAP	42	288	7
NMSTR	42	336	1
NMSUL	42	336	1	96	72	4
NMSTR	42	336	7
NMSCL	42	336	7	96	72	4
NMSTR	43	192	3
NMSI_	43	192	3	96	48	0
NMSI_	43	192	3	96	48	6
BRTAP	44	0	1
BRTAP	44	0	5
NMTAP	44	144	0
NMTAP	44	144	6
NMTAP	44	192	0
NMTAP	44	192	6
NMTAP	44	288	7
NMSTR	44	336	7
NMSF_	44	336	7	96	72	3
NMTAP	45	192	1
NMTAP	45	240	1
NMTAP	45	288	7
NMHLD	46	0	6	72
NMHLD	46	72	5	72
NMTAP	46	144	4
NMTAP	46	240	3
NMTAP	46	240	5
NMTAP	46	336	6
NMTAP	46	336	7
NMTAP	47	48	0
NMTAP	47	48	1
NMTAP	47	144	2
NMTAP	47	144	3
NMTAP	47	240	1
NMTAP	47	240	4
NMTAP	47	336	2
NMTAP	48	0	2
NMTAP	48	48	0
NMTAP	48	96	0
NMTAP	48	144	7
NMTAP	48	240	0
NMTAP	48	240	6
NMTTP	48	336	0	C	1	M1
NMTTP	48	336	1	B	0	M1
NMTTP	48	336	2	B	0	M1
NMTTP	48	336	3	B	0	M1
NMTTP	48	336	4	B	0	M1
EXTAP	49	288	0
EXTAP	49	288	7
NMHLD	50	0	0	72
NMHLD	50	72	1	72
NMTAP	50	144	2
NMTAP	50	240	2
NMTAP	50	240	3
NMTAP	50	288	2
NMTAP	50	288	3
NMTAP	51	0	5
NMTAP	51	48	5
NMTAP	51	96	4
NMTAP	51	96	5
NMTAP	51	192	6
NMTAP	51	240	6
NMTAP	51	288	6
NMTAP	51	288	7
NMTAP	52	0	7
NMHLD	52	48	7	72
NMHLD	52	120	6	72
NMHLD	52	192	5	72
NMHLD	52	264	4	72
NMTAP	52	336	3
NMTAP	53	48	2
NMTAP	53	48	4
NMSTR	53	96	2
NMSV_	53	96	2	96	96	0
NMSTR	53	96	4
NMSCR	53	96	4	96	96	7
NMHLD	54	0	7	72
NMHLD	54	72	6	72
NMTAP	54	144	5
NMTAP	54	240	4
NMTAP	54	240	5
NMTAP	54	288	4
NMTAP	54	288	5
NMTAP	55	0	2
NMTAP	55	48	2
NMTAP	55	96	2
NMTAP	55	96	3
NMTAP	55	192	1
NMTAP	55	240	1
NMTAP	55	288	0
NMTAP	55	288	1
NMSTR	56	0	2
NMSI_	56	0	2	96	96	5
NMSTR	56	192	6
NMSI_	56	192	6	96	96	2
NMTAP	57	0	1
NMTAP	57	48	1
NMTAP	57	96	0
NMTAP	57	192	0
NMTAP	57	192	7
EXTAP	58	0	6
EXTAP	58	0	7
EXTAP	58	72	6
EXTAP	58	72	7
EXTAP	58	144	6
EXTAP	58	144	7
BXTAP	58	216	0
BXTAP	58	216	5
EXTAP	59	0	0
EXTAP	59	0	1
EXTAP	59	72	0
EXTAP	59	72	1
EXTAP	59	144	0
EXTAP	59	144	1
BXTAP	59	216	2
BXTAP	59	216	7
NMSTR	60	0	3
NMSCL	60	0	3	96	96	0
NMSTR	60	192	6
NMSCL	60	192	6	96	96	3
NMSTR	61	0	1
NMSCL	61	0	1	96	96	6
NMTAP	61	192	5
NMTAP	61	288	4
NMTAP	61	288	5
NMHLD	62	0	6	72
NMHLD	62	72	4	72
NMTAP	62	144	5
NMTAP	62	240	3
NMTAP	62	240	6
NMTAP	62	288	3
NMTAP	62	288	6
NMHLD	63	0	1	72
NMHLD	63	72	3	72
NMTAP	63	144	2
NMTAP	63	240	1
NMTAP	63	240	4
NMTAP	63	288	1
NMSTR	63	288	4
BRSUL	63	288	4	96	240	3
NMTTP	64	0	0	C	1	M1
CNSCL	64	240	3	0	336	5
BRTAP	65	288	1
BRTAP	65	288	5
NMHLD	66	0	2	576
NMTTP	66	96	0	C	0	M1
NMTTP	66	192	3	E	0	M1
NMTTP	66	288	2	D	0	M1
NMTTP	67	0	1	E	0	M1
NMTTP	67	96	0	C	0	M1
NMTTP	67	192	5	E	0	M1
NMTAP	67	288	3
NMTAP	67	288	5
NMHLD	68	0	5	576
NMTTP	68	96	0	C	0	M1
NMTTP	68	192	5	E	0	M1
NMTTP	68	288	6	D	0	M1
NMTTP	69	0	7	E	0	M1
NMTTP	69	96	0	C	0	M1
NMTTP	69	192	3	E	0	M1
NMTAP	69	288	2
NMTAP	69	288	4
NMHLD	70	0	1	72
NMHLD	70	72	3	72
NMHLD	70	144	4	72
NMHLD	70	216	6	72
NMHLD	70	288	1	72
NMHLD	70	360	3	72
NMHLD	71	48	4	72
NMHLD	71	120	6	72
NMSTR	71	192	7
NMSF_	71	192	7	96	48	3
BRTAP	72	0	1
BRTAP	72	0	5
NMTAP	72	144	6
NMTAP	72	144	7
NMTAP	72	192	6
NMTAP	72	192	7
NMTAP	72	288	0
NMTAP	72	288	4
NMSTR	72	336	0
NMSCR	72	336	0	96	72	3
NMSTR	72	336	4
NMSUL	72	336	4	96	72	7
NMSTR	73	192	6
NMSI_	73	192	6	96	48	2
NMSI_	73	192	6	96	48	3
BRTAP	74	0	0
BRTAP	74	0	1
NMTAP	74	144	2
NMTAP	74	144	6
NMTAP	74	192	2
NMTAP	74	192	6
NMTAP	74	288	1
NMTAP	74	288	5
NMSTR	74	336	1
NMSCL	74	336	1	96	144	2
NMTAP	74	336	5
EXTAP	75	192	0
EXTAP	75	288	0
EXTAP	75	288	1
NMHLD	76	0	7	72
NMHLD	76	72	6	72
NMTAP	76	144	5
NMTAP	76	240	4
NMTAP	76	240	6
NMTAP	76	336	1
NMTAP	76	336	3
NMTAP	77	0	1
NMTAP	77	0	3
NMTAP	77	96	0
NMTAP	77	96	7
BRTAP	77	192	1
BRTAP	77	192	6
NMTAP	77	336	5
NMTAP	78	0	5
NMTAP	78	48	7
NMTAP	78	96	7
NMTAP	78	144	0
NMTAP	78	240	1
NMTAP	78	240	7
NMTAP	78	336	4
NMTAP	78	336	6
NMTAP	79	48	2
NMTAP	79	48	3
NMTAP	79	144	0
NMTAP	79	144	1
NMSTR	79	192	0
NMSF_	79	192	0	96	48	4
NMTAP	79	192	1
BRTAP	80	0	2
BRTAP	80	0	6
NMTAP	80	144	0
NMTAP	80	144	1
NMTAP	80	192	0
NMTAP	80	192	1
NMTAP	80	288	3
NMTAP	80	288	7
NMSTR	80	336	3
NMSUR	80	336	3	96	72	0
NMSTR	80	336	7
NMSCL	80	336	7	96	72	4
NMSTR	81	192	1
NMSI_	81	192	1	96	48	4
NMSI_	81	192	1	96	48	5
BRTAP	82	0	6
BRTAP	82	0	7
NMTAP	82	144	1
NMTAP	82	144	5
NMTAP	82	192	1
NMTAP	82	192	5
NMTAP	82	288	3
NMTAP	82	288	7
NMSTR	82	336	3
NMSV_	82	336	3	96	96	1
NMSTR	82	336	7
NMSV_	82	336	7	96	96	5
NMTAP	83	192	6
NMTAP	83	240	6
NMTAP	83	288	7
NMHLD	84	0	0	72
NMHLD	84	72	1	72
NMTAP	84	144	2
NMTAP	84	240	1
NMTAP	84	240	3
NMTAP	84	336	4
NMTAP	84	336	6
NMTAP	85	48	0
NMTAP	85	48	7
BRHLD	85	144	1	96
BRHLD	85	144	5	96
NMTAP	85	336	6
NMTAP	86	0	6
NMTAP	86	48	4
NMTAP	86	96	4
NMTAP	86	144	2
NMTAP	86	240	1
NMTAP	86	240	3
NMTTP	86	336	0	B	0	M1
NMTTP	86	336	0	C	1	M1
NMTTP	86	336	0	A	0	M1
NMTTP	86	336	4	B	0	M1
NMTTP	86	336	4	A	0	M1
EXTAP	87	192	6
EXTAP	87	192	7
EXTAP	87	240	6
EXTAP	87	240	7
NMTAP	87	336	1
NMTAP	88	0	1
NMTAP	88	48	3
NMTAP	88	96	3
NMTAP	88	144	5
NMTAP	88	240	4
NMTAP	88	240	6
NMTTP	88	336	0	C	1	M1
NMTTP	88	336	3	B	0	M1
NMTTP	88	336	3	A	0	M1
NMTTP	88	336	7	B	0	M1
NMTTP	88	336	7	A	0	M1
EXTAP	89	192	0
EXTAP	89	192	1
EXTAP	89	240	0
EXTAP	89	240	1
NMTAP	89	336	0
NMTAP	89	336	7
NMTAP	90	0	0
NMTAP	90	0	7
NMTAP	90	72	1
NMTAP	90	72	6
NMTAP	90	144	3
NMTAP	90	144	4
NMTAP	90	240	2
NMTAP	90	240	5
BRSTR	90	336	2
BRSSL	90	336	2	96	216	6
BRSTR	90	336	5
BRSSR	90	336	5	96	216	1
CNSCL	91	264	1	0	312	4
CNSCR	91	264	6	0	312	3
NMTAP	92	288	2
NMTAP	92	288	5
NMHLD	93	0	6	72
NMTAP	93	72	7
NMTAP	93	144	0
NMTAP	93	144	5
NMTAP	93	240	2
NMTAP	93	288	2
NMTAP	93	336	1
NMTAP	93	336	3
NMTAP	94	48	5
NMTAP	94	96	5
NMTAP	94	144	4
NMTAP	94	144	6
NMTAP	94	240	2
NMTAP	94	240	7
NMTAP	94	288	2
NMTAP	94	288	7
NMHLD	95	0	1	72
NMTAP	95	72	0
NMTAP	95	144	2
NMTAP	95	144	7
NMTAP	95	240	5
NMTAP	95	288	5
NMTAP	95	336	4
NMTAP	95	336	6
NMTAP	96	48	2
NMTAP	96	96	2
NMTAP	96	144	1
NMTAP	96	144	3
NMTAP	96	240	0
NMTAP	96	240	5
NMTAP	96	288	0
NMTAP	96	288	5
NMTAP	97	0	6
NMTAP	97	0	7
NMTAP	97	72	6
NMTAP	97	72	7
NMSTR	97	144	0
NMSI_	97	144	0	96	48	3
NMSTR	97	144	5
NMSI_	97	144	5	96	48	0
NMSTR	97	336	2
NMSI_	97	336	2	96	48	7
NMSTR	97	336	7
NMSI_	97	336	7	96	48	4
NMTAP	98	144	0
NMTAP	98	144	5
NMTAP	98	192	0
NMTAP	98	192	5
NMTAP	98	288	2
NMTAP	98	288	3
BRHLD	99	0	1	744
BRSTR	99	0	7
BRSI_	99	0	7	96	144	1
CNSV_	99	240	1	0	192	2
CNSI_	100	48	2	0	120	4
CNSI_	100	168	4	0	192	7

T_REC_TAP	306
T_REC_BRK	20
T_REC_XTP	56
T_REC_BXX	8
T_REC_HLD	50
T_REC_XHO	0
T_REC_BHO	3
T_REC_BXH	0
T_REC_STR	44
T_REC_BST	3
T_REC_XST	0
T_REC_XBS	2
T_REC_TTP	41
T_REC_THO	0
T_REC_SLD	50
T_REC_BSL	6
T_REC_ALL	589
T_NUM_TAP	447
T_NUM_BRK	42
T_NUM_HLD	50
T_NUM_SLD	50
T_NUM_ALL	589
T_JUDGE_TAP	480
T_JUDGE_HLD	140
T_JUDGE_SLD	56
T_JUDGE_ALL	676
TTM_EACHPAIRS	155
TTM_SCR_TAP	223500
TTM_SCR_BRK	109200
TTM_SCR_HLD	50000
TTM_SCR_SLD	75000
TTM_SCR_ALL	457700
TTM_SCR_S	439900
TTM_SCR_SS	453500
TTM_RAT_ACV	10092

