VERSION	0.00.00	1.04.00
FES_MODE	0
BPM_DEF	163.000	163.000	163.000	163.000
MET_DEF	4	4
RESOLUTION	384
CLK_DEF	384
COMPATIBLE_CODE	MA2

BPM	0	0	163.000
MET	0	0	4	4

NMTAP	2	0	4
NMTAP	2	96	4
NMTAP	2	192	4
NMTAP	3	0	5
NMTAP	3	96	5
NMTAP	3	192	5
NMTAP	4	0	6
NMTAP	4	96	6
NMTAP	4	192	6
NMTAP	5	0	0
NMTAP	5	0	7
NMTAP	5	192	0
NMTAP	5	192	7
NMTAP	6	0	0
NMTAP	6	96	0
NMTAP	6	192	0
NMTAP	7	0	1
NMTAP	7	96	1
NMTAP	7	192	1
NMTAP	8	0	2
NMTAP	8	96	2
NMTAP	8	192	2
NMTAP	9	0	3
NMTAP	9	0	4
NMTAP	9	192	3
NMTAP	9	192	4
NMTAP	10	0	2
NMTAP	10	96	2
NMTAP	10	192	1
NMTAP	10	288	1
NMTAP	11	0	0
NMTAP	11	96	0
NMTAP	11	192	6
NMTAP	11	192	7
NMTAP	12	0	5
NMTAP	12	96	5
NMTAP	12	192	6
NMTAP	12	288	6
NMTAP	13	0	7
NMTAP	13	96	7
NMTAP	13	192	0
NMTAP	13	192	1
NMTAP	14	0	1
NMTAP	14	96	1
NMTAP	14	192	2
NMTAP	14	288	2
NMTAP	15	0	3
NMTAP	15	96	3
NMTAP	15	192	4
NMTAP	15	192	5
NMTAP	16	0	6
NMTAP	16	96	6
NMTAP	16	192	5
NMTAP	16	288	5
NMTAP	17	0	4
NMTAP	17	96	4
NMTAP	17	192	2
NMTAP	17	192	3
NMHLD	18	0	2	192
NMHLD	18	192	3	192
NMHLD	19	0	4	192
NMTAP	19	192	5
NMHLD	20	0	5	192
NMHLD	20	192	4	192
NMHLD	21	0	3	192
NMTAP	21	192	2
NMHLD	22	0	1	192
NMHLD	22	192	2	192
NMHLD	23	0	3	192
NMTAP	23	192	4
NMHLD	24	0	6	192
NMHLD	24	192	5	192
NMHLD	25	0	4	192
NMTAP	25	192	3
NMSTR	26	0	2
NMSI_	26	0	2	96	192	5
NMSTR	27	0	6
NMSI_	27	0	6	96	192	3
NMSTR	28	0	1
NMSI_	28	0	1	96	192	4
NMSTR	29	0	5
NMSI_	29	0	5	96	192	0
NMSTR	30	0	1
NMSI_	30	0	1	96	192	5
NMSTR	31	0	7
NMSI_	31	0	7	96	192	3
NMSTR	32	0	1
NMSUR	32	0	1	96	480	4
NMTAP	34	0	5
NMTAP	34	96	5
NMTAP	34	192	6
NMTAP	34	192	7
NMTAP	34	288	6
NMTAP	34	288	7
NMTAP	35	0	0
NMTAP	35	96	0
NMTAP	35	192	0
NMTAP	35	192	1
NMTAP	36	0	2
NMTAP	36	96	2
NMTAP	36	192	0
NMTAP	36	192	1
NMTAP	36	288	0
NMTAP	36	288	1
NMTAP	37	0	7
NMTAP	37	96	7
NMTAP	37	192	6
NMTAP	37	192	7
NMTAP	38	0	6
NMTAP	38	96	6
NMTAP	38	192	4
NMTAP	38	192	5
NMTAP	38	288	4
NMTAP	38	288	5
NMTAP	39	0	3
NMTAP	39	96	3
NMTAP	39	192	2
NMTAP	39	192	3
NMTAP	40	0	1
NMTAP	40	96	1
NMTAP	40	192	2
NMTAP	40	192	3
NMTAP	40	288	2
NMTAP	40	288	3
NMTAP	41	0	4
NMTAP	41	96	4
NMTAP	41	192	4
NMTAP	41	192	5
NMTAP	42	0	6
NMTAP	42	96	6
NMTAP	42	192	6
NMTAP	42	288	6
NMTAP	42	288	7
NMTAP	43	0	5
NMTAP	43	96	5
NMTAP	43	192	5
NMTAP	43	288	4
NMTAP	43	288	5
NMTAP	44	0	3
NMTAP	44	96	3
NMTAP	44	192	3
NMTAP	44	288	2
NMTAP	44	288	3
NMTAP	45	0	0
NMTAP	45	0	1
NMTAP	45	96	0
NMTAP	45	96	1
NMTAP	45	192	2
NMTAP	45	192	7
NMTAP	46	0	1
NMTAP	46	96	1
NMTAP	46	192	1
NMTAP	46	288	0
NMTAP	46	288	1
NMTAP	47	0	2
NMTAP	47	96	2
NMTAP	47	192	2
NMTAP	47	288	2
NMTAP	47	288	3
NMTAP	48	0	4
NMTAP	48	96	4
NMTAP	48	192	4
NMTAP	48	288	4
NMTAP	48	288	5
NMTAP	49	0	6
NMTAP	49	0	7
NMTAP	49	96	6
NMTAP	49	96	7
NMTAP	49	192	0
NMTAP	49	192	5
NMTAP	50	0	7
NMTAP	50	96	6
NMTAP	50	192	5
NMTAP	50	288	4
NMTAP	51	0	3
NMTAP	51	96	2
NMTAP	51	192	0
NMTAP	51	192	1
NMTAP	52	0	0
NMTAP	52	96	1
NMTAP	52	192	2
NMTAP	52	288	3
NMTAP	53	0	4
NMTAP	53	96	5
NMTAP	53	192	6
NMTAP	53	192	7
NMTAP	54	0	7
NMTAP	54	96	6
NMTAP	54	192	5
NMTAP	54	288	4
NMTAP	55	0	3
NMTAP	55	96	2
NMTAP	55	192	1
NMTAP	55	288	0
NMTAP	56	0	7
NMTAP	56	96	6
NMTAP	56	192	5
NMTAP	56	288	4
NMTAP	57	0	3
NMTAP	57	0	4
NMTAP	57	96	3
NMTAP	57	96	4
NMTAP	57	192	2
NMTAP	57	192	5
NMSTR	58	0	2
NMSI_	58	0	2	96	192	5
NMSTR	59	0	6
NMSI_	59	0	6	96	192	3
NMSTR	60	0	1
NMSI_	60	0	1	96	192	4
NMSTR	61	0	6
NMSI_	61	0	6	96	192	2
NMSTR	62	0	1
NMSI_	62	0	1	96	192	5
NMSTR	63	0	7
NMSI_	63	0	7	96	192	3
NMTTP	64	0	1	B	0	L1
NMTTP	64	96	2	B	0	L1
NMTTP	64	192	3	B	0	L1
NMTTP	65	0	6	B	0	L1
NMTTP	65	96	5	B	0	L1
NMTTP	65	192	4	B	0	L1
NMTTP	66	0	1	B	0	L1
NMTTP	66	96	2	B	0	L1
NMTTP	66	192	3	B	0	L1
NMTTP	66	288	4	B	0	L1
NMTTP	67	0	5	B	0	L1
NMTTP	67	96	6	B	0	L1
NMTTP	67	192	0	C	0	L1
NMTTP	68	0	7	B	0	L1
NMTTP	68	96	6	B	0	L1
NMTTP	68	192	4	B	0	L1
NMTTP	68	192	5	B	0	L1
NMTTP	69	0	0	B	0	L1
NMTTP	69	96	1	B	0	L1
NMTTP	69	192	2	B	0	L1
NMTTP	69	192	3	B	0	L1
NMTTP	70	0	7	E	0	L1
NMTTP	70	96	6	E	0	L1
NMTTP	70	192	5	E	0	L1
NMTTP	70	288	4	E	0	L1
NMTTP	71	0	0	C	1	L1
BXTAP	72	0	0
NMTAP	72	48	0
NMTAP	72	96	0
NMTAP	72	192	0
NMTAP	72	192	7
NMTAP	72	288	0
NMTAP	72	288	7
NMTAP	73	0	7
NMTAP	73	48	7
NMTAP	73	96	7
NMTAP	73	192	6
NMTAP	73	192	7
NMTAP	74	0	5
NMTAP	74	48	5
NMTAP	74	96	5
NMTAP	74	192	6
NMTAP	74	192	7
NMTAP	74	288	6
NMTAP	74	288	7
NMTAP	75	0	0
NMTAP	75	48	0
NMTAP	75	96	0
NMTAP	75	192	0
NMTAP	75	192	1
NMTAP	76	0	1
NMTAP	76	48	1
NMTAP	76	96	1
NMTAP	76	192	2
NMTAP	76	192	3
NMTAP	76	288	2
NMTAP	76	288	3
NMTAP	77	0	4
NMTAP	77	48	4
NMTAP	77	96	4
NMTAP	77	192	4
NMTAP	77	192	5
NMTAP	78	0	6
NMTAP	78	48	6
NMTAP	78	96	6
NMTAP	78	192	4
NMTAP	78	192	5
NMTAP	78	288	4
NMTAP	78	288	5
NMTAP	79	0	3
NMTAP	79	48	3
NMTAP	79	96	3
NMTAP	79	192	2
NMTAP	79	192	3
BRTAP	80	0	2
NMTAP	80	48	2
NMTAP	80	96	2
NMTAP	80	192	0
NMTAP	80	192	1
NMTAP	80	288	0
NMTAP	80	288	1
NMTAP	81	0	7
NMTAP	81	48	7
NMTAP	81	96	7
NMTAP	81	192	6
NMTAP	81	192	7
NMTAP	81	288	6
NMTAP	81	288	7
NMTAP	82	0	5
NMTAP	82	48	5
NMTAP	82	96	5
NMTAP	82	192	6
NMTAP	82	192	7
NMTAP	82	288	6
NMTAP	82	288	7
NMTAP	83	0	0
NMTAP	83	48	0
NMTAP	83	96	0
NMTAP	83	192	0
NMTAP	83	192	1
NMTAP	84	0	1
NMTAP	84	48	1
NMTAP	84	96	1
NMTAP	84	192	2
NMTAP	84	192	3
NMTAP	84	288	2
NMTAP	84	288	3
NMTAP	85	0	4
NMTAP	85	48	4
NMTAP	85	96	4
NMTAP	85	192	4
NMTAP	85	192	5
NMTAP	85	288	4
NMTAP	85	288	5
NMTAP	86	0	6
NMTAP	86	48	6
NMTAP	86	96	6
NMTAP	86	192	4
NMTAP	86	192	5
NMTAP	86	288	4
NMTAP	86	288	5
NMTAP	87	0	3
NMTAP	87	48	3
NMTAP	87	96	3
NMTAP	87	192	2
NMTAP	87	192	3
NMTAP	88	0	1
NMTAP	88	48	1
NMTAP	88	96	1
NMTAP	88	192	2
NMTAP	88	240	2
NMTAP	88	288	2
NMTAP	89	0	3
NMTAP	89	48	3
NMTAP	89	96	3
NMTAP	89	192	4
NMTAP	89	240	4
NMTAP	89	288	4
NMTAP	90	0	5
NMTAP	90	48	5
NMTAP	90	96	5
NMTAP	90	192	6
NMTAP	90	240	6
NMTAP	90	288	6
NMSTR	91	0	0
NMSCR	91	0	0	96	288	3
NMSTR	91	0	7
NMSCL	91	0	7	96	288	4
NMTAP	93	0	4
NMTAP	93	96	5
NMTAP	93	192	6
NMTAP	93	288	7
NMTAP	94	0	0
NMTAP	94	96	1
NMTAP	94	192	2
NMTAP	94	192	3
NMTAP	95	0	3
NMTAP	95	96	2
NMTAP	95	192	1
NMTAP	95	288	0
NMTAP	96	0	7
NMTAP	96	96	6
NMTAP	96	192	4
NMTAP	96	192	5
NMTAP	97	0	4
NMTAP	97	96	5
NMTAP	97	192	6
NMTAP	97	288	7
NMTAP	98	0	0
NMTAP	98	96	1
NMTAP	98	192	2
NMTAP	98	288	3
NMTAP	99	0	3
NMTAP	99	0	4
NMTAP	99	96	3
NMTAP	99	96	4
NMTAP	99	192	2
NMTAP	99	192	5
NMTAP	99	288	2
NMTAP	99	288	5
NMTAP	100	0	1
NMTAP	100	0	6
NMTAP	100	96	1
NMTAP	100	96	6
NMTAP	100	192	0
NMTAP	100	192	7
NMTAP	100	288	0
NMTAP	100	288	7

T_REC_TAP	334
T_REC_BRK	1
T_REC_XTP	0
T_REC_BXX	1
T_REC_HLD	12
T_REC_XHO	0
T_REC_BHO	0
T_REC_BXH	0
T_REC_STR	15
T_REC_BST	0
T_REC_XST	0
T_REC_XBS	0
T_REC_TTP	26
T_REC_THO	0
T_REC_SLD	15
T_REC_BSL	0
T_REC_ALL	404
T_NUM_TAP	375
T_NUM_BRK	2
T_NUM_HLD	12
T_NUM_SLD	15
T_NUM_ALL	404
T_JUDGE_TAP	377
T_JUDGE_HLD	48
T_JUDGE_SLD	15
T_JUDGE_ALL	440
TTM_EACHPAIRS	74
TTM_SCR_TAP	187500
TTM_SCR_BRK	5200
TTM_SCR_HLD	12000
TTM_SCR_SLD	22500
TTM_SCR_ALL	227200
TTM_SCR_S	220200
TTM_SCR_SS	227000
TTM_RAT_ACV	10008

