VERSION	0.00.00	1.04.00
FES_MODE	0
BPM_DEF	163.000	163.000	163.000	163.000
MET_DEF	4	4
RESOLUTION	384
CLK_DEF	384
COMPATIBLE_CODE	MA2

BPM	0	0	163.000
MET	0	0	4	4

NMTAP	2	0	0
NMTAP	3	0	0
NMTAP	4	0	0
NMTAP	6	0	7
NMTAP	7	0	7
NMTAP	8	0	7
EXTAP	9	0	0
EXTAP	9	0	7
NMTAP	10	0	7
NMTAP	10	192	7
NMTAP	11	0	6
NMTAP	12	0	5
NMTAP	12	192	5
NMTAP	13	0	4
NMTAP	14	0	3
NMTAP	14	192	3
NMTAP	15	0	2
NMTAP	16	0	1
NMTAP	16	192	1
NMTAP	17	0	0
NMTAP	17	0	7
NMTAP	18	0	0
NMTAP	18	192	0
NMTAP	19	0	1
NMTAP	19	192	1
NMTAP	20	0	2
NMTAP	20	192	2
NMTAP	21	0	2
NMTAP	21	0	3
NMTAP	22	0	4
NMTAP	22	192	4
NMTAP	23	0	5
NMTAP	23	192	5
NMTAP	24	0	6
NMTAP	24	192	6
NMTAP	25	0	6
NMTAP	25	0	7
NMTTP	26	0	7	B	0	L1
NMTTP	27	0	0	B	0	L1
NMTTP	28	0	6	B	0	L1
NMTTP	29	0	1	B	0	L1
NMTTP	30	0	5	B	0	L1
NMTTP	31	0	2	B	0	L1
NMTHO	32	0	0	360	C	0	L1
BRTAP	34	0	7
NMTAP	34	96	7
NMTAP	34	192	7
NMTAP	35	0	6
NMTAP	35	192	6
NMTAP	36	0	5
NMTAP	36	96	5
NMTAP	36	192	5
EXTAP	37	0	4
EXTAP	37	0	5
NMTAP	38	0	3
NMTAP	38	96	3
NMTAP	38	192	3
NMTAP	39	0	2
NMTAP	39	192	2
NMTAP	40	0	1
NMTAP	40	96	1
NMTAP	40	192	1
EXTAP	41	0	0
EXTAP	41	0	1
BRTAP	42	0	0
NMTAP	42	96	0
NMTAP	42	192	0
NMTAP	43	0	1
NMTAP	43	192	1
NMTAP	44	0	2
NMTAP	44	96	2
NMTAP	44	192	2
NMTAP	45	0	2
NMTAP	45	0	3
NMTAP	46	0	4
NMTAP	46	96	4
NMTAP	46	192	4
NMTAP	47	0	5
NMTAP	47	192	5
NMTAP	48	0	6
NMTAP	48	96	6
NMTAP	48	192	6
BXTAP	49	0	6
BXTAP	49	0	7
NMTAP	50	0	6
NMTAP	50	192	6
NMTAP	51	0	6
NMTAP	51	0	7
NMTAP	51	192	6
NMTAP	51	192	7
NMTAP	52	0	5
NMTAP	52	192	5
NMTAP	53	0	3
NMTAP	53	0	4
NMTAP	53	192	3
NMTAP	53	192	4
NMTAP	54	0	2
NMTAP	54	192	2
NMTAP	55	0	2
NMTAP	55	0	3
NMTAP	55	192	2
NMTAP	55	192	3
NMTAP	56	0	1
NMTAP	56	192	1
NMTAP	57	0	0
NMTAP	57	0	7
NMSTR	58	0	0
NMSI_	58	0	0	96	288	4
NMSTR	60	0	5
NMSI_	60	0	5	96	288	2
NMSTR	62	0	1
NMSI_	62	0	1	96	288	5
NMHLD	64	0	6	384
NMHLD	64	0	7	384
NMHLD	66	0	4	384
NMHLD	66	0	5	384
NMHLD	68	0	2	384
NMHLD	68	0	3	384
NMHLD	70	0	0	360
NMHLD	70	0	1	360
BRTAP	72	0	0
NMTAP	72	96	0
NMTAP	72	192	0
NMTAP	73	0	1
NMTAP	73	96	1
NMTAP	73	192	1
NMTAP	74	0	2
NMTAP	74	96	2
NMTAP	74	192	2
NMTAP	75	0	2
NMTAP	75	0	3
NMTAP	75	192	2
NMTAP	75	192	3
NMTAP	76	0	4
NMTAP	76	96	4
NMTAP	76	192	4
NMTAP	77	0	5
NMTAP	77	96	5
NMTAP	77	192	5
NMTAP	78	0	6
NMTAP	78	96	6
NMTAP	78	192	6
EXTAP	79	0	6
EXTAP	79	0	7
NMTAP	79	192	6
NMTAP	79	192	7
BRTAP	80	0	7
NMTAP	80	96	7
NMTAP	80	192	7
NMTAP	81	0	6
NMTAP	81	96	6
NMTAP	81	192	6
NMTAP	82	0	5
NMTAP	82	96	5
NMTAP	82	192	5
NMTAP	83	0	4
NMTAP	83	96	4
NMTAP	83	192	3
NMTAP	83	192	4
NMTAP	84	0	3
NMTAP	84	96	3
NMTAP	84	192	3
NMTAP	85	0	2
NMTAP	85	96	2
NMTAP	85	192	2
NMTAP	86	0	1
NMTAP	86	96	1
NMTAP	86	192	1
NMTAP	87	0	0
NMTAP	87	96	0
NMTAP	87	192	0
NMTAP	87	192	7
NMTAP	88	0	7
NMTAP	88	96	7
NMTAP	88	192	6
NMTAP	88	192	7
NMTAP	89	0	0
NMTAP	89	96	0
NMTAP	89	192	0
NMTAP	89	192	1
NMTAP	90	0	7
NMTAP	90	96	7
NMTAP	90	192	0
NMTAP	90	192	7
EXSTR	91	0	0
NMSI_	91	0	0	96	288	3
EXSTR	91	0	7
NMSI_	91	0	7	96	288	4
NMTAP	93	0	2
NMTAP	93	96	2
NMTAP	93	192	2
NMTAP	93	288	2
NMTAP	94	0	1
NMTAP	94	96	1
NMTAP	94	192	0
NMTAP	94	192	1
NMTAP	95	0	7
NMTAP	95	96	7
NMTAP	95	192	7
NMTAP	95	288	7
NMTAP	96	0	6
NMTAP	96	96	6
NMTAP	96	192	6
NMTAP	96	192	7
NMTAP	97	0	5
NMTAP	97	96	5
NMTAP	97	192	5
NMTAP	97	288	5
NMTAP	98	0	4
NMTAP	98	96	4
NMTAP	98	192	3
NMTAP	98	192	4
BRTAP	99	0	2
BRTAP	99	0	5

T_REC_TAP	173
T_REC_BRK	6
T_REC_XTP	8
T_REC_BXX	2
T_REC_HLD	8
T_REC_XHO	0
T_REC_BHO	0
T_REC_BXH	0
T_REC_STR	3
T_REC_BST	0
T_REC_XST	2
T_REC_XBS	0
T_REC_TTP	6
T_REC_THO	1
T_REC_SLD	5
T_REC_BSL	0
T_REC_ALL	214
T_NUM_TAP	192
T_NUM_BRK	8
T_NUM_HLD	9
T_NUM_SLD	5
T_NUM_ALL	214
T_JUDGE_TAP	200
T_JUDGE_HLD	72
T_JUDGE_SLD	5
T_JUDGE_ALL	277
TTM_EACHPAIRS	33
TTM_SCR_TAP	96000
TTM_SCR_BRK	20800
TTM_SCR_HLD	9000
TTM_SCR_SLD	7500
TTM_SCR_ALL	133300
TTM_SCR_S	128550
TTM_SCR_SS	132500
TTM_RAT_ACV	10060

