VERSION	0.00.00	1.04.00
FES_MODE	0
BPM_DEF	205.000	205.000	205.000	205.000
MET_DEF	4	4
RESOLUTION	384
CLK_DEF	384
COMPATIBLE_CODE	MA2

BPM	0	0	205.000
MET	0	0	4	4
MET	81	0	4	2
MET	81	192	4	4

NMTTP	1	0	0	C	0	M1
NMTTP	1	96	3	B	0	M1
NMTTP	1	96	7	B	0	M1
NMTTP	1	192	0	C	0	M1
NMTTP	1	192	1	B	0	M1
NMTTP	1	192	5	B	0	M1
NMTTP	1	288	3	A	0	M1
NMTTP	1	288	3	D	0	M1
NMTTP	1	288	7	A	0	M1
NMTTP	1	288	7	D	0	M1
NMTTP	2	0	0	A	0	M1
NMTTP	2	0	1	A	0	M1
NMTTP	2	0	1	D	0	M1
NMTTP	2	0	4	A	0	M1
NMTTP	2	0	5	D	0	M1
NMTTP	2	96	2	A	0	M1
NMTTP	2	96	3	A	0	M1
NMTTP	2	96	3	D	0	M1
NMTTP	2	96	6	A	0	M1
NMTTP	2	96	7	A	0	M1
NMTTP	2	96	7	D	0	M1
NMTTP	2	192	0	B	0	M1
NMTHO	2	192	0	96	C	0	M1
NMTTP	2	192	1	B	0	M1
NMTTP	2	192	1	E	0	M1
NMTTP	2	192	4	B	0	M1
NMTTP	2	192	5	B	0	M1
NMTTP	2	192	5	E	0	M1
NMSTR	3	0	6
NMSI_	3	0	6	96	48	4
NMTAP	3	144	1
NMSTR	3	192	1
NMSI_	3	192	1	96	48	3
NMTAP	3	288	4
NMTAP	3	336	5
NMTAP	4	0	6
NMSTR	4	48	6
NMSI_	4	48	6	96	48	0
NMSTR	4	144	1
NMSI_	4	144	1	96	48	4
NMTAP	4	240	7
NMTAP	4	336	6
NMHLD	5	0	6	96
NMHLD	5	96	5	96
NMTAP	5	192	4
NMTAP	5	240	4
NMTAP	5	336	3
NMTAP	5	336	6
NMTAP	6	48	2
NMTAP	6	96	2
NMTAP	6	144	3
NMHLD	6	192	1	96
NMHLD	6	192	4	96
NMSTR	7	0	1
NMSI_	7	0	1	96	48	4
NMTAP	7	144	5
NMSTR	7	192	5
NMSI_	7	192	5	96	48	3
NMTAP	7	288	2
NMTAP	7	336	1
NMTAP	8	0	0
NMSTR	8	48	0
NMSI_	8	48	0	96	48	6
NMSTR	8	144	5
NMSI_	8	144	5	96	48	2
NMTAP	8	240	1
NMTAP	8	336	0
NMHLD	9	0	0	96
NMHLD	9	96	3	96
NMTAP	9	192	2
NMTAP	9	240	2
NMTAP	9	336	1
NMTAP	9	336	4
NMTAP	10	48	5
NMTAP	10	96	5
NMTAP	10	144	4
NMTAP	10	192	3
NMTAP	10	192	6
NMHLD	11	0	3	96
NMTTP	11	96	5	B	0	M1
NMTTP	11	144	4	B	0	M1
NMHLD	11	192	3	96
NMTTP	11	288	0	C	0	M1
NMHLD	12	0	3	96
NMTTP	12	96	5	B	0	M1
NMTTP	12	144	4	B	0	M1
NMHLD	12	192	3	96
NMTTP	12	288	0	C	0	M1
NMHLD	13	0	2	96
NMTTP	13	96	4	B	0	M1
NMTTP	13	144	4	E	0	M1
NMHLD	13	192	2	96
NMTTP	13	288	0	B	0	M1
NMTTP	13	288	0	E	0	M1
NMHLD	14	0	2	96
NMTTP	14	96	4	B	0	M1
NMTTP	14	144	4	E	0	M1
NMHLD	14	192	2	96
NMTTP	14	288	0	B	0	M1
NMTTP	14	288	7	B	0	M1
NMHLD	15	0	3	96
NMTAP	15	96	5
NMTAP	15	144	5
NMHLD	15	192	3	96
NMTAP	15	288	4
NMHLD	16	0	2	96
NMTAP	16	96	3
NMTAP	16	144	3
NMHLD	16	192	2	96
NMTAP	16	288	4
NMHLD	17	0	3	96
NMTAP	17	96	5
NMSTR	17	144	5
NMSI_	17	144	5	96	48	0
NMTAP	17	240	4
NMTAP	17	288	4
NMTAP	18	0	3
NMTAP	18	0	6
NMTAP	18	48	5
NMTAP	18	72	4
NMTAP	18	96	5
NMTAP	18	144	3
NMTAP	18	192	2
NMTAP	18	240	4
NMTAP	18	288	5
NMTAP	18	336	2
NMSTR	19	0	1
NMSI_	19	0	1	96	48	4
NMTAP	19	96	5
NMTAP	19	144	6
NMSTR	19	192	7
NMSI_	19	192	7	96	48	3
NMTAP	19	288	2
NMSTR	20	0	1
NMSCR	20	0	1	96	48	4
NMTAP	20	96	4
NMTAP	20	144	5
NMSTR	20	192	6
NMSCR	20	192	6	96	48	1
NMTAP	20	288	3
NMSTR	21	0	2
NMSUL	21	0	2	96	48	6
NMTAP	21	96	6
NMTAP	21	144	5
NMSTR	21	192	4
NMSCR	21	192	4	96	48	7
NMTAP	21	288	0
NMSTR	22	0	1
NMSV_	22	0	1	96	48	4
NMTAP	22	96	7
NMTAP	22	144	6
NMSTR	22	192	5
NMSI_	22	192	5	96	48	0
NMTAP	22	288	3
NMSTR	23	0	4
NMSCL	23	0	4	96	48	1
NMTAP	23	96	7
NMTAP	23	144	6
NMSTR	23	192	5
NMSUR	23	192	5	96	48	1
NMTAP	23	288	1
NMSTR	24	0	2
NMSUL	24	0	2	96	48	6
NMTAP	24	96	6
NMTAP	24	144	5
NMSTR	24	192	4
NMSLL	24	192	4	96	96	0
NMTAP	24	288	1
NMTAP	25	96	2
NMTAP	25	96	6
NMTAP	25	192	3
NMTAP	25	192	5
NMTAP	25	240	3
NMTAP	25	240	5
NMTAP	25	336	4
NMTAP	25	336	6
NMTAP	26	48	1
NMTAP	26	48	3
NMTAP	26	144	0
NMTAP	26	144	7
NMTAP	26	240	1
NMTAP	26	240	6
NMTAP	26	288	1
NMTAP	26	288	6
NMHLD	27	0	2	288
NMTAP	27	96	5
NMTAP	27	144	5
NMTAP	27	240	4
NMSTR	27	288	4
NMSUR	27	288	4	96	144	7
NMHLD	28	0	1	144
NMTAP	28	240	2
NMTAP	28	240	6
NMTAP	28	288	2
NMTAP	28	288	6
NMSTR	29	0	5
NMSI_	29	0	5	96	48	0
NMTAP	29	96	1
NMSTR	29	144	1
NMSI_	29	144	1	96	48	4
NMSTR	29	240	6
NMSV_	29	240	6	96	96	5
NMTAP	29	336	2
NMTAP	30	0	2
CNSI_	30	48	5	0	96	3
NMTAP	30	96	1
NMTAP	30	144	1
NMTAP	30	240	4
NMSTR	30	288	4
NMSCR	30	288	4	96	96	7
NMSTR	31	0	7
NMSCR	31	0	7	96	96	2
NMSTR	31	96	2
NMSCR	31	96	2	96	96	5
NMSTR	31	192	5
NMSCR	31	192	5	96	96	0
NMSTR	31	288	0
NMSCR	31	288	0	96	96	3
NMSTR	32	0	3
NMSCR	32	0	3	96	96	6
NMSTR	32	96	6
NMSCR	32	96	6	96	96	1
NMSTR	32	192	1
NMSCR	32	192	1	96	96	4
NMSTR	32	288	4
NMSXL	32	288	4	96	192	3
NMSTR	33	0	0
NMSUR	33	0	0	96	96	4
NMHLD	34	0	2	96
NMHLD	34	0	5	96
NMHLD	34	144	3	96
NMHLD	34	144	6	96
NMTAP	34	288	3
NMTAP	34	288	6
NMTAP	35	0	4
NMHLD	35	0	5	288
NMTAP	35	96	3
NMTAP	35	144	3
NMTAP	35	240	2
NMSTR	35	288	2
NMSXR	35	288	2	96	144	7
NMHLD	36	0	4	144
NMTAP	36	240	3
NMSTR	36	288	3
NMSXL	36	288	3	96	144	3
NMSXR	36	288	3	96	144	3
EXTAP	37	240	2
EXSTR	37	240	4
NMSI_	37	240	4	96	48	7
EXSTR	37	336	4
NMSI_	37	336	4	96	48	1
EXSTR	38	48	4
NMSCR	38	48	4	96	48	7
EXTAP	38	144	4
EXTAP	38	288	7
NMTAP	39	0	2
NMHLD	39	0	7	768
NMTAP	39	192	3
NMTAP	39	240	3
NMTAP	39	288	3
NMTAP	39	336	3
NMTAP	40	0	2
NMTAP	40	48	2
NMTAP	40	96	2
NMTAP	40	144	2
NMTAP	40	192	1
NMTAP	40	240	1
NMTAP	40	288	1
NMTAP	40	336	1
NMSTR	41	0	0
NMSV_	41	0	0	96	48	3
NMTTP	41	96	5	B	0	M1
NMTTP	41	96	6	B	0	M1
NMSTR	41	192	7
NMSCL	41	192	7	96	48	4
NMTTP	41	288	1	B	0	M1
NMTTP	41	288	2	B	0	M1
EXHLD	42	0	3	96
EXHLD	42	0	7	96
NMTAP	42	144	0
NMTAP	42	144	4
NMTAP	42	192	1
NMTAP	42	192	5
NMHLD	42	240	2	96
NMHLD	42	240	6	96
NMTTP	43	0	1	E	0	M1
NMTTP	43	0	1	A	0	M1
NMTTP	43	0	1	D	1	M1
NMTTP	43	0	5	E	0	M1
NMTTP	43	0	5	A	0	M1
NMTTP	43	0	5	D	0	M1
NMTAP	43	144	4
NMSTR	43	192	1
NMSI_	43	192	1	96	48	4
NMSTR	43	192	5
NMSI_	43	192	5	96	48	0
NMTAP	43	288	1
NMTAP	43	288	5
EXTAP	44	0	7
EXSTR	44	48	7
NMSCL	44	48	7	96	48	4
EXTAP	44	144	1
EXSTR	44	144	7
NMSCR	44	144	7	96	48	2
EXTAP	44	240	5
EXTAP	44	240	7
NMHLD	44	336	7	96
NMSTR	45	48	0
NMSI_	45	48	0	96	48	4
NMTAP	45	96	0
NMSTR	45	144	6
NMSI_	45	144	6	96	48	2
NMTAP	45	192	6
NMSTR	45	240	1
NMSCL	45	240	1	96	144	3
NMHLD	45	336	5	144
EXTAP	46	192	0
NMTAP	46	192	4
NMTAP	46	240	0
NMTAP	46	288	1
EXTAP	46	288	5
EXSTR	47	0	6
NMSCR	47	0	6	96	48	1
NMTAP	47	96	2
NMTAP	47	144	2
NMSTR	47	192	2
NMSCR	47	192	2	96	48	5
NMTAP	47	288	6
NMTAP	47	336	6
NMSTR	48	0	6
NMSCR	48	0	6	96	48	1
NMSTR	48	96	2
NMSLL	48	96	2	96	96	6
NMTAP	48	192	4
NMTAP	48	288	5
BXTAP	49	0	4
BXTAP	49	0	5
NMSTR	49	48	3
NMSI_	49	48	3	96	48	0
NMSTR	49	48	6
NMSI_	49	48	6	96	48	3
BXTAP	49	144	3
BXTAP	49	144	6
BXSTR	49	240	4
NMSI_	49	240	4	96	48	0
BXTAP	49	288	1
BXTAP	49	336	4
BXSTR	50	0	2
NMSI_	50	0	2	96	48	6
BXSTR	50	48	7
NMSLR	50	48	7	96	96	3
BXTAP	50	96	2
BXTAP	50	144	7
NMSTR	50	288	7
NMSF_	50	288	7	96	48	3
NMTTP	51	1	7	B	1	M1
NMTAP	51	144	5
NMSTR	51	192	2
NMSI_	51	192	2	96	48	7
NMSTR	51	192	6
NMSI_	51	192	6	96	48	3
NMTAP	51	288	2
NMTAP	51	288	6
EXSTR	52	0	0
NMSCR	52	0	0	96	48	3
EXTAP	52	96	4
EXSTR	52	144	4
NMSI_	52	144	4	96	48	7
EXTAP	52	240	3
EXTAP	52	240	4
NMHLD	52	336	1	96
NMSTR	53	48	0
NMSCL	53	48	0	96	48	5
NMTAP	53	96	0
NMSTR	53	144	2
NMSCL	53	144	2	96	48	7
NMTAP	53	192	2
NMSTR	53	240	3
NMSLR	53	240	3	96	48	7
NMTTP	53	336	3	E	1	M1
CNSI_	54	0	7	0	96	1
NMTAP	54	192	3
NMTAP	54	240	2
NMSTR	54	288	1
NMSI_	54	288	1	96	48	6
NMTAP	55	0	1
NMSTR	55	0	5
NMSI_	55	0	5	96	48	2
NMSTR	55	96	1
NMSI_	55	96	1	96	48	4
NMTAP	55	96	5
NMSTR	55	192	1
NMSI_	55	192	1	96	48	7
NMSTR	55	192	5
NMSI_	55	192	5	96	48	3
NMTAP	55	288	1
NMTAP	55	288	5
NMTAP	56	0	0
NMTAP	56	0	4
NMTAP	56	48	0
NMTAP	56	48	4
BRTAP	56	144	2
BRTAP	56	144	6
NMHLD	56	240	7	96
NMHLD	56	336	1	96
NMHLD	57	48	3	96
NMHLD	57	144	5	96
NMHLD	57	240	7	96
NMSTR	57	336	1
NMSXL	57	336	1	96	144	7
NMHLD	58	96	5	96
NMSTR	59	0	1
NMSI_	59	0	1	96	48	3
NMTAP	59	144	7
NMSTR	59	192	7
NMSI_	59	192	7	96	48	5
NMTAP	59	288	3
NMTAP	59	336	2
NMTAP	60	0	1
NMSTR	60	48	1
NMSI_	60	48	1	96	48	6
NMSTR	60	144	4
NMSCR	60	144	4	96	48	7
NMTAP	60	240	0
NMTAP	60	336	1
NMHLD	61	0	1	96
NMHLD	61	96	3	96
NMTAP	61	192	2
NMTAP	61	240	2
NMTAP	61	336	1
NMTAP	61	336	4
NMTAP	62	48	5
NMTAP	62	96	5
NMTAP	62	144	4
NMTAP	62	192	3
NMHLD	62	192	6	96
NMTAP	62	288	3
NMTAP	63	0	4
NMTAP	63	0	5
NMTAP	63	96	2
NMTAP	63	96	3
NMSTR	63	144	2
NMSV_	63	144	2	96	48	4
NMTAP	63	144	3
NMTAP	63	240	5
NMTAP	63	288	5
NMTAP	64	0	6
NMTAP	64	96	3
NMTAP	64	96	7
NMTAP	64	144	3
NMSTR	64	144	7
NMSV_	64	144	7	96	48	4
NMTAP	64	240	2
NMTAP	64	288	2
NMTAP	65	0	1
NMTAP	65	96	0
NMTAP	65	96	3
NMSTR	65	144	0
NMSCL	65	144	0	96	48	6
NMTAP	65	144	3
NMTAP	65	240	4
NMTAP	65	288	4
NMTAP	66	0	5
NMTAP	66	96	4
NMTAP	66	96	6
NMTAP	66	144	4
NMSTR	66	144	6
NMSI_	66	144	6	96	72	0
NMTAP	66	240	2
NMTAP	66	288	2
CNSI_	66	312	0	0	72	5
NMTAP	67	0	1
NMTAP	67	96	2
NMTAP	67	96	3
NMSTR	67	144	2
NMSV_	67	144	2	96	48	5
NMTAP	67	144	3
NMTAP	67	240	4
NMTAP	67	288	4
NMTAP	68	0	6
NMTAP	68	96	3
NMTAP	68	96	7
NMTAP	68	144	3
NMSTR	68	144	7
NMSV_	68	144	7	96	48	4
NMTAP	68	240	2
NMTAP	68	288	2
NMTAP	69	0	0
NMTAP	69	96	1
NMTAP	69	96	4
NMSTR	69	144	1
NMSI_	69	144	1	96	48	7
NMTAP	69	144	4
NMTAP	69	240	5
NMTAP	69	288	5
CNSI_	69	288	7	0	96	2
NMTAP	70	0	6
NMSTR	70	96	6
NMSUR	70	96	6	96	96	4
NMTAP	71	0	2
NMTAP	71	96	1
NMTAP	71	96	3
NMSTR	71	144	1
NMSV_	71	144	1	96	48	4
NMTAP	71	144	3
NMTAP	71	240	5
NMTAP	71	288	5
NMTAP	72	0	6
NMTAP	72	96	3
NMTAP	72	96	7
NMTAP	72	144	3
NMSTR	72	144	7
NMSV_	72	144	7	96	48	4
NMTAP	72	240	2
NMTAP	72	288	2
NMTAP	73	0	1
NMTAP	73	96	0
NMTAP	73	96	4
NMHLD	73	144	0	96
NMHLD	73	144	4	96
NMSTR	73	336	5
NMSI_	73	336	5	96	48	2
NMSTR	74	48	1
NMSI_	74	48	1	96	48	4
NMTAP	74	144	5
NMTAP	74	240	6
NMTAP	74	288	6
EXTAP	75	0	4
EXHLD	75	0	7	768
NMTAP	75	192	3
NMTAP	75	240	3
NMTAP	75	288	3
NMTAP	75	336	3
NMTAP	76	0	2
NMTAP	76	48	2
NMTAP	76	96	2
NMTAP	76	144	2
NMTAP	76	192	1
NMTAP	76	240	1
NMTAP	76	288	1
NMTAP	76	336	1
EXSTR	77	0	0
NMSI_	77	0	0	96	48	3
NMTTP	77	96	0	C	0	M1
NMTTP	77	96	5	B	0	M1
EXSTR	77	192	7
NMSI_	77	192	7	96	48	4
NMTTP	77	288	0	C	0	M1
NMTTP	77	288	2	B	0	M1
EXSTR	78	0	0
NMSCR	78	0	0	96	48	3
NMTTP	78	96	1	B	0	M1
NMTTP	78	96	2	B	0	M1
EXSTR	78	192	7
NMSCL	78	192	7	96	48	4
NMTTP	78	288	5	B	0	M1
NMTTP	78	288	6	B	0	M1
EXSTR	79	0	0
NMSXR	79	0	0	96	288	4
EXHLD	79	0	3	720
CNSCR	80	0	4	0	192	2
NMHLD	81	192	2	144
NMTAP	81	288	3
NMTAP	81	336	3
NMTAP	82	48	2
NMTAP	82	48	3
NMTAP	82	96	2
NMTAP	82	96	3
NMHLD	82	192	5	144
NMTAP	82	288	4
NMTAP	82	336	4
NMTAP	83	48	4
NMTAP	83	48	5
NMTAP	83	96	4
NMTAP	83	96	5
NMTAP	83	192	2
NMTAP	83	288	2
NMTAP	83	288	3
NMHLD	83	336	2	96
NMHLD	83	336	3	96
NMTAP	84	96	1
NMTAP	84	96	4
NMTAP	84	144	1
NMTAP	84	144	4
NMTAP	84	240	2
NMTAP	84	264	3
NMTAP	84	288	2
NMTAP	84	336	4
NMTAP	85	0	5
NMTAP	85	48	3
NMTAP	85	96	2
NMTAP	85	144	5
NMSTR	85	192	6
NMSV_	85	192	6	96	48	1
NMTAP	85	288	2
NMTAP	85	336	2
NMSTR	86	0	2
NMSV_	86	0	2	96	48	5
NMTAP	86	96	6
NMTAP	86	144	6
NMSTR	86	192	6
NMSCR	86	192	6	96	48	1
NMSTR	86	288	2
NMSLL	86	288	2	96	96	6
NMTAP	87	0	4
NMTAP	87	96	5
EXTAP	87	192	4
EXTAP	87	192	5
NMSTR	87	240	3
NMSI_	87	240	3	96	48	0
NMSTR	87	240	6
NMSV_	87	240	6	96	48	3
NMTAP	87	336	3
NMTAP	87	336	6
NMSTR	88	48	1
NMSI_	88	48	1	96	48	5
NMTAP	88	96	5
NMTAP	88	144	1
NMSTR	88	192	4
NMSI_	88	192	4	96	48	0
NMSTR	88	240	2
NMSI_	88	240	2	96	48	5
NMTAP	88	288	4
NMTAP	88	336	2
EXSTR	89	96	3
BRSCL	89	96	3	96	48	0
EXSTR	89	96	7
BRSCL	89	96	7	96	48	4
BRTAP	89	192	3
BRTAP	89	192	7
NMTTP	89	193	3	D	1	M1
NMTTP	89	193	7	D	0	M1
NMTTP	89	200	2	A	0	M1
NMTTP	89	200	6	A	0	M1
NMTTP	89	208	2	D	0	M1
NMTTP	89	208	6	D	0	M1
NMTTP	89	216	1	A	0	M1
NMTTP	89	216	5	A	0	M1
NMTTP	89	224	1	D	0	M1
NMTTP	89	224	5	D	0	M1
NMTAP	89	336	5
NMSTR	90	0	2
NMSV_	90	0	2	96	48	7
NMSTR	90	0	6
NMSI_	90	0	6	96	48	3
NMTAP	90	96	2
NMTAP	90	96	6
EXSTR	90	192	0
NMSI_	90	192	0	96	24	2
EXTAP	90	288	4
CNSCR	90	312	2	0	24	3
EXSTR	90	336	4
BRSI_	90	336	4	96	24	6
EXTAP	91	48	3
EXTAP	91	48	4
CNSCR	91	72	6	0	24	7
NMTAP	91	144	2
NMSTR	91	240	1
BRSCR	91	240	1	96	48	4
NMTAP	91	288	1
NMSTR	91	336	5
NMSCR	91	336	5	96	48	0
NMTAP	92	0	5
NMSTR	92	48	2
BRSLL	92	48	2	96	72	6
NMTTP	92	144	0	C	1	M1
CNSI_	92	216	6	0	72	3
NMTAP	93	0	4
NMTAP	93	48	5
BRSTR	93	96	6
BRSI_	93	96	6	96	48	0
NMSTR	93	192	1
NMSI_	93	192	1	96	48	4
NMTAP	93	192	6
NMTAP	93	288	1
BRSTR	93	288	5
BRSI_	93	288	5	96	48	1
NMSTR	94	0	2
NMSI_	94	0	2	96	48	7
NMSTR	94	0	5
NMSI_	94	0	5	96	48	3
NMTAP	94	96	2
NMTAP	94	96	5
NMTAP	94	192	0
NMTAP	94	192	4
NMTAP	94	240	0
NMTAP	94	240	4
BRTAP	94	336	2
BRSTR	94	336	6
NMSCL	94	336	6	96	48	3
NMSTR	95	48	6
NMSCR	95	48	6	96	48	1
NMSTR	95	144	6
NMSI_	95	144	6	96	48	3
NMSTR	95	240	6
NMSI_	95	240	6	96	48	1
NMSTR	95	336	6
NMSI_	95	336	6	96	48	2
NMSTR	96	48	6
NMSLR	96	48	6	96	144	3
NMTAP	96	144	6
EXTAP	97	0	3
EXTAP	97	48	2
BXSTR	97	96	1
BRSI_	97	96	1	96	48	7
NMTAP	97	192	1
BRSTR	97	192	6
BRSI_	97	192	6	96	48	3
BRSTR	97	288	2
BRSI_	97	288	2	96	48	7
NMTAP	97	288	6
BRSTR	98	0	2
BRSI_	98	0	2	96	48	4
BRSTR	98	0	5
BRSI_	98	0	5	96	48	0
NMTAP	98	96	2
NMTAP	98	96	5
NMTAP	98	192	3
NMTAP	98	192	7
NMSTR	98	240	3
NMSV_	98	240	3	96	48	0
NMSTR	98	240	7
NMSCL	98	240	7	96	48	4
NMTAP	98	336	3
NMTAP	98	336	7
NMSTR	99	48	1
NMSCR	99	48	1	96	96	4
NMTAP	99	144	5
CNSV_	99	240	4	0	96	7
NMSTR	99	240	7
NMSI_	99	240	7	96	96	5
NMSTR	99	336	5
NMSI_	99	336	5	96	96	2
NMTAP	100	48	0
NMSTR	100	144	6
BRSLR	100	144	6	96	144	4
NMTTP	100	288	2	B	0	M1
NMTTP	100	288	3	B	0	M1
NMTTP	100	288	3	E	1	M1
NMSTR	101	192	6
NMSI_	101	192	6	96	48	4
NMTAP	101	336	1
NMSTR	102	0	1
NMSI_	102	0	1	96	48	4
NMTAP	102	96	4
NMTAP	102	144	5
NMTAP	102	192	6
NMSTR	102	240	6
NMSI_	102	240	6	96	48	0
NMSTR	102	336	2
NMSI_	102	336	2	96	48	5
NMTAP	103	48	6
NMTAP	103	144	7
NMHLD	103	192	7	96
NMSTR	103	288	4
NMSI_	103	288	4	96	48	1
NMTAP	104	0	5
NMTAP	104	48	5
BXHLD	104	144	0	192
BXHLD	104	144	4	192
NMTTP	105	0	0	C	1	M1
NMTTP	105	0	2	B	0	M1
NMTTP	105	0	2	A	0	M1
NMTTP	105	0	6	B	0	M1
NMTTP	105	0	6	A	0	M1

T_REC_TAP	310
T_REC_BRK	5
T_REC_XTP	20
T_REC_BXX	8
T_REC_HLD	49
T_REC_XHO	4
T_REC_BHO	0
T_REC_BXH	2
T_REC_STR	110
T_REC_BST	7
T_REC_XST	17
T_REC_XBS	4
T_REC_TTP	80
T_REC_THO	1
T_REC_SLD	126
T_REC_BSL	13
T_REC_ALL	756
T_NUM_TAP	537
T_NUM_BRK	39
T_NUM_HLD	54
T_NUM_SLD	126
T_NUM_ALL	756
T_JUDGE_TAP	561
T_JUDGE_HLD	170
T_JUDGE_SLD	139
T_JUDGE_ALL	870
TTM_EACHPAIRS	100
TTM_SCR_TAP	268500
TTM_SCR_BRK	101400
TTM_SCR_HLD	54000
TTM_SCR_SLD	189000
TTM_SCR_ALL	612900
TTM_SCR_S	590750
TTM_SCR_SS	609000
TTM_RAT_ACV	10064

