VERSION	0.00.00	1.04.00
FES_MODE	0
BPM_DEF	205.000	205.000	205.000	205.000
MET_DEF	4	4
RESOLUTION	384
CLK_DEF	384
COMPATIBLE_CODE	MA2

BPM	0	0	205.000
MET	0	0	4	4
MET	81	0	4	2
MET	81	192	4	4

NMTAP	1	0	0
NMTAP	1	96	1
NMTAP	1	192	2
NMTAP	1	288	3
NMTAP	2	0	4
NMTAP	2	96	5
BXTAP	2	192	6
NMTAP	2	192	7
NMHLD	3	0	6	144
EXTAP	3	144	7
EXTAP	3	192	7
NMTAP	3	288	0
NMTAP	3	288	7
NMTAP	4	0	1
NMHLD	4	48	1	96
NMTAP	4	144	0
NMTAP	4	240	0
NMTAP	4	240	7
NMTAP	4	336	6
NMHLD	5	0	6	96
NMTAP	5	96	7
NMTAP	5	192	5
NMTAP	5	192	7
NMHLD	5	240	5	336
NMSTR	5	240	7
NMSCL	5	240	7	96	240	2
NMHLD	7	0	1	144
EXTAP	7	144	0
EXTAP	7	192	0
NMTAP	7	288	0
NMTAP	7	288	7
NMTAP	8	0	6
NMHLD	8	48	6	96
NMTAP	8	144	7
NMTAP	8	240	0
NMTAP	8	240	7
NMTAP	8	336	1
NMHLD	9	0	1	96
NMTAP	9	96	0
NMTAP	9	192	0
NMTAP	9	192	2
NMSTR	9	240	0
NMSLR	9	240	0	96	240	4
NMHLD	9	240	2	336
NMTAP	11	0	6
NMTAP	11	96	6
NMTAP	11	192	4
NMTAP	11	192	5
NMTAP	11	288	4
NMTAP	11	288	5
NMTAP	12	0	3
NMTAP	12	96	2
NMTAP	12	144	2
NMTAP	12	192	3
NMTAP	12	288	2
NMTAP	12	288	3
NMTAP	13	0	1
NMTAP	13	96	1
NMTAP	13	192	2
NMTAP	13	192	3
NMTAP	13	288	2
NMTAP	13	288	3
NMTAP	14	0	4
NMTAP	14	96	5
NMTAP	14	144	5
NMTAP	14	192	4
NMTAP	14	288	4
NMTAP	14	288	5
NMTAP	15	0	6
EXTAP	15	96	4
NMTAP	15	96	6
NMTAP	15	192	2
EXTAP	15	288	2
NMTAP	15	288	3
NMTAP	16	0	5
EXTAP	16	96	4
NMTAP	16	96	5
NMTAP	16	192	1
NMTAP	16	240	1
NMTAP	16	288	3
NMTAP	17	0	2
NMTAP	17	96	1
NMTAP	17	96	3
NMTAP	17	192	4
NMTAP	17	288	3
NMTAP	17	288	5
NMTHO	18	0	0	192	C	0	M1
EXTAP	19	0	0
EXTAP	19	0	7
NMTAP	19	96	6
NMTAP	19	144	6
NMTAP	19	192	7
NMTAP	19	288	4
NMTAP	19	288	5
NMTAP	20	0	6
NMTAP	20	0	7
NMTAP	20	96	1
NMTAP	20	144	1
NMTAP	20	192	0
NMTAP	20	288	2
NMTAP	20	288	3
NMTAP	21	0	0
NMTAP	21	0	1
NMTAP	21	96	6
NMTAP	21	144	6
NMTAP	21	192	7
NMTAP	21	288	5
NMTAP	21	336	5
NMTAP	22	0	4
NMTAP	22	96	2
NMTAP	22	144	2
NMTAP	22	192	3
EXTAP	22	288	1
EXTAP	22	288	4
EXTAP	23	0	1
EXTAP	23	0	4
NMTAP	23	96	6
NMTAP	23	144	6
NMTAP	23	192	4
NMTAP	23	288	3
NMTAP	23	288	5
NMTAP	24	0	2
NMTAP	24	0	4
NMTAP	24	96	1
NMTAP	24	144	1
NMTAP	24	192	3
NMTAP	24	288	2
NMTAP	24	288	4
NMTAP	25	0	3
NMTAP	25	0	5
NMHLD	25	96	6	96
NMTAP	25	192	0
NMTAP	25	240	0
NMTAP	25	336	1
NMTAP	25	336	7
NMTAP	26	48	3
NMTAP	26	48	5
BXTAP	26	144	2
BXTAP	26	144	6
NMTAP	27	0	5
NMHLD	27	96	5	480
NMTTP	27	288	7	E	0	M1
NMTTP	28	0	0	E	0	M1
NMTTP	28	96	1	E	0	M1
NMTTP	28	192	2	E	0	M1
NMTAP	29	0	2
NMHLD	29	96	2	480
NMTTP	29	288	1	E	0	M1
NMTTP	30	0	0	E	0	M1
NMTTP	30	96	7	E	0	M1
NMTTP	30	192	6	E	0	M1
NMSTR	31	0	5
NMSCR	31	0	5	96	144	0
NMTAP	31	288	1
NMSTR	32	0	1
NMSCR	32	0	1	96	144	4
NMTAP	32	288	6
NMSTR	33	0	6
NMSUL	33	0	6	96	144	1
NMSTR	33	288	0
NMSSL	33	288	0	96	240	4
NMHLD	35	0	6	96
NMTAP	35	96	4
NMTAP	35	144	4
NMTAP	35	288	2
NMTAP	35	288	4
NMHLD	36	0	1	96
NMTAP	36	96	3
NMTAP	36	144	3
NMTAP	36	288	3
NMTAP	36	288	5
NMHLD	37	0	4	96
NMHLD	37	0	5	96
NMTAP	37	144	4
NMTAP	37	144	5
NMTAP	37	240	4
NMTAP	37	240	5
EXTAP	37	336	6
EXTAP	37	336	7
EXTAP	38	48	0
EXTAP	38	48	1
EXTAP	38	144	2
EXTAP	38	144	3
EXTAP	38	240	4
EXSTR	38	288	4
NMSI_	38	288	4	96	72	2
NMSI_	38	288	4	96	72	6
NMTAP	39	192	1
NMTAP	39	240	1
NMTAP	39	288	0
NMTAP	40	0	2
NMTAP	40	48	2
NMTAP	40	96	4
NMTAP	40	192	6
NMTAP	40	240	6
NMTAP	40	288	4
BXHLD	41	0	3	288
BXHLD	41	0	7	288
BRTAP	42	0	3
BRTAP	42	0	7
NMTAP	42	144	2
NMHLD	42	192	2	192
NMTTP	43	0	4	E	1	M1
EXTAP	43	144	0
EXTAP	43	192	0
NMTAP	43	288	2
NMTAP	43	288	3
NMTAP	44	0	4
NMTAP	44	0	5
NMTAP	44	48	4
NMTAP	44	48	5
NMTAP	44	144	6
NMTAP	44	144	7
NMTAP	44	240	0
NMTAP	44	240	7
NMHLD	44	336	6	96
NMTAP	45	48	4
NMHLD	45	96	4	96
NMTAP	45	192	3
NMSTR	45	240	3
NMSCL	45	240	3	96	144	0
NMSCR	45	240	3	96	144	6
NMTAP	46	192	7
NMTAP	46	288	7
NMSTR	47	0	1
NMSI_	47	0	1	96	96	4
NMSTR	47	192	6
NMSI_	47	192	6	96	96	3
NMSTR	48	0	1
NMSI_	48	0	1	96	96	5
NMTAP	48	192	7
NMTAP	48	288	7
NMTAP	49	0	0
NMTAP	49	0	6
NMTAP	49	48	0
NMTAP	49	48	6
NMTAP	49	144	1
NMHLD	49	240	2	96
NMTAP	49	336	0
NMTAP	50	0	0
NMTAP	50	96	0
NMTAP	50	96	6
NMTAP	50	144	0
NMTAP	50	144	6
NMTAP	50	240	1
NMTAP	50	240	5
NMTAP	50	288	1
NMTAP	50	288	5
NMTTP	51	0	5	E	1	M1
NMTAP	51	144	6
NMTAP	51	192	6
NMTAP	51	288	4
NMTAP	51	288	5
NMTAP	52	0	2
NMTAP	52	0	3
NMTAP	52	96	0
NMTAP	52	96	1
NMTAP	52	144	0
NMTAP	52	144	1
NMTAP	52	240	0
NMTAP	52	240	7
NMHLD	52	336	1	96
NMTAP	53	48	3
NMHLD	53	96	3	96
NMTAP	53	192	4
NMSTR	53	240	4
NMSV_	53	240	4	96	144	1
NMSV_	53	240	4	96	144	7
NMTAP	54	192	0
NMTAP	54	192	6
NMTAP	54	288	0
NMTAP	54	288	6
BXTAP	55	0	6
BXTAP	55	0	7
BXTAP	55	96	2
BXTAP	55	96	3
BXTAP	55	192	0
BXTAP	55	192	1
BXTAP	55	288	4
BXTAP	55	288	5
NMTAP	56	0	6
NMTAP	56	0	7
NMTAP	56	48	6
NMTAP	56	48	7
NMTAP	56	144	0
NMTAP	56	144	5
NMHLD	56	240	6	96
NMHLD	56	336	4	96
NMHLD	57	48	3	96
NMHLD	57	144	1	96
NMTAP	57	240	7
NMSTR	57	336	4
NMSCR	57	336	4	96	192	1
NMHLD	57	336	6	240
BRTAP	59	0	2
BRTAP	59	0	3
NMTAP	59	144	1
NMTAP	59	192	1
NMTAP	59	288	0
NMTAP	59	288	7
NMTAP	60	0	6
NMTAP	60	48	6
NMTAP	60	144	4
NMTAP	60	144	5
NMTAP	60	240	4
NMTAP	60	240	5
NMTAP	60	336	6
NMTAP	61	0	6
NMTAP	61	96	0
NMTAP	61	96	7
NMTAP	61	192	1
NMTAP	61	240	1
NMTAP	61	336	2
NMTAP	61	336	3
NMTAP	62	48	3
NMTAP	62	48	5
NMTAP	62	96	3
NMTAP	62	96	5
NMHLD	62	192	2	96
NMHLD	62	192	4	96
NMHLD	63	0	1	480
NMTAP	63	96	3
NMTAP	63	144	3
NMTAP	63	288	4
NMTAP	64	96	3
NMTAP	64	144	3
NMTAP	64	288	3
NMTAP	64	288	5
NMHLD	65	0	6	480
NMTAP	65	96	4
NMTAP	65	144	4
NMTAP	65	288	3
NMTAP	66	96	4
NMTAP	66	144	4
NMTAP	66	288	2
NMTAP	66	288	4
NMHLD	67	0	1	480
NMTAP	67	96	3
NMTAP	67	144	3
NMTAP	67	288	2
NMTAP	68	96	3
NMTAP	68	144	3
NMTAP	68	288	3
NMTAP	68	288	5
NMHLD	69	0	6	480
NMTAP	69	96	4
NMTAP	69	144	4
NMTAP	69	288	5
NMTAP	70	96	4
NMTAP	70	192	3
NMTAP	70	192	5
NMTAP	70	288	2
NMTAP	70	288	4
NMHLD	71	0	1	96
NMTAP	71	96	0
NMTAP	71	144	0
NMTAP	71	288	2
NMTAP	71	288	7
NMHLD	72	0	6	96
NMTAP	72	96	7
NMTAP	72	144	7
NMTAP	72	288	0
NMTAP	72	288	5
NMHLD	73	0	2	96
NMTAP	73	96	3
NMTAP	73	144	3
NMTAP	73	288	4
NMTAP	73	288	6
NMTAP	73	336	4
NMTAP	73	336	6
NMTAP	74	48	3
NMTAP	74	48	4
NMHLD	74	144	1	96
NMTAP	74	240	3
NMTAP	74	288	3
EXTAP	75	0	0
EXTAP	75	0	7
NMTAP	75	192	6
NMTAP	75	240	6
NMTAP	75	288	4
NMTAP	76	0	1
NMTAP	76	48	1
NMTAP	76	96	3
NMTAP	76	192	5
NMTAP	76	240	5
NMSTR	76	288	3
NMSI_	76	288	3	96	96	0
NMSTR	77	96	4
NMSI_	77	96	4	96	96	7
NMSTR	77	288	3
NMSCL	77	288	3	96	96	0
NMSTR	78	96	4
NMSCR	78	96	4	96	96	7
NMSTR	78	288	3
NMSXL	78	288	3	96	480	6
NMSXR	78	288	3	96	480	0
EXTAP	80	336	2
EXTAP	80	336	5
EXTAP	81	0	2
EXTAP	81	0	5
NMTTP	81	192	3	E	0	M1
NMTTP	81	288	2	E	0	M1
NMTTP	82	0	1	E	0	M1
NMTTP	82	192	7	E	0	M1
NMTTP	82	288	6	E	0	M1
NMTTP	83	0	5	E	0	M1
NMTTP	83	192	3	B	0	M1
NMTTP	83	288	4	B	0	M1
NMTHO	84	0	0	144	C	1	M1
NMHLD	85	192	1	192
BRTAP	86	0	0
NMHLD	86	192	6	192
BRTAP	87	0	7
NMTAP	87	192	0
NMTAP	87	240	0
NMTAP	87	336	1
NMTAP	87	336	7
NMTAP	88	48	1
NMTAP	88	48	7
NMTAP	88	144	6
NMTAP	88	192	6
NMTAP	88	288	2
NMTAP	88	288	5
NMTAP	88	336	2
NMTAP	88	336	5
NMTAP	89	96	3
NMTAP	89	96	4
NMTTP	89	192	3	E	0	M1
NMTTP	89	192	4	E	1	M1
NMTTP	89	192	5	E	0	M1
NMTAP	89	336	0
NMTAP	90	0	0
NMTAP	90	96	4
NMTAP	90	96	6
NMTAP	90	192	1
NMTAP	90	192	3
NMTAP	90	288	6
NMTAP	90	288	7
NMTAP	90	336	6
NMTAP	90	336	7
NMTAP	91	48	1
NMTAP	91	48	5
NMHLD	91	144	6	96
NMTAP	91	240	4
NMHLD	91	288	4	96
NMTAP	92	0	2
NMSTR	92	48	2
NMSLL	92	48	2	96	144	4
EXTAP	93	0	3
EXTAP	93	0	5
EXTAP	93	96	0
EXTAP	93	96	7
BXTAP	93	192	0
BXTAP	93	192	1
BXTAP	93	288	4
BXTAP	93	288	5
BXTAP	94	0	6
BXTAP	94	0	7
BXTAP	94	96	2
BXTAP	94	96	3
NMTAP	94	192	0
NMTAP	94	192	1
NMTAP	94	240	0
NMTAP	94	240	1
NMTAP	94	336	2
NMTAP	94	336	7
NMHLD	95	48	1	96
NMHLD	95	144	3	96
NMHLD	95	240	5	96
NMTAP	95	336	7
NMSTR	96	48	0
NMSF_	96	48	0	96	144	4
NMTAP	97	0	1
NMTAP	97	0	6
NMTAP	97	96	1
NMTAP	97	96	6
BRTAP	97	192	0
BRTAP	97	192	7
BRTAP	97	288	5
BRTAP	97	288	6
BRTAP	98	0	3
BRTAP	98	0	4
BRTAP	98	96	1
BRTAP	98	96	2
NMTAP	98	192	0
NMTAP	98	192	7
NMTAP	98	240	0
NMTAP	98	240	7
NMTAP	98	336	1
NMTAP	98	336	6
NMHLD	99	48	2	96
NMHLD	99	144	0	96
NMHLD	99	240	7	96
NMHLD	99	336	5	96
NMTAP	100	48	3
NMSTR	100	144	1
NMSUR	100	144	1	96	144	0
NMSTR	100	144	3
NMSCR	100	144	3	96	144	7
BRTAP	101	192	0
BRTAP	101	192	1
NMTAP	101	336	2
NMTAP	101	336	3
NMTAP	102	0	2
NMTAP	102	0	3
NMTAP	102	96	6
NMTAP	102	144	6
NMTAP	102	192	4
NMTAP	102	240	5
NMTAP	102	336	6
NMTAP	102	336	7
NMTAP	103	48	0
NMTAP	103	48	5
NMTAP	103	144	1
NMTAP	103	144	3
NMTAP	103	192	1
NMTAP	103	192	3
NMTAP	103	288	4
NMTAP	103	288	6
NMTAP	104	0	0
NMTAP	104	0	7
NMSTR	104	48	0
NMSCR	104	48	0	96	144	3
NMSTR	104	48	7
NMSCL	104	48	7	96	144	4
NMTTP	105	0	0	C	1	M1
NMTTP	105	0	2	B	0	M1
NMTTP	105	0	3	B	0	M1
NMTTP	105	0	4	B	0	M1
NMTTP	105	0	5	B	0	M1

T_REC_TAP	334
T_REC_BRK	16
T_REC_XTP	32
T_REC_BXX	19
T_REC_HLD	47
T_REC_XHO	0
T_REC_BHO	0
T_REC_BXH	2
T_REC_STR	23
T_REC_BST	0
T_REC_XST	1
T_REC_XBS	0
T_REC_TTP	26
T_REC_THO	2
T_REC_SLD	28
T_REC_BSL	0
T_REC_ALL	530
T_NUM_TAP	416
T_NUM_BRK	37
T_NUM_HLD	49
T_NUM_SLD	28
T_NUM_ALL	530
T_JUDGE_TAP	451
T_JUDGE_HLD	182
T_JUDGE_SLD	28
T_JUDGE_ALL	661
TTM_EACHPAIRS	131
TTM_SCR_TAP	208000
TTM_SCR_BRK	96200
TTM_SCR_HLD	49000
TTM_SCR_SLD	42000
TTM_SCR_ALL	395200
TTM_SCR_S	379800
TTM_SCR_SS	391500
TTM_RAT_ACV	10094

