VERSION	0.00.00	1.04.00
FES_MODE	0
BPM_DEF	205.000	205.000	205.000	205.000
MET_DEF	4	4
RESOLUTION	384
CLK_DEF	384
COMPATIBLE_CODE	MA2

BPM	0	0	205.000
MET	0	0	4	4
MET	81	0	4	2
MET	81	192	4	4

NMTAP	3	0	4
NMTAP	3	96	4
NMTAP	3	192	4
NMTAP	4	0	5
NMTAP	4	96	5
NMTAP	4	192	5
NMTAP	5	0	6
NMTAP	5	96	6
NMTAP	5	192	6
NMTAP	6	0	0
NMTAP	6	0	7
NMTAP	6	192	0
NMTAP	6	192	7
NMTAP	7	0	0
NMTAP	7	96	0
NMTAP	7	192	0
NMTAP	8	0	1
NMTAP	8	96	1
NMTAP	8	192	1
NMTAP	9	0	2
NMTAP	9	96	2
NMTAP	9	192	2
EXTAP	10	0	3
EXTAP	10	0	4
NMTAP	11	0	3
NMTAP	11	96	3
NMTAP	11	192	2
NMTAP	12	0	1
NMTAP	12	96	1
NMTAP	12	192	0
NMTAP	13	0	7
NMTAP	13	96	7
NMTAP	13	192	6
NMTAP	14	0	5
NMTAP	14	96	5
NMTAP	14	192	4
NMTAP	14	192	5
NMTAP	15	0	4
NMTAP	15	96	4
NMTAP	15	192	5
NMTAP	16	0	6
NMTAP	16	96	6
NMTAP	16	192	7
NMTAP	17	0	0
NMTAP	17	96	0
NMTAP	17	192	1
NMTAP	18	0	2
NMTAP	18	96	2
NMTAP	18	192	2
NMTAP	18	192	3
NMHLD	19	0	2	192
NMHLD	19	192	3	192
NMHLD	20	0	4	192
NMTAP	20	192	5
NMHLD	21	0	5	192
NMHLD	21	192	4	192
NMHLD	22	0	3	192
NMTAP	22	192	2
NMHLD	23	0	1	192
NMHLD	23	192	2	192
NMHLD	24	0	3	192
NMTAP	24	192	4
NMHLD	25	0	6	192
NMHLD	25	192	5	192
NMHLD	26	0	4	192
NMTAP	26	192	3
NMTAP	27	0	5
NMTAP	27	96	5
NMTAP	27	192	4
NMTAP	27	192	5
NMTAP	28	0	6
NMTAP	28	96	6
NMTAP	28	192	6
NMTAP	28	192	7
NMTAP	29	0	0
NMTAP	29	96	0
NMTAP	29	192	0
NMTAP	29	192	1
NMTAP	30	0	2
NMTAP	30	0	3
NMTAP	30	96	2
NMTAP	30	96	3
NMTAP	30	192	2
NMTAP	30	192	3
NMTAP	31	0	2
NMTAP	31	96	2
NMTAP	31	192	2
NMTAP	31	192	3
NMTAP	32	0	1
NMTAP	32	96	1
NMTAP	32	192	0
NMTAP	32	192	1
NMTAP	33	0	7
NMTAP	33	96	7
NMTAP	33	192	6
NMTAP	33	192	7
NMTAP	34	0	4
NMTAP	34	0	5
NMTAP	34	96	4
NMTAP	34	96	5
NMTAP	34	192	4
NMTAP	34	192	5
NMTTP	35	0	6	B	0	L1
NMTTP	35	192	5	B	0	L1
NMTTP	36	0	4	B	0	L1
NMTTP	37	0	1	B	0	L1
NMTTP	37	192	2	B	0	L1
NMTTP	38	0	3	B	0	L1
NMTTP	39	0	6	B	0	L1
NMTTP	39	192	5	B	0	L1
NMTTP	40	0	4	B	0	L1
NMTTP	40	192	3	B	0	L1
NMTTP	41	0	2	B	0	L1
NMTTP	41	192	1	B	0	L1
NMTTP	42	0	0	C	0	L1
EXTAP	43	0	1
NMTAP	43	96	1
NMTAP	43	192	0
NMTAP	43	288	0
NMTAP	44	0	7
NMTAP	44	96	7
NMTAP	44	192	6
NMTAP	44	192	7
NMTAP	45	0	5
NMTAP	45	96	5
NMTAP	45	192	6
NMTAP	45	288	6
NMTAP	46	0	7
NMTAP	46	96	7
NMTAP	46	192	0
NMTAP	46	192	1
NMTAP	47	0	1
NMTAP	47	96	1
NMTAP	47	192	2
NMTAP	47	288	2
NMTAP	48	0	3
NMTAP	48	96	3
NMTAP	48	192	4
NMTAP	48	192	5
NMTAP	49	0	6
NMTAP	49	96	6
NMTAP	49	192	5
NMTAP	49	288	5
NMTAP	50	0	4
NMTAP	50	96	4
NMTAP	50	192	2
NMTAP	50	192	3
NMTAP	51	0	2
NMTAP	51	96	2
NMTAP	51	192	1
NMTAP	51	288	1
NMTAP	52	0	0
NMTAP	52	96	0
NMTAP	52	192	6
NMTAP	52	192	7
NMTAP	53	0	5
NMTAP	53	96	5
NMTAP	53	192	6
NMTAP	53	288	6
NMTAP	54	0	7
NMTAP	54	96	7
NMTAP	54	192	0
NMTAP	54	192	1
NMTAP	55	0	1
NMTAP	55	96	1
NMTAP	55	192	2
NMTAP	55	288	2
NMTAP	56	0	3
NMTAP	56	96	3
NMTAP	56	192	4
NMTAP	56	192	5
NMTAP	57	0	6
NMTAP	57	96	6
NMTAP	57	192	5
NMTAP	57	288	5
NMTAP	58	0	4
NMTAP	58	96	4
BRTAP	58	192	2
BRTAP	58	192	3
NMTAP	59	0	1
NMTAP	59	96	1
NMTAP	59	192	0
NMTAP	59	192	1
NMTAP	60	0	2
NMTAP	60	96	2
NMTAP	60	192	2
NMTAP	60	192	3
NMTAP	61	0	4
NMTAP	61	96	4
NMTAP	61	192	4
NMTAP	61	192	5
NMTAP	62	0	6
NMTAP	62	0	7
NMTAP	62	96	6
NMTAP	62	96	7
NMTAP	62	192	6
NMTAP	62	192	7
NMSTR	63	0	6
NMSI_	63	0	6	96	288	3
NMTAP	64	192	2
NMSTR	65	0	1
NMSI_	65	0	1	96	288	4
NMTAP	66	192	5
NMSTR	67	0	6
NMSI_	67	0	6	96	288	2
NMTAP	68	192	1
NMSTR	69	0	0
NMSI_	69	0	0	96	288	4
NMTAP	70	192	4
NMTAP	70	192	5
NMTAP	71	0	4
NMTAP	71	96	4
NMTAP	71	192	5
NMTAP	72	0	6
NMTAP	72	96	6
NMTAP	72	192	7
NMTAP	73	0	0
NMTAP	73	96	0
NMTAP	73	192	1
NMTAP	74	0	2
NMTAP	74	96	2
NMTAP	74	192	2
NMTAP	74	192	3
NMTAP	75	0	3
NMTAP	75	96	3
NMTAP	75	192	2
NMTAP	76	0	1
NMTAP	76	96	1
NMTAP	76	192	0
NMTAP	77	0	7
NMTAP	77	96	7
NMTAP	77	192	6
NMTAP	78	0	5
NMTAP	78	96	5
NMTAP	78	192	4
NMTAP	78	192	5
NMSTR	79	0	3
NMSCL	79	0	3	96	480	0
NMSTR	79	0	4
NMSCR	79	0	4	96	480	7
NMHLD	81	192	6	192
NMTAP	82	0	7
NMTAP	82	192	6
NMTAP	82	288	6
NMTAP	83	0	6
NMTAP	83	0	7
NMHLD	83	192	5	192
NMTAP	84	0	4
NMTAP	84	192	5
NMTAP	84	288	5
NMTAP	85	0	4
NMTAP	85	0	5
NMHLD	85	192	2	192
NMTAP	86	0	3
NMTAP	86	192	2
NMTAP	86	288	2
NMTAP	87	0	2
NMTAP	87	0	3
NMHLD	87	192	1	192
NMTAP	88	0	0
NMTAP	88	192	1
NMTAP	88	288	1
NMTAP	89	0	0
NMTAP	89	0	1
NMTAP	89	192	2
NMTAP	89	288	2
NMTAP	90	0	0
NMTAP	90	0	1
NMTAP	90	96	0
NMTAP	90	96	1
NMTAP	90	192	7
NMTAP	90	288	7
NMTAP	91	0	6
NMTAP	91	0	7
NMTAP	91	192	5
NMTAP	91	288	5
NMTAP	92	0	6
NMTAP	92	0	7
NMTAP	92	96	6
NMTAP	92	96	7
NMTAP	92	192	0
NMTAP	92	288	0
NMTAP	93	0	0
NMTAP	93	0	1
NMTAP	93	192	1
NMTAP	93	288	1
NMTAP	94	0	2
NMTAP	94	0	3
NMTAP	94	96	2
NMTAP	94	96	3
NMTAP	94	192	4
NMTAP	94	288	4
NMTAP	95	0	4
NMTAP	95	0	5
NMTAP	95	192	6
NMTAP	95	288	6
NMTAP	96	0	4
NMTAP	96	0	5
NMTAP	96	96	4
NMTAP	96	96	5
NMTAP	96	192	3
NMTAP	96	288	3
NMTAP	97	0	2
NMTAP	97	0	3
NMTAP	97	192	1
NMTAP	97	288	1
NMTAP	98	0	1
NMTAP	98	96	0
NMTAP	98	96	1
NMTAP	98	192	2
NMTAP	98	288	2
NMTAP	99	0	2
NMTAP	99	96	2
NMTAP	99	96	3
NMTAP	99	192	4
NMTAP	99	288	4
NMTAP	100	0	4
NMTAP	100	96	4
NMTAP	100	96	5
NMTAP	100	192	6
NMTAP	100	192	7
NMTAP	100	288	6
NMTAP	100	288	7
NMTAP	101	0	0
NMTAP	101	0	5
NMTAP	101	192	7
NMTAP	101	288	6
NMTAP	102	0	5
NMTAP	102	96	4
NMTAP	102	192	3
NMTAP	102	288	2
NMTAP	103	0	1
NMTAP	103	96	0
NMTAP	103	192	7
NMTAP	103	288	6
NMTAP	104	0	5
NMTAP	104	96	4
NMTAP	104	192	3
NMTAP	104	192	4
BXTAP	105	0	2
BXTAP	105	0	5

T_REC_TAP	293
T_REC_BRK	2
T_REC_XTP	3
T_REC_BXX	2
T_REC_HLD	16
T_REC_XHO	0
T_REC_BHO	0
T_REC_BXH	0
T_REC_STR	6
T_REC_BST	0
T_REC_XST	0
T_REC_XBS	0
T_REC_TTP	13
T_REC_THO	0
T_REC_SLD	6
T_REC_BSL	0
T_REC_ALL	341
T_NUM_TAP	315
T_NUM_BRK	4
T_NUM_HLD	16
T_NUM_SLD	6
T_NUM_ALL	341
T_JUDGE_TAP	319
T_JUDGE_HLD	64
T_JUDGE_SLD	6
T_JUDGE_ALL	389
TTM_EACHPAIRS	59
TTM_SCR_TAP	157500
TTM_SCR_BRK	10400
TTM_SCR_HLD	16000
TTM_SCR_SLD	9000
TTM_SCR_ALL	192900
TTM_SCR_S	186750
TTM_SCR_SS	192500
TTM_RAT_ACV	10020

