VERSION	0.00.00	1.04.00
FES_MODE	0
BPM_DEF	205.000	205.000	205.000	205.000
MET_DEF	4	4
RESOLUTION	384
CLK_DEF	384
COMPATIBLE_CODE	MA2

BPM	0	0	205.000
MET	0	0	4	4
MET	81	0	4	2
MET	81	192	4	4

NMTAP	3	0	4
NMTAP	4	0	5
NMTAP	5	0	6
NMTAP	6	0	7
NMTAP	7	0	0
NMTAP	8	0	1
NMTAP	9	0	2
EXTAP	10	0	3
EXTAP	10	0	4
NMTAP	11	0	3
NMTAP	11	192	3
NMTAP	12	0	2
NMTAP	12	192	2
NMTAP	13	0	1
NMTAP	13	192	1
NMTAP	14	0	0
NMTAP	14	0	1
NMTAP	15	0	7
NMTAP	15	192	7
NMTAP	16	0	6
NMTAP	16	192	6
NMTAP	17	0	5
NMTAP	17	192	5
NMTAP	18	0	4
NMTAP	18	0	5
NMTAP	19	0	4
NMTAP	19	96	4
NMTAP	19	192	4
NMTAP	20	0	5
NMTAP	20	192	5
NMTAP	21	0	6
NMTAP	21	96	6
NMTAP	21	192	6
NMTAP	22	0	0
NMTAP	22	0	7
NMTAP	23	0	0
NMTAP	23	96	0
NMTAP	23	192	0
NMTAP	24	0	1
NMTAP	24	192	1
NMTAP	25	0	2
NMTAP	25	96	2
NMTAP	25	192	2
EXTAP	26	0	3
EXTAP	26	0	4
NMSTR	27	0	3
NMSI_	27	0	3	96	288	0
NMSTR	29	0	7
NMSI_	29	0	7	96	288	4
NMSTR	31	0	3
NMSI_	31	0	3	96	288	7
NMSTR	33	0	6
NMSI_	33	0	6	96	288	2
NMTTP	35	0	0	B	0	L1
NMTTP	36	0	7	B	0	L1
NMTTP	37	0	1	B	0	L1
NMTTP	38	0	6	B	0	L1
NMTTP	39	0	2	B	0	L1
NMTTP	40	0	5	B	0	L1
NMTTP	41	0	0	C	1	L1
EXTAP	42	192	0
EXTAP	42	192	7
BXTAP	43	0	7
EXTAP	43	96	7
EXTAP	43	192	7
NMTAP	44	0	6
NMTAP	44	96	6
NMTAP	44	192	6
NMTAP	45	0	5
NMTAP	45	96	5
NMTAP	45	192	5
NMTAP	46	0	4
NMTAP	46	0	5
NMTAP	46	192	4
NMTAP	46	192	5
NMTAP	47	0	3
NMTAP	47	96	3
NMTAP	47	192	3
NMTAP	48	0	2
NMTAP	48	96	2
NMTAP	48	192	2
NMTAP	49	0	1
NMTAP	49	96	1
NMTAP	49	192	1
NMTAP	50	0	0
NMTAP	50	0	1
NMTAP	51	0	0
NMTAP	51	96	0
NMTAP	51	192	0
NMTAP	52	0	1
NMTAP	52	96	1
NMTAP	52	192	1
NMTAP	53	0	2
NMTAP	53	96	2
NMTAP	53	192	2
EXTAP	54	0	3
EXTAP	54	0	4
NMTAP	54	192	3
NMTAP	54	192	4
NMTAP	55	0	4
NMTAP	55	96	4
NMTAP	55	192	4
NMTAP	56	0	5
NMTAP	56	96	5
NMTAP	56	192	5
NMTAP	57	0	6
NMTAP	57	96	6
NMTAP	57	192	6
EXTAP	58	0	0
EXTAP	58	0	7
BRTAP	58	192	0
BRTAP	58	192	7
NMTAP	59	0	1
NMTAP	59	192	1
NMTAP	60	0	0
NMTAP	60	0	7
NMTAP	61	0	6
NMTAP	61	192	6
EXTAP	62	0	0
EXTAP	62	0	7
NMSTR	63	0	7
NMSI_	63	0	7	96	288	3
NMSTR	65	0	2
NMSI_	65	0	2	96	288	5
NMSTR	67	0	6
NMSI_	67	0	6	96	288	2
NMSTR	69	0	1
NMSI_	69	0	1	96	288	5
NMHLD	71	0	6	384
NMHLD	71	0	7	384
NMHLD	73	0	4	384
NMHLD	73	0	5	384
NMHLD	75	0	2	384
NMHLD	75	0	3	384
NMHLD	77	0	0	384
NMHLD	77	0	1	384
NMHLD	79	0	0	384
NMHLD	79	0	7	384
EXTAP	81	0	0
EXTAP	81	0	7
EXTAP	81	192	0
EXTAP	81	288	0
EXTAP	82	0	0
NMTAP	82	192	1
NMTAP	82	288	1
NMTAP	83	0	0
NMTAP	83	0	1
NMTAP	83	192	2
NMTAP	83	288	2
NMTAP	84	0	2
NMTAP	84	192	3
NMTAP	84	288	3
NMTAP	85	0	3
NMTAP	85	0	4
NMTAP	85	192	4
NMTAP	85	288	4
NMTAP	86	0	4
NMTAP	86	192	5
NMTAP	86	288	5
NMTAP	87	0	4
NMTAP	87	0	5
NMTAP	87	192	6
NMTAP	87	288	6
NMTAP	88	0	6
NMTAP	88	192	7
NMTAP	88	288	7
NMTAP	89	0	0
NMTAP	89	0	7
BRTAP	89	192	7
NMTAP	89	288	7
NMTAP	90	0	7
NMTAP	90	192	6
NMTAP	90	288	6
NMTAP	91	0	6
NMTAP	91	0	7
NMTAP	91	192	5
NMTAP	91	288	5
NMTAP	92	0	5
NMTAP	92	192	4
NMTAP	92	288	4
NMTAP	93	0	3
NMTAP	93	0	4
NMTAP	93	192	3
NMTAP	93	288	3
NMTAP	94	0	3
NMTAP	94	192	2
NMTAP	94	288	2
NMTAP	95	0	2
NMTAP	95	0	3
NMTAP	95	192	1
NMTAP	95	288	1
NMTAP	96	0	1
NMTAP	96	192	0
NMTAP	96	288	0
NMTAP	97	0	0
NMTAP	97	0	7
NMTAP	97	192	7
NMTAP	97	288	7
NMTAP	98	0	6
NMTAP	98	0	7
NMTAP	98	192	0
NMTAP	98	288	0
NMTAP	99	0	0
NMTAP	99	0	1
NMTAP	99	192	7
NMTAP	99	288	7
NMTAP	100	0	0
NMTAP	100	0	7
NMTAP	100	192	0
NMTAP	100	192	7
NMTAP	100	288	0
NMTAP	100	288	7
BRTAP	101	0	0
BRTAP	101	0	7
NMTAP	101	192	1
NMTAP	102	0	1
NMTAP	102	192	0
NMTAP	102	192	7
NMTAP	103	0	0
NMTAP	103	0	7
NMTAP	103	192	6
NMTAP	104	0	6
EXHLD	104	192	0	192
EXHLD	104	192	7	192

T_REC_TAP	164
T_REC_BRK	5
T_REC_XTP	19
T_REC_BXX	1
T_REC_HLD	10
T_REC_XHO	2
T_REC_BHO	0
T_REC_BXH	0
T_REC_STR	8
T_REC_BST	0
T_REC_XST	0
T_REC_XBS	0
T_REC_TTP	7
T_REC_THO	0
T_REC_SLD	8
T_REC_BSL	0
T_REC_ALL	224
T_NUM_TAP	198
T_NUM_BRK	6
T_NUM_HLD	12
T_NUM_SLD	8
T_NUM_ALL	224
T_JUDGE_TAP	204
T_JUDGE_HLD	88
T_JUDGE_SLD	8
T_JUDGE_ALL	300
TTM_EACHPAIRS	38
TTM_SCR_TAP	99000
TTM_SCR_BRK	15600
TTM_SCR_HLD	12000
TTM_SCR_SLD	12000
TTM_SCR_ALL	138600
TTM_SCR_S	133900
TTM_SCR_SS	138000
TTM_RAT_ACV	10043

