VERSION	0.00.00	1.04.00
FES_MODE	0
BPM_DEF	168.000	168.000	168.000	168.000
MET_DEF	4	4
RESOLUTION	384
CLK_DEF	384
COMPATIBLE_CODE	MA2

BPM	0	0	168.000
MET	0	0	4	4

NMTHO	2	0	0	768	C	0	M1
NMTTP	2	0	4	B	0	M1
NMTTP	2	0	5	B	0	M1
NMTTP	2	0	5	E	1	M1
NMSTR	4	0	7
BRSI_	4	0	7	96	480	4
NMSTR	6	0	0
NMSI_	6	0	0	96	480	3
NMHLD	6	0	4	576
NMTAP	7	288	3
NMTAP	7	288	4
NMHLD	8	0	6	72
NMTAP	8	72	4
NMTAP	8	96	5
NMTAP	8	144	4
NMHLD	8	192	6	72
NMTAP	8	264	4
NMTAP	8	288	5
NMSTR	8	336	3
NMSCL	8	336	3	96	48	0
NMTAP	9	48	7
NMSTR	9	96	6
NMSI_	9	96	6	96	48	4
EXTAP	9	192	0
CNSV_	9	240	4	0	48	2
NMTAP	9	288	1
NMHLD	10	0	1	72
NMTAP	10	72	3
NMTAP	10	96	2
NMTAP	10	144	3
NMHLD	10	192	1	72
NMTAP	10	264	3
NMTAP	10	288	2
NMSTR	10	336	4
NMSCR	10	336	4	96	48	7
NMTAP	11	48	0
NMSTR	11	96	1
NMSI_	11	96	1	96	48	3
EXTAP	11	192	7
CNSV_	11	240	3	0	48	5
NMTAP	11	288	6
NMHLD	12	0	5	72
NMTAP	12	72	4
NMTAP	12	96	5
NMTAP	12	144	3
NMTAP	12	144	6
NMHLD	12	192	2	72
NMTAP	12	264	3
NMTAP	12	288	2
NMTAP	12	336	1
NMSTR	12	336	4
NMSV_	12	336	4	96	48	1
NMTAP	13	48	0
NMHLD	13	96	0	96
NMTAP	13	192	2
NMTAP	13	240	3
NMTAP	13	288	2
NMTAP	13	288	4
NMTAP	14	0	4
NMSTR	14	0	6
NMSI_	14	0	6	96	48	4
NMTTP	14	96	7	B	0	M1
NMSTR	14	192	0
NMSI_	14	192	0	96	48	2
NMTTP	14	288	3	B	0	M1
NMSTR	15	0	4
NMSI_	15	0	4	96	48	0
NMHLD	15	96	2	96
NMTAP	15	192	7
NMTAP	15	216	6
NMTAP	15	240	5
NMTAP	15	264	4
NMTAP	15	288	1
NMTAP	15	312	2
NMTAP	15	336	3
NMTAP	15	360	4
NMSTR	16	0	7
NMSI_	16	0	7	96	48	2
NMSI_	16	0	7	96	48	3
EXTAP	16	192	1
EXTAP	16	192	4
NMTAP	16	288	2
NMTAP	16	336	3
NMSTR	17	0	4
NMSI_	17	0	4	96	48	6
NMSTR	17	48	4
NMSI_	17	48	4	96	48	2
EXTAP	17	192	7
NMTAP	17	288	7
NMTAP	17	336	0
NMSTR	18	0	1
NMSI_	18	0	1	96	48	4
NMSTR	18	48	1
NMSI_	18	48	1	96	48	7
EXTAP	18	192	5
NMTAP	18	288	4
NMTAP	18	336	5
NMTAP	19	0	3
NMSTR	19	0	6
NMSI_	19	0	6	96	48	0
NMTAP	19	96	1
NMSTR	19	144	2
NMSI_	19	144	2	96	48	5
EXTAP	19	240	0
CNSI_	19	288	5	0	48	1
NMSTR	19	288	7
NMSCL	19	288	7	96	48	4
NMSCR	19	288	7	96	48	2
EXTAP	20	96	1
EXTAP	20	96	5
NMSTR	20	192	2
NMSI_	20	192	2	96	48	7
NMTAP	20	240	2
NMTAP	20	288	4
NMTAP	20	336	5
NMSTR	21	0	6
NMSI_	21	0	6	96	48	4
NMSTR	21	48	6
NMSI_	21	48	6	96	48	0
EXTAP	21	192	3
NMTAP	21	288	3
NMTAP	21	336	2
NMSTR	22	0	1
NMSI_	22	0	1	96	48	4
NMSTR	22	48	1
NMSI_	22	48	1	96	48	7
EXTAP	22	192	5
NMTAP	22	288	0
NMTAP	22	288	6
NMTAP	22	336	1
NMTAP	22	336	5
NMSTR	23	0	2
NMSLR	23	0	2	96	96	7
NMTAP	23	0	4
NMTAP	23	96	7
NMHLD	23	144	6	96
EXTAP	23	240	0
EXTAP	23	288	0
NMSTR	24	0	1
NMSCR	24	0	1	96	96	5
NMTAP	24	48	1
BXSTR	24	96	5
NMSUR	24	96	5	96	96	1
NMTAP	24	192	1
NMTAP	24	288	7
NMSTR	25	0	5
NMSCR	25	0	5	96	96	1
NMTAP	25	48	5
NMSTR	25	96	1
NMSUR	25	96	1	96	96	5
NMTAP	25	192	5
NMTAP	25	288	3
NMSTR	26	0	1
NMSUR	26	0	1	96	96	5
NMTAP	26	48	1
NMSTR	26	96	5
NMSUL	26	96	5	96	96	7
NMSTR	26	192	7
NMSCR	26	192	7	96	96	2
NMSTR	26	288	2
NMSCR	26	288	2	96	96	5
NMTAP	27	0	7
CNSV_	27	96	5	0	72	0
NMTAP	27	96	6
NMTAP	27	144	6
EXTAP	27	240	0
EXTAP	27	240	4
EXSTR	27	288	0
NMSI_	27	288	0	96	48	2
EXTAP	27	288	4
NMTAP	28	0	0
NMSTR	28	48	4
NMSI_	28	48	4	96	48	0
NMTAP	28	144	4
NMSTR	28	192	1
NMSI_	28	192	1	96	48	3
NMTAP	28	288	1
NMSTR	28	336	0
NMSV_	28	336	0	96	48	5
NMSTR	29	48	4
NMSCL	29	48	4	96	48	1
NMTAP	29	144	7
NMTAP	29	192	7
NMTAP	29	288	6
NMTAP	29	288	7
NMTAP	29	336	0
NMTAP	29	336	5
NMHLD	30	0	1	96
NMTAP	30	0	4
NMTTP	30	96	2	B	0	M1
NMTTP	30	96	3	B	0	M1
NMTTP	30	96	3	E	0	M1
NMTTP	30	96	3	D	0	M1
NMTAP	30	192	0
NMHLD	30	192	7	96
NMTTP	30	288	4	B	0	M1
NMTTP	30	288	5	B	0	M1
NMTTP	30	288	5	E	0	M1
NMTTP	30	288	5	D	0	M1
NMTAP	31	0	6
NMSTR	31	48	7
NMSI_	31	48	7	96	48	3
NMTAP	31	96	0
NMHLD	31	144	1	96
NMTAP	31	240	4
NMSTR	31	288	3
BRSCL	31	288	3	96	48	0
NMTAP	31	288	5
BXSTR	32	0	3
NMSI_	32	0	3	96	288	5
NMTTP	32	0	6	B	1	M1
NMTTP	32	0	6	E	0	M1
NMTTP	32	0	7	E	0	M1
CNSV_	33	0	5	0	192	7
CNSI_	33	192	7	0	192	1
CNSI_	34	0	1	0	384	4
CNSCR	35	0	4	0	192	6
NMHLD	36	0	0	192
NMTAP	36	144	3
NMTAP	36	192	3
NMTAP	36	288	1
NMHLD	36	288	4	192
NMTHO	37	96	0	96	C	0	M1
NMTTP	37	192	0	B	0	M1
NMTTP	37	192	1	B	0	M1
NMTTP	37	192	1	E	0	M1
NMTTP	37	192	4	B	0	M1
NMTTP	37	192	5	B	0	M1
NMTTP	37	192	5	E	0	M1
NMHLD	38	0	7	192
NMTAP	38	144	4
NMTAP	38	192	4
NMHLD	38	288	3	192
NMTAP	38	288	6
NMTHO	39	96	0	96	C	0	M1
NMTTP	39	192	2	B	0	M1
NMTTP	39	192	3	B	0	M1
NMTTP	39	192	3	E	0	M1
NMTTP	39	192	6	B	0	M1
NMTTP	39	192	7	B	0	M1
NMTTP	39	192	7	E	0	M1
NMSTR	40	0	0
NMSI_	40	0	0	96	96	2
CNSCR	40	192	2	0	96	4
NMSTR	40	192	4
NMSI_	40	192	4	96	96	6
NMSTR	41	0	0
NMSCR	41	0	0	96	96	2
CNSCR	41	0	6	0	96	0
CNSI_	41	192	2	0	96	4
NMSTR	41	192	4
BRSCR	41	192	4	96	96	6
NMTAP	42	0	0
CNSI_	42	0	6	0	96	0
NMSTR	42	192	0
NMSI_	42	192	0	96	96	4
NMSTR	42	288	5
NMSI_	42	288	5	96	96	7
CNSCR	43	96	7	0	96	1
CNSI_	43	192	1	0	96	3
NMHLD	44	0	4	96
NMTAP	44	144	4
NMTAP	44	192	3
NMSTR	44	192	5
NMSI_	44	192	5	96	48	0
NMHLD	44	288	1	288
NMHLD	45	96	2	96
NMTAP	45	240	1
NMTAP	45	240	2
NMTAP	45	288	0
NMTAP	45	288	3
NMHLD	46	0	4	96
NMTAP	46	144	4
NMSTR	46	192	3
NMSI_	46	192	3	96	48	7
NMTAP	46	192	5
NMHLD	46	288	6	288
NMHLD	47	96	4	96
NMTAP	47	240	4
NMTAP	47	240	6
NMTAP	47	288	4
NMSTR	47	288	5
NMSCL	47	288	5	96	96	3
NMSTR	48	96	1
NMSCL	48	96	1	96	96	7
CNSI_	48	96	3	0	96	1
NMSTR	48	288	5
NMSI_	48	288	5	96	96	3
CNSI_	48	288	7	0	96	5
NMTAP	49	96	1
CNSCL	49	96	3	0	96	1
NMSTR	49	288	1
BRSCL	49	288	1	96	96	0
NMTHO	50	0	0	384	C	0	M1
CNSV_	50	96	0	0	288	5
CNSUL	51	0	5	0	288	1
NMTTP	52	0	2	B	0	M1
NMTTP	52	96	1	B	0	M1
NMTTP	52	96	3	B	0	M1
NMTTP	52	288	4	B	0	M1
NMTTP	52	288	6	B	0	M1
NMTTP	53	96	1	B	0	M1
NMTTP	53	96	3	B	0	M1
NMTAP	53	288	4
NMTAP	53	288	6
NMTAP	53	336	5
NMTAP	54	0	5
NMTTP	54	96	4	B	0	M1
NMTTP	54	96	6	B	0	M1
NMTTP	54	96	6	E	0	M1
NMTTP	54	288	1	B	0	M1
NMTTP	54	288	2	E	0	M1
NMTTP	54	288	3	B	0	M1
NMTTP	55	96	4	B	0	M1
NMTTP	55	96	6	B	0	M1
NMTTP	55	96	6	E	0	M1
NMTAP	55	288	1
NMTAP	55	288	3
NMSTR	56	0	2
NMSCL	56	0	2	96	480	4
NMHLD	56	0	4	96
NMTAP	56	288	3
NMTAP	57	96	3
NMTAP	57	288	3
NMTAP	57	336	3
NMHLD	58	0	2	96
NMSTR	58	0	4
NMSI_	58	0	4	96	192	6
NMTAP	58	288	2
CNSI_	58	288	6	0	192	0
CNSI_	59	96	0	0	192	2
NMTAP	59	96	2
NMTAP	59	288	3
NMTAP	59	336	3
NMHLD	60	0	3	288
NMTAP	60	96	4
NMTAP	60	192	5
NMHLD	60	288	6	384
NMTAP	61	0	3
NMTAP	61	96	3
NMTAP	61	192	2
NMTAP	61	288	1
NMTTP	62	0	2	D	0	M1
NMTTP	62	0	6	D	0	M1
NMTTP	62	96	2	E	0	M1
NMTTP	62	96	6	E	0	M1
NMTTP	62	192	2	B	0	M1
NMTTP	62	192	5	B	0	M1
NMTTP	62	288	3	B	0	M1
NMTTP	62	288	4	B	0	M1
NMTTP	63	0	3	A	0	M1
NMTTP	63	0	4	A	0	M1
NMTTP	63	96	3	E	0	M1
NMTTP	63	96	5	E	0	M1
NMTTP	63	192	2	B	0	M1
NMTTP	63	192	5	B	0	M1
NMTTP	63	288	1	B	0	M1
NMTTP	63	288	6	B	0	M1
NMTAP	64	0	7
NMTAP	64	48	7
NMTAP	64	96	0
NMTAP	64	144	0
NMTAP	64	192	6
NMTAP	64	240	6
NMTAP	64	288	5
NMTAP	64	336	5
NMTAP	65	0	4
NMTAP	65	48	4
NMTAP	65	96	3
NMTAP	65	144	3
NMTAP	65	192	2
NMTAP	65	240	2
NMTAP	65	288	1
NMTAP	65	336	1
NMTAP	66	0	0
NMTAP	66	24	7
NMTAP	66	48	0
NMTAP	66	72	7
NMTAP	66	96	0
NMTAP	66	120	7
NMTAP	66	144	0
NMTAP	66	168	7
NMTAP	66	192	0
NMTAP	66	216	7
NMTAP	66	240	0
NMTAP	66	264	7
NMSTR	66	288	0
NMSI_	66	288	0	96	48	6
NMTAP	66	312	7
NMTAP	66	336	0
NMTAP	66	360	7
CNSI_	67	48	6	0	48	1
CNSI_	67	96	1	0	96	5
CNSI_	67	192	5	0	96	2
CNSI_	67	288	2	0	96	4
NMHLD	68	0	5	624
NMTAP	69	240	7
NMSTR	69	288	1
BRSI_	69	288	1	96	48	5
EXTAP	69	288	3
BRTAP	70	0	1
BRTAP	70	0	4
NMTAP	70	72	6
NMSTR	70	96	6
BRSCR	70	96	6	96	48	1
NMTAP	70	144	5
BRTAP	70	192	4
BRTAP	70	192	6
NMTAP	70	264	2
NMTAP	70	288	2
NMTAP	70	336	2
NMTAP	70	336	3
NMSTR	71	0	1
BRSI_	71	0	1	96	48	5
NMTAP	71	0	4
NMTAP	71	48	0
NMTAP	71	48	5
NMTAP	71	96	1
NMSTR	71	96	4
BRSI_	71	96	4	96	48	2
CNSI_	71	240	2	0	48	0
CNSI_	71	288	0	0	48	6
NMHLD	72	0	2	72
NMTAP	72	72	3
NMSTR	72	96	3
BRSCR	72	96	3	96	48	6
NMTAP	72	144	0
BRTAP	72	192	1
BRTAP	72	192	3
NMTAP	72	264	2
NMTAP	72	288	2
NMTAP	72	336	0
NMTAP	72	336	1
NMTAP	73	0	2
NMSTR	73	0	7
BRSI_	73	0	7	96	48	3
NMTAP	73	48	4
NMTAP	73	48	6
NMSTR	73	96	3
BRSI_	73	96	3	96	48	5
NMTAP	73	96	7
NMTAP	73	192	1
NMTAP	73	240	2
CNSI_	73	240	5	0	48	7
NMTAP	73	288	3
CNSI_	73	288	7	0	48	1
NMHLD	74	0	2	72
NMTAP	74	72	3
NMTAP	74	96	1
NMTAP	74	144	0
NMTAP	74	144	4
NMHLD	74	192	6	72
NMTAP	74	264	7
NMTAP	74	288	5
NMTAP	74	336	0
NMTAP	74	336	4
NMSTR	75	0	1
BRSLL	75	0	1	96	96	2
NMTAP	75	48	3
NMSTR	75	96	5
NMSI_	75	96	5	96	48	0
CNSI_	75	240	0	0	48	6
NMTAP	76	0	3
NMSTR	76	0	5
NMSCR	76	0	5	96	48	0
NMTTP	76	96	5	E	0	M1
NMSTR	76	192	1
NMSCR	76	192	1	96	48	4
NMTTP	76	288	1	E	0	M1
NMHLD	77	0	7	96
NMTAP	77	96	4
NMTAP	77	144	4
NMTAP	77	192	6
NMTAP	77	240	4
NMTAP	77	240	5
NMTAP	77	288	6
NMTAP	77	288	7
NMTAP	77	336	0
NMTAP	77	336	1
NMTAP	78	0	2
NMSTR	78	0	3
BRSCL	78	0	3	96	48	0
BRSCR	78	0	3	96	48	6
BRTAP	78	96	3
EXTAP	78	192	6
EXSTR	78	192	7
BRSI_	78	192	7	96	48	2
NMSTR	78	288	5
BRSI_	78	288	5	96	48	0
NMTAP	78	336	5
NMSTR	79	0	3
BRSI_	79	0	3	96	48	6
NMTAP	79	48	3
EXTAP	79	96	7
CNSI_	79	144	6	0	48	0
EXTAP	79	144	7
CNSI_	79	192	0	0	48	2
CNSI_	79	240	2	0	48	5
NMSTR	79	336	6
BRSI_	79	336	6	96	48	2
NMTAP	80	0	6
EXTAP	80	48	0
CNSI_	80	96	2	0	48	4
NMSTR	80	144	7
BRSLR	80	144	7	96	96	5
NMTAP	80	192	7
EXTAP	80	240	5
NMTAP	80	336	6
NMTAP	81	0	4
NMTAP	81	0	7
NMTAP	81	48	3
NMTAP	81	48	6
NMTAP	81	96	2
NMTAP	81	96	5
NMTAP	81	144	1
NMSTR	81	144	4
BRSLR	81	144	4	96	96	0
EXTAP	81	240	0
EXSTR	81	288	1
BRSI_	81	288	1	96	48	5
NMTAP	82	0	1
NMSTR	82	0	7
BRSI_	82	0	7	96	48	3
NMSTR	82	96	0
BRSI_	82	96	0	96	48	4
EXTAP	82	96	7
NMTAP	82	192	0
NMSTR	82	192	6
BRSI_	82	192	6	96	48	3
NMSTR	82	288	1
BRSI_	82	288	1	96	48	4
NMTAP	82	288	6
EXTAP	83	0	1
EXSTR	83	0	5
BRSLR	83	0	5	96	96	1
NMTAP	83	96	3
NMTAP	83	96	5
NMSTR	83	144	2
BRSI_	83	144	2	96	48	7
NMTAP	83	240	2
NMTAP	83	240	5
NMTAP	83	288	4
CNSI_	83	288	7	0	48	4
BXHLD	83	336	3	240
NMTAP	84	192	7
NMTAP	84	240	0
NMTAP	84	240	4
NMTAP	84	288	1
NMTAP	84	288	5
NMSTR	84	336	6
NMSI_	84	336	6	96	48	3
NMSTR	85	0	2
NMSI_	85	0	2	96	48	7
NMTAP	85	48	6
NMTAP	85	96	2
NMTAP	85	144	4
BRTAP	85	192	0
NMTAP	85	240	1
NMTAP	85	240	5
NMSTR	85	288	2
BRSV_	85	288	2	96	48	7
NMSTR	85	288	6
BRSCL	85	288	6	96	48	3
NMTAP	86	0	2
NMTAP	86	0	6
BRTAP	86	96	1
BRTAP	86	96	5
EXTAP	86	192	2
EXSTR	86	192	6
BRSCR	86	192	6	96	48	1
NMSTR	86	288	2
BRSI_	86	288	2	96	48	7
NMTAP	86	336	2
NMSTR	87	0	3
BRSI_	87	0	3	96	48	6
NMTAP	87	48	3
NMTAP	87	96	0
NMTAP	87	144	0
NMTAP	87	192	1
NMTAP	87	240	2
NMSTR	87	240	7
BRSCR	87	240	7	96	48	2
NMSTR	87	336	3
BRSI_	87	336	3	96	48	7
NMTAP	88	0	3
NMTAP	88	48	4
CNSI_	88	96	7	0	48	1
NMSTR	88	144	5
BRSI_	88	144	5	96	48	0
NMTAP	88	192	5
NMTAP	88	240	2
CNSI_	88	288	0	0	48	2
NMTAP	88	336	3
NMTAP	89	0	3
NMTAP	89	48	4
NMTAP	89	48	5
NMTAP	89	96	6
NMTAP	89	96	7
NMSTR	89	144	0
BRSI_	89	144	0	96	48	4
NMTAP	89	144	1
EXTAP	89	240	2
EXSTR	89	288	1
BRSCL	89	288	1	96	48	6
CNSI_	89	288	4	0	48	2
NMTAP	90	0	1
EXSTR	90	0	3
NMSI_	90	0	3	96	48	7
NMSTR	90	96	3
NMSI_	90	96	3	96	48	1
NMSTR	90	192	3
BRSI_	90	192	3	96	48	6
NMTAP	90	192	6
NMTAP	90	288	0
NMTAP	90	288	3
NMTAP	90	336	1
CNSI_	90	336	6	0	48	0
EXTAP	91	0	2
NMTAP	91	96	0
NMTAP	91	96	1
NMTAP	91	144	0
NMTAP	91	144	1
NMTAP	91	192	0
NMSTR	91	192	7
BRSCR	91	192	7	96	112	4
NMTAP	91	240	6
NMSTR	91	288	5
BRSI_	91	288	5	96	48	3
CNSI_	92	48	3	0	48	1
CNSI_	92	96	1	0	96	7
CNSI_	92	192	7	0	96	5
NMSTR	92	288	3
BRSCR	92	288	3	96	192	1
NMTTP	93	0	3	B	0	M1
NMTTP	93	0	4	B	0	M1
NMTTP	93	0	4	E	1	M1
NMTAP	93	288	0
NMSTR	93	288	7
BRSI_	93	288	7	96	48	4
BRSSR	93	288	7	96	48	3
NMTAP	93	312	1
NMTAP	93	312	6
NMTAP	93	336	2
NMTAP	93	336	5
BRTAP	94	0	7

T_REC_TAP	260
T_REC_BRK	11
T_REC_XTP	28
T_REC_BXX	0
T_REC_HLD	32
T_REC_XHO	0
T_REC_BHO	0
T_REC_BXH	1
T_REC_STR	90
T_REC_BST	0
T_REC_XST	7
T_REC_XBS	2
T_REC_TTP	65
T_REC_THO	4
T_REC_SLD	60
T_REC_BSL	43
T_REC_ALL	603
T_NUM_TAP	450
T_NUM_BRK	57
T_NUM_HLD	36
T_NUM_SLD	60
T_NUM_ALL	603
T_JUDGE_TAP	463
T_JUDGE_HLD	144
T_JUDGE_SLD	103
T_JUDGE_ALL	710
TTM_EACHPAIRS	82
TTM_SCR_TAP	225000
TTM_SCR_BRK	148200
TTM_SCR_HLD	36000
TTM_SCR_SLD	90000
TTM_SCR_ALL	499200
TTM_SCR_S	478700
TTM_SCR_SS	493500
TTM_RAT_ACV	10115

