VERSION	0.00.00	1.04.00
FES_MODE	0
BPM_DEF	168.000	168.000	168.000	168.000
MET_DEF	4	4
RESOLUTION	384
CLK_DEF	384
COMPATIBLE_CODE	MA2

BPM	0	0	168.000
MET	0	0	4	4

BXHLD	2	0	0	2208
EXTAP	7	288	6
NMTAP	8	0	7
NMTAP	8	96	7
NMTAP	8	192	4
NMTAP	8	192	6
NMTAP	8	288	4
NMTAP	8	288	6
NMTAP	9	0	1
NMTAP	9	96	1
NMTAP	9	192	2
NMTAP	9	192	3
NMTAP	9	288	2
NMTAP	9	288	3
NMTAP	10	0	0
NMTAP	10	96	0
NMTAP	10	192	1
NMTAP	10	192	3
NMTAP	10	288	1
NMTAP	10	288	3
NMTAP	11	0	5
NMTAP	11	96	5
NMTAP	11	192	0
NMTAP	11	192	6
NMTAP	11	288	1
NMTAP	11	288	7
NMTAP	12	0	0
NMTAP	12	96	0
NMTAP	12	192	1
NMTAP	12	192	3
NMTAP	12	288	1
NMTAP	12	288	3
NMTAP	13	0	6
NMTAP	13	96	6
NMTAP	13	192	4
NMTAP	13	192	5
NMTAP	13	288	4
NMTAP	13	288	5
NMTAP	14	0	7
NMTAP	14	96	7
NMTAP	14	192	4
NMTAP	14	192	6
NMTAP	14	288	4
NMTAP	14	288	6
NMTAP	15	0	1
NMHLD	15	96	0	192
BRTAP	15	288	7
NMTAP	16	0	5
NMTAP	16	96	5
NMTAP	16	192	5
NMTAP	16	288	0
NMTAP	16	288	6
NMTAP	17	0	2
NMTAP	17	96	2
NMTAP	17	192	2
NMTAP	17	288	1
NMTAP	17	288	7
NMTAP	18	0	5
NMTAP	18	96	4
NMTAP	18	96	6
NMTAP	18	192	2
NMTAP	18	288	1
NMTAP	18	288	3
NMTAP	19	0	0
NMSTR	19	96	7
NMSI_	19	96	7	96	96	3
NMTAP	20	0	2
NMTAP	20	96	2
NMTAP	20	192	2
NMTAP	20	288	1
NMTAP	20	288	7
NMTAP	21	0	5
NMTAP	21	96	5
NMTAP	21	192	5
NMTAP	21	288	0
NMTAP	21	288	6
NMTAP	22	0	2
NMTAP	22	96	1
NMTAP	22	96	3
NMTAP	22	192	5
NMTAP	22	288	4
NMTAP	22	288	6
NMTAP	23	0	7
NMSTR	23	96	0
NMSI_	23	96	0	96	96	4
NMTAP	24	0	5
NMTAP	24	96	5
NMTAP	24	192	6
NMTAP	24	288	4
NMTAP	24	288	7
NMTAP	25	0	2
NMTAP	25	96	2
NMTAP	25	192	1
NMTAP	25	288	0
NMTAP	25	288	3
NMTAP	26	0	5
NMTAP	26	96	4
NMTAP	26	96	6
NMTAP	26	192	2
NMTAP	26	288	1
NMTAP	26	288	3
NMTAP	27	0	0
NMSTR	27	96	7
NMSUL	27	96	7	96	96	3
NMTAP	28	0	2
NMTAP	28	96	2
NMTAP	28	192	1
NMTAP	28	288	0
NMTAP	28	288	3
NMTAP	29	0	5
NMTAP	29	96	5
NMTAP	29	192	6
NMTAP	29	288	4
NMTAP	29	288	7
NMTAP	30	0	2
NMTAP	30	96	1
NMTAP	30	96	4
NMTAP	30	192	5
NMTAP	30	288	3
NMTAP	30	288	6
NMTAP	31	0	7
NMSTR	31	96	0
NMSUR	31	96	0	96	96	4
NMHLD	32	0	4	576
NMHLD	32	0	6	576
NMHLD	34	0	1	576
NMHLD	34	0	3	576
NMHLD	36	0	6	384
NMTAP	36	192	4
NMHLD	37	0	2	384
NMTAP	37	192	4
NMTAP	38	0	6
NMTAP	38	96	6
NMTAP	38	192	4
NMTAP	38	192	6
NMTAP	38	288	3
NMTAP	39	0	2
NMTAP	39	96	2
NMTAP	39	96	4
NMTAP	39	192	2
NMTAP	39	192	4
NMHLD	40	0	1	384
NMTAP	40	192	3
NMHLD	41	0	5	384
NMTAP	41	192	3
NMHLD	42	0	1	192
NMSTR	42	192	3
NMSXL	42	192	3	96	288	7
NMHLD	44	0	2	384
NMTAP	44	192	0
NMHLD	45	0	6	384
NMTAP	45	192	0
NMTAP	46	0	2
NMTAP	46	96	2
NMTAP	46	192	0
NMTAP	46	192	2
NMTAP	46	288	7
NMTAP	47	0	6
NMTAP	47	96	0
NMTAP	47	96	6
NMTAP	47	192	0
NMTAP	47	192	6
NMHLD	48	0	5	384
NMTAP	48	192	7
NMHLD	49	0	1	384
NMTAP	49	192	7
NMHLD	50	0	5	192
NMSTR	50	192	7
NMSXL	50	192	7	96	288	3
NMTTP	52	96	5	E	0	M1
NMTTP	52	96	6	E	0	M1
NMTTP	52	288	0	E	0	M1
NMTTP	52	288	7	E	0	M1
NMTTP	53	96	1	E	0	M1
NMTTP	53	96	2	E	0	M1
NMTTP	53	288	3	E	0	M1
NMTTP	53	288	4	E	0	M1
NMTTP	54	96	5	E	0	M1
NMTTP	54	96	6	E	0	M1
NMTTP	54	288	0	E	0	M1
NMTTP	54	288	7	E	0	M1
NMTTP	55	96	1	E	0	M1
NMTTP	55	96	2	E	0	M1
NMTTP	55	288	3	E	0	M1
NMTTP	55	288	4	E	0	M1
NMTAP	56	0	6
NMHLD	56	96	6	672
NMTAP	56	288	4
NMTAP	57	96	5
NMTAP	57	288	3
NMTAP	58	0	2
NMHLD	58	96	1	576
NMTAP	58	288	3
NMTAP	59	96	2
NMTAP	59	288	4
NMTAP	60	0	4
NMTAP	60	96	5
NMTAP	60	192	6
NMTAP	60	288	6
NMTAP	61	0	3
NMTAP	61	96	2
NMTAP	61	192	1
NMTAP	61	288	1
NMTAP	62	0	2
NMTAP	62	0	5
NMSTR	62	96	2
NMSI_	62	96	2	96	96	7
NMSTR	62	96	5
NMSI_	62	96	5	96	96	0
NMTAP	63	0	0
NMTAP	63	0	7
NMTAP	63	96	0
NMTAP	63	96	7
NMTAP	63	192	2
NMTAP	63	192	5
NMTAP	63	288	3
NMTAP	63	288	4
NMTAP	64	0	5
NMTAP	64	48	5
NMTAP	64	96	4
NMTAP	64	144	4
NMTAP	64	192	6
NMTAP	64	240	6
NMTAP	64	288	3
NMTAP	65	0	2
NMTAP	65	48	2
NMTAP	65	96	3
NMTAP	65	144	3
NMTAP	65	192	1
NMTAP	65	240	1
NMTAP	65	288	4
NMTAP	66	0	6
NMTAP	66	48	6
NMTAP	66	96	4
NMTAP	66	144	4
NMTAP	66	192	5
NMTAP	66	240	5
NMTAP	66	288	0
NMTAP	67	0	1
NMTAP	67	48	1
NMTAP	67	96	3
NMTAP	67	144	3
NMTAP	67	192	2
NMTAP	67	240	2
NMTAP	67	288	7
NMHLD	68	0	6	672
BRTAP	69	288	0
NMTAP	70	0	2
NMTAP	70	0	4
NMTAP	70	96	1
NMTAP	70	144	1
NMTAP	70	192	0
NMTAP	70	288	5
NMTAP	70	336	5
NMTAP	71	0	4
NMTAP	71	96	6
NMTAP	71	96	7
NMTAP	71	192	1
NMTAP	71	192	3
NMTAP	71	288	0
NMTAP	71	288	1
NMTAP	72	0	3
NMTAP	72	0	5
NMTAP	72	96	6
NMTAP	72	144	6
NMTAP	72	192	7
NMTAP	72	288	2
NMTAP	72	336	2
NMTAP	73	0	3
NMTAP	73	96	0
NMTAP	73	96	1
NMTAP	73	192	4
NMTAP	73	192	6
NMTAP	73	288	1
NMTAP	73	288	3
NMTAP	74	0	3
NMTAP	74	0	5
NMTAP	74	96	6
NMTAP	74	144	6
NMTAP	74	192	7
NMTAP	74	288	2
NMTAP	74	336	2
NMTAP	75	0	3
NMTAP	75	96	0
NMTAP	75	96	1
NMTAP	75	192	4
NMTAP	75	192	6
NMTAP	75	288	6
NMTAP	75	288	7
NMTAP	76	0	2
NMTAP	76	0	4
NMTAP	76	96	1
NMTAP	76	144	1
NMTAP	76	192	0
NMTAP	76	288	5
NMTAP	76	336	5
NMTAP	77	0	4
NMTAP	77	96	6
NMTAP	77	96	7
NMTAP	77	192	1
NMTAP	77	192	3
NMSTR	77	288	0
NMSI_	77	288	0	96	48	5
NMSTR	77	288	1
NMSI_	77	288	1	96	48	4
BXTAP	78	96	3
BXTAP	78	96	6
NMTAP	78	192	4
NMTAP	78	192	5
NMTAP	78	288	6
NMTAP	78	288	7
NMTAP	79	0	0
NMTAP	79	0	1
NMTAP	79	96	2
NMTAP	79	144	2
NMTAP	79	192	3
NMTAP	79	288	4
NMTAP	79	288	6
EXSTR	80	0	3
NMSI_	80	0	3	96	48	0
EXSTR	80	0	7
NMSI_	80	0	7	96	48	4
EXSTR	80	192	0
NMSI_	80	192	0	96	48	3
EXSTR	80	192	4
NMSI_	80	192	4	96	48	7
EXSTR	81	0	3
NMSI_	81	0	3	96	48	0
EXSTR	81	0	7
NMSI_	81	0	7	96	48	4
EXTAP	81	192	0
EXTAP	81	192	4
NMTAP	81	288	2
NMTAP	81	288	6
NMHLD	82	0	5	96
NMHLD	82	96	7	96
NMHLD	82	192	0	96
NMTAP	82	288	2
NMTAP	82	336	2
NMHLD	83	0	3	96
NMTAP	83	96	4
NMTAP	83	144	4
NMHLD	83	192	5	96
NMHLD	83	288	7	96
NMHLD	84	0	0	96
NMHLD	84	96	2	96
NMTAP	84	192	4
NMTAP	84	240	4
NMSTR	84	288	3
NMSCL	84	288	3	96	192	5
NMSTR	85	288	6
NMSI_	85	288	6	96	48	3
NMSTR	85	288	7
NMSI_	85	288	7	96	48	2
BXTAP	86	96	1
BXTAP	86	96	4
NMTAP	86	192	2
NMTAP	86	192	3
NMTAP	86	288	0
NMTAP	86	288	1
NMTAP	87	0	6
NMTAP	87	0	7
NMTAP	87	96	5
NMTAP	87	144	5
NMTAP	87	192	4
NMTAP	87	288	1
NMTAP	87	288	3
EXSTR	88	0	0
NMSI_	88	0	0	96	48	3
EXSTR	88	0	4
NMSI_	88	0	4	96	48	7
EXSTR	88	192	3
NMSI_	88	192	3	96	48	0
EXSTR	88	192	7
NMSI_	88	192	7	96	48	4
EXSTR	89	0	0
NMSI_	89	0	0	96	48	3
EXSTR	89	0	4
NMSI_	89	0	4	96	48	7
EXTAP	89	192	3
EXTAP	89	192	7
NMTAP	89	288	1
NMTAP	89	288	5
NMHLD	90	0	2	96
NMHLD	90	96	0	96
NMHLD	90	192	7	96
NMHLD	90	288	5	96
NMTAP	91	0	4
NMTAP	91	48	4
NMHLD	91	96	3	96
NMTAP	91	192	2
NMTAP	91	240	2
NMTAP	91	288	0
NMTAP	92	0	1
NMSTR	92	0	7
NMSXR	92	0	7	96	288	3
NMSTR	93	0	2
NMSXR	93	0	2	96	288	6
BXTAP	94	0	7

T_REC_TAP	285
T_REC_BRK	2
T_REC_XTP	5
T_REC_BXX	5
T_REC_HLD	31
T_REC_XHO	0
T_REC_BHO	0
T_REC_BXH	1
T_REC_STR	15
T_REC_BST	0
T_REC_XST	12
T_REC_XBS	0
T_REC_TTP	16
T_REC_THO	0
T_REC_SLD	27
T_REC_BSL	0
T_REC_ALL	399
T_NUM_TAP	333
T_NUM_BRK	8
T_NUM_HLD	31
T_NUM_SLD	27
T_NUM_ALL	399
T_JUDGE_TAP	340
T_JUDGE_HLD	236
T_JUDGE_SLD	27
T_JUDGE_ALL	603
TTM_EACHPAIRS	82
TTM_SCR_TAP	166500
TTM_SCR_BRK	20800
TTM_SCR_HLD	31000
TTM_SCR_SLD	40500
TTM_SCR_ALL	258800
TTM_SCR_S	250300
TTM_SCR_SS	258000
TTM_RAT_ACV	10031

