VERSION	0.00.00	1.04.00
FES_MODE	0
BPM_DEF	168.000	168.000	168.000	168.000
MET_DEF	4	4
RESOLUTION	384
CLK_DEF	384
COMPATIBLE_CODE	MA2

BPM	0	0	168.000
MET	0	0	4	4

NMTAP	8	0	6
NMTAP	8	96	6
NMTAP	8	192	6
NMTAP	9	0	5
NMTAP	9	96	5
NMTAP	9	192	5
NMTAP	10	0	4
NMTAP	10	96	4
NMTAP	10	192	4
NMTAP	11	0	2
NMTAP	11	0	3
NMTAP	11	192	2
NMTAP	11	192	3
NMTAP	12	0	1
NMTAP	12	96	1
NMTAP	12	192	1
NMTAP	13	0	2
NMTAP	13	96	2
NMTAP	13	192	2
NMTAP	14	0	3
NMTAP	14	96	3
NMTAP	14	192	3
NMTAP	15	0	4
NMTAP	15	0	5
NMTAP	15	192	4
NMTAP	15	192	5
NMTAP	16	0	5
NMTAP	16	96	5
NMTAP	16	192	6
NMTAP	16	288	6
NMTAP	17	0	7
NMTAP	17	96	7
NMTAP	17	192	0
NMTAP	17	192	1
NMTAP	18	0	2
NMTAP	18	96	2
NMTAP	18	192	1
NMTAP	18	288	1
NMTAP	19	0	0
NMTAP	19	96	0
NMTAP	19	192	6
NMTAP	19	192	7
NMTAP	20	0	6
NMTAP	20	96	6
NMTAP	20	192	5
NMTAP	20	288	5
NMTAP	21	0	4
NMTAP	21	96	4
NMTAP	21	192	2
NMTAP	21	192	3
NMTAP	22	0	1
NMTAP	22	96	1
NMTAP	22	192	2
NMTAP	22	288	2
NMTAP	23	0	3
NMTAP	23	96	3
NMTAP	23	192	4
NMTAP	23	192	5
NMTAP	24	0	5
NMTAP	24	96	5
NMTAP	24	192	6
NMTAP	24	288	6
NMTAP	25	0	7
NMTAP	25	96	7
NMTAP	25	192	0
NMTAP	25	192	1
NMTAP	26	0	2
NMTAP	26	96	2
NMTAP	26	192	1
NMTAP	26	288	1
NMTAP	27	0	0
NMTAP	27	96	0
NMTAP	27	192	6
NMTAP	27	192	7
NMTAP	28	0	6
NMTAP	28	96	6
NMTAP	28	192	5
NMTAP	28	288	5
NMTAP	29	0	4
NMTAP	29	96	4
NMTAP	29	192	2
NMTAP	29	192	3
NMTAP	30	0	1
NMTAP	30	96	1
NMTAP	30	192	2
NMTAP	30	288	2
NMTAP	31	0	3
NMTAP	31	96	3
NMTAP	31	192	4
NMTAP	31	192	5
NMSTR	32	0	6
NMSUL	32	0	6	96	480	3
NMSTR	34	0	1
NMSUR	34	0	1	96	480	4
NMHLD	36	0	5	192
NMHLD	36	192	4	192
NMHLD	37	0	3	192
NMTAP	37	192	2
NMHLD	38	0	2	192
NMHLD	38	192	3	192
NMHLD	39	0	4	192
NMTAP	39	192	5
NMHLD	40	0	6	192
NMHLD	40	192	5	192
NMHLD	41	0	4	192
NMTAP	41	192	3
NMHLD	42	0	1	192
NMHLD	42	192	2	192
NMHLD	43	0	3	192
NMTAP	43	192	4
NMTAP	44	0	3
NMTAP	44	96	3
NMTAP	44	192	2
NMTAP	45	0	1
NMTAP	45	96	1
NMTAP	45	192	0
NMTAP	46	0	7
NMTAP	46	96	7
NMTAP	46	192	6
NMTAP	47	0	5
NMTAP	47	96	5
NMTAP	47	192	4
NMTAP	47	192	5
NMTAP	48	0	4
NMTAP	48	96	4
NMTAP	48	192	5
NMTAP	49	0	6
NMTAP	49	96	6
NMTAP	49	192	7
NMTAP	50	0	0
NMTAP	50	96	0
NMTAP	50	192	1
NMTAP	51	0	2
NMTAP	51	96	2
NMTAP	51	192	2
NMTAP	51	192	3
NMSTR	52	0	1
NMSI_	52	0	1	96	192	4
NMSTR	53	0	6
NMSI_	53	0	6	96	192	3
NMSTR	54	0	1
NMSI_	54	0	1	96	192	5
NMSTR	55	0	6
NMSI_	55	0	6	96	192	2
NMSTR	56	0	0
NMSI_	56	0	0	96	192	4
NMSTR	57	0	6
NMSI_	57	0	6	96	192	3
NMSTR	58	0	2
NMSI_	58	0	2	96	192	7
NMSTR	59	0	6
NMSI_	59	0	6	96	192	3
NMTTP	60	0	1	B	0	L1
NMTTP	60	96	2	B	0	L1
NMTTP	60	192	3	B	0	L1
NMTTP	61	0	6	B	0	L1
NMTTP	61	96	5	B	0	L1
NMTTP	61	192	4	B	0	L1
NMTTP	62	0	1	B	0	L1
NMTTP	62	96	2	B	0	L1
NMTTP	62	192	3	B	0	L1
NMTTP	62	288	4	B	0	L1
NMTTP	63	0	5	B	0	L1
NMTTP	63	96	6	B	0	L1
NMTTP	63	192	0	C	0	L1
NMTTP	64	0	7	B	0	L1
NMTTP	64	96	6	B	0	L1
NMTTP	64	192	4	B	0	L1
NMTTP	64	192	5	B	0	L1
NMTTP	65	0	0	B	0	L1
NMTTP	65	96	1	B	0	L1
NMTTP	65	192	2	B	0	L1
NMTTP	65	192	3	B	0	L1
NMTTP	66	0	6	B	0	L1
NMTTP	66	96	5	B	0	L1
NMTTP	66	192	4	B	0	L1
NMTTP	66	288	3	B	0	L1
NMTTP	67	0	2	B	0	L1
NMTTP	67	96	1	B	0	L1
NMTTP	67	192	0	C	0	L1
NMSTR	68	0	0
NMSCR	68	0	0	96	288	3
NMSTR	68	0	7
NMSCL	68	0	7	96	288	4
NMTAP	70	0	5
NMTAP	70	96	5
NMTAP	70	192	6
NMTAP	70	192	7
NMTAP	70	288	6
NMTAP	70	288	7
NMTAP	71	0	0
NMTAP	71	96	0
NMTAP	71	192	0
NMTAP	71	192	1
NMTAP	72	0	2
NMTAP	72	96	2
NMTAP	72	192	0
NMTAP	72	192	1
NMTAP	72	288	0
NMTAP	72	288	1
NMTAP	73	0	7
NMTAP	73	96	7
NMTAP	73	192	6
NMTAP	73	192	7
NMTAP	74	0	6
NMTAP	74	96	6
NMTAP	74	192	4
NMTAP	74	192	5
NMTAP	74	288	4
NMTAP	74	288	5
NMTAP	75	0	3
NMTAP	75	96	3
NMTAP	75	192	2
NMTAP	75	192	3
NMTAP	76	0	1
NMTAP	76	96	1
NMTAP	76	192	2
NMTAP	76	192	3
NMTAP	76	288	2
NMTAP	76	288	3
NMTAP	77	0	4
NMTAP	77	96	4
NMTAP	77	192	4
NMTAP	77	192	5
NMTAP	78	0	5
NMTAP	78	96	5
NMTAP	78	192	6
NMTAP	78	192	7
NMTAP	78	288	6
NMTAP	78	288	7
NMTAP	79	0	0
NMTAP	79	96	0
NMTAP	79	192	0
NMTAP	79	192	1
NMTAP	79	288	0
NMTAP	79	288	1
NMTAP	80	0	2
NMTAP	80	96	2
NMTAP	80	192	0
NMTAP	80	192	1
NMTAP	80	288	0
NMTAP	80	288	1
NMTAP	81	0	7
NMTAP	81	96	7
NMTAP	81	192	6
NMTAP	81	192	7
NMTAP	82	0	6
NMTAP	82	96	6
NMTAP	82	192	4
NMTAP	82	192	5
NMTAP	82	288	4
NMTAP	82	288	5
NMTAP	83	0	3
NMTAP	83	96	3
NMTAP	83	192	2
NMTAP	83	192	3
NMTAP	83	288	2
NMTAP	83	288	3
NMTAP	84	0	1
NMTAP	84	96	1
NMTAP	84	192	2
NMTAP	84	192	3
NMTAP	84	288	2
NMTAP	84	288	3
NMTAP	85	0	4
NMTAP	85	96	4
NMTAP	85	192	4
NMTAP	85	192	5
EXTAP	86	0	6
BXTAP	86	96	6
NMTAP	86	192	6
NMTAP	86	288	6
NMTAP	86	288	7
NMTAP	87	0	5
NMTAP	87	96	5
NMTAP	87	192	5
NMTAP	87	288	4
NMTAP	87	288	5
NMTAP	88	0	3
NMTAP	88	96	3
NMTAP	88	192	3
NMTAP	88	288	2
NMTAP	88	288	3
NMTAP	89	0	1
NMTAP	89	96	1
NMTAP	89	192	0
NMTAP	89	192	1
NMTAP	90	0	1
NMTAP	90	96	1
NMTAP	90	192	1
NMTAP	90	288	0
NMTAP	90	288	1
NMTAP	91	0	2
NMTAP	91	96	2
NMTAP	91	192	2
NMTAP	91	288	2
NMTAP	91	288	3
NMTAP	92	0	4
NMTAP	92	96	4
NMTAP	92	192	4
NMTAP	92	288	4
NMTAP	92	288	5
NMTAP	93	0	6
NMTAP	93	96	6
NMTAP	93	192	6
NMTAP	93	192	7
BRTAP	94	0	0
BRTAP	94	0	7

T_REC_TAP	240
T_REC_BRK	2
T_REC_XTP	1
T_REC_BXX	1
T_REC_HLD	12
T_REC_XHO	0
T_REC_BHO	0
T_REC_BXH	0
T_REC_STR	12
T_REC_BST	0
T_REC_XST	0
T_REC_XBS	0
T_REC_TTP	28
T_REC_THO	0
T_REC_SLD	12
T_REC_BSL	0
T_REC_ALL	308
T_NUM_TAP	281
T_NUM_BRK	3
T_NUM_HLD	12
T_NUM_SLD	12
T_NUM_ALL	308
T_JUDGE_TAP	284
T_JUDGE_HLD	48
T_JUDGE_SLD	12
T_JUDGE_ALL	344
TTM_EACHPAIRS	50
TTM_SCR_TAP	140500
TTM_SCR_BRK	7800
TTM_SCR_HLD	12000
TTM_SCR_SLD	18000
TTM_SCR_ALL	178300
TTM_SCR_S	172700
TTM_SCR_SS	178000
TTM_RAT_ACV	10016

