VERSION	0.00.00	1.04.00
FES_MODE	0
BPM_DEF	168.000	168.000	168.000	168.000
MET_DEF	4	4
RESOLUTION	384
CLK_DEF	384
COMPATIBLE_CODE	MA2

BPM	0	0	168.000
MET	0	0	4	4

NMTAP	8	0	7
NMTAP	9	0	6
NMTAP	10	0	5
NMTAP	11	0	4
NMTAP	12	0	3
NMTAP	13	0	2
NMTAP	14	0	1
NMTAP	15	0	0
NMTAP	15	0	7
NMTAP	16	0	0
NMTAP	16	192	0
NMTAP	17	0	1
NMTAP	17	192	1
NMTAP	18	0	2
NMTAP	18	192	2
NMTAP	19	0	2
NMTAP	19	0	3
NMTAP	20	0	4
NMTAP	20	192	4
NMTAP	21	0	5
NMTAP	21	192	5
NMTAP	22	0	6
NMTAP	22	192	6
NMTAP	23	0	6
NMTAP	23	0	7
NMTAP	24	0	7
NMTAP	24	192	7
NMTAP	25	0	6
NMTAP	25	192	6
NMTAP	26	0	5
NMTAP	26	192	5
NMTAP	27	0	3
NMTAP	27	0	4
NMTAP	28	0	3
NMTAP	28	192	3
NMTAP	29	0	2
NMTAP	29	192	2
NMTAP	30	0	1
NMTAP	30	192	1
NMTAP	31	0	0
NMTAP	31	0	7
NMSTR	32	0	1
NMSI_	32	0	1	96	288	5
NMSTR	34	0	6
NMSI_	34	0	6	96	288	2
NMHLD	36	0	0	384
NMHLD	36	0	1	384
NMHLD	38	0	2	384
NMHLD	38	0	3	384
NMHLD	40	0	4	384
NMHLD	40	0	5	384
NMHLD	42	0	6	384
NMHLD	42	0	7	384
NMTAP	44	0	7
NMTAP	44	192	7
NMTAP	45	0	6
NMTAP	45	192	6
NMTAP	46	0	5
NMTAP	46	192	5
NMTAP	47	0	3
NMTAP	47	0	4
NMTAP	47	192	3
NMTAP	47	192	4
NMTAP	48	0	2
NMTAP	48	192	2
NMTAP	49	0	1
NMTAP	49	192	1
NMHLD	50	0	0	384
NMHLD	50	0	7	384
NMSTR	52	0	0
NMSI_	52	0	0	96	288	4
NMSTR	54	0	5
NMSI_	54	0	5	96	288	2
NMSTR	56	0	1
NMSI_	56	0	1	96	288	5
NMSTR	58	0	6
NMSI_	58	0	6	96	288	2
NMTTP	60	0	0	B	0	L1
NMTTP	61	0	7	B	0	L1
NMTTP	62	0	1	B	0	L1
NMTTP	63	0	6	B	0	L1
NMTTP	64	0	2	B	0	L1
NMTTP	65	0	5	B	0	L1
NMTTP	66	0	3	B	0	L1
NMTTP	67	0	4	B	0	L1
NMTHO	68	0	0	384	C	0	L1
BRTAP	70	0	7
NMTAP	70	96	7
NMTAP	70	192	7
NMTAP	71	0	6
NMTAP	71	192	6
NMTAP	72	0	5
NMTAP	72	96	5
NMTAP	72	192	5
NMTAP	73	0	4
NMTAP	73	0	5
NMTAP	74	0	3
NMTAP	74	96	3
NMTAP	74	192	3
NMTAP	75	0	2
NMTAP	75	192	2
NMTAP	76	0	1
NMTAP	76	96	1
NMTAP	76	192	1
NMTAP	77	0	0
NMTAP	77	0	1
NMTAP	78	0	0
NMTAP	78	96	0
NMTAP	78	192	0
NMTAP	79	0	1
NMTAP	79	96	1
NMTAP	79	192	1
NMTAP	80	0	2
NMTAP	80	96	2
NMTAP	80	192	2
NMTAP	81	0	2
NMTAP	81	0	3
NMTAP	81	192	2
NMTAP	81	192	3
NMTAP	82	0	4
NMTAP	82	96	4
NMTAP	82	192	4
NMTAP	83	0	5
NMTAP	83	96	5
NMTAP	83	192	5
NMTAP	84	0	6
NMTAP	84	96	6
NMTAP	84	192	6
EXTAP	85	0	6
EXTAP	85	0	7
NMTAP	85	192	6
NMTAP	85	192	7
NMTAP	86	0	7
NMTAP	86	96	7
NMTAP	86	192	7
NMTAP	87	0	6
NMTAP	87	96	6
NMTAP	87	192	6
NMTAP	88	0	5
NMTAP	88	96	5
NMTAP	88	192	5
NMTAP	89	0	3
NMTAP	89	0	4
NMTAP	89	96	3
NMTAP	89	96	4
NMTAP	89	192	3
NMTAP	89	192	4
NMTAP	90	0	3
NMTAP	90	96	3
NMTAP	90	192	3
NMTAP	91	0	2
NMTAP	91	96	2
NMTAP	91	192	2
NMTAP	92	0	1
NMTAP	92	96	1
NMTAP	92	192	1
NMTAP	93	0	0
NMTAP	93	0	7
NMTAP	93	96	0
NMTAP	93	96	7
NMTAP	93	192	0
NMTAP	93	192	7
BRTAP	94	0	1
BRTAP	94	0	6

T_REC_TAP	128
T_REC_BRK	3
T_REC_XTP	2
T_REC_BXX	0
T_REC_HLD	10
T_REC_XHO	0
T_REC_BHO	0
T_REC_BXH	0
T_REC_STR	6
T_REC_BST	0
T_REC_XST	0
T_REC_XBS	0
T_REC_TTP	8
T_REC_THO	1
T_REC_SLD	6
T_REC_BSL	0
T_REC_ALL	164
T_NUM_TAP	144
T_NUM_BRK	3
T_NUM_HLD	11
T_NUM_SLD	6
T_NUM_ALL	164
T_JUDGE_TAP	147
T_JUDGE_HLD	88
T_JUDGE_SLD	6
T_JUDGE_ALL	241
TTM_EACHPAIRS	25
TTM_SCR_TAP	72000
TTM_SCR_BRK	7800
TTM_SCR_HLD	11000
TTM_SCR_SLD	9000
TTM_SCR_ALL	99800
TTM_SCR_S	96550
TTM_SCR_SS	99500
TTM_RAT_ACV	10030

