VERSION	0.00.00	1.04.00
FES_MODE	0
BPM_DEF	200.000	200.000	200.000	200.000
MET_DEF	4	4
RESOLUTION	384
CLK_DEF	384
COMPATIBLE_CODE	MA2

BPM	0	0	200.000
MET	0	0	4	4

NMTAP	2	0	2
NMTAP	2	96	1
NMHLD	2	144	1	96
NMTAP	2	240	3
NMTAP	2	288	3
NMTAP	3	0	4
NMTAP	3	96	5
NMHLD	3	144	5	96
NMTAP	3	240	3
NMTAP	3	288	3
NMTAP	4	0	2
NMTAP	4	96	1
NMHLD	4	144	1	96
NMTAP	4	240	3
NMTAP	4	288	3
NMTAP	5	0	5
NMTAP	5	96	1
NMSTR	5	144	1
NMSI_	5	144	1	96	48	4
NMTAP	5	240	6
NMTAP	5	288	6
NMTAP	6	0	4
NMTAP	6	0	5
NMTAP	6	96	6
NMHLD	6	144	6	96
NMTAP	6	240	4
NMTAP	6	288	4
NMTAP	7	0	2
NMTAP	7	96	1
NMHLD	7	144	1	96
NMTAP	7	240	3
NMTAP	7	288	3
NMTAP	8	0	5
NMTAP	8	96	6
NMHLD	8	144	6	96
NMTAP	8	240	4
NMTAP	8	288	4
NMSTR	9	0	3
NMSXR	9	0	3	96	144	4
NMTAP	10	0	6
NMTAP	10	48	6
NMTAP	10	96	4
NMTAP	10	144	4
NMSTR	10	192	7
NMSCL	10	192	7	96	48	4
NMSTR	10	288	3
NMSCL	10	288	3	96	48	0
NMTAP	11	0	5
NMHLD	11	96	6	96
NMTAP	11	192	7
NMTAP	11	288	0
NMTAP	11	336	0
NMTAP	12	0	4
NMTAP	12	48	2
NMTAP	12	96	5
NMTAP	12	144	5
NMTAP	12	192	4
NMTAP	12	240	4
NMSTR	12	288	6
NMSCL	12	288	6	96	48	3
NMSTR	13	0	7
NMSV_	13	0	7	96	48	2
NMSTR	13	96	6
NMSCL	13	96	6	96	48	3
NMSTR	13	192	7
NMSV_	13	192	7	96	48	2
NMTAP	13	288	6
NMTAP	14	0	0
NMTAP	14	96	2
NMTAP	14	144	2
NMTAP	14	192	1
NMTAP	14	192	3
NMTAP	14	288	5
NMTAP	14	336	5
NMTAP	15	0	4
NMSTR	15	0	6
NMSI_	15	0	6	96	48	1
NMSTR	15	96	2
NMSI_	15	96	2	96	48	5
NMTAP	15	192	7
NMTAP	15	288	3
NMSTR	16	0	4
NMSI_	16	0	4	96	48	0
NMHLD	16	0	6	96
NMHLD	16	192	1	96
NMSTR	16	192	3
NMSI_	16	192	3	96	48	7
NMTAP	17	0	3
NMTAP	17	0	5
NMSTR	17	96	1
NMSI_	17	96	1	96	48	5
NMSTR	17	96	7
NMSI_	17	96	7	96	48	3
BRTAP	17	192	1
BRTAP	17	192	7
NMHLD	18	0	6	96
NMTAP	18	96	4
NMTAP	18	192	2
NMTAP	18	264	2
NMTAP	18	288	3
NMTAP	18	336	3
NMTAP	19	0	0
NMTAP	19	48	0
NMTAP	19	96	6
NMTAP	19	144	6
NMTAP	19	192	4
NMTAP	19	288	2
NMTAP	19	336	1
NMHLD	20	0	1	96
NMTAP	20	96	5
NMTAP	20	144	5
NMTAP	20	192	4
NMTAP	20	192	6
NMTAP	20	264	5
NMTAP	20	288	4
NMTAP	20	336	4
NMTAP	21	0	7
NMTAP	21	48	7
NMTAP	21	96	1
NMTAP	21	144	1
NMTAP	21	192	3
NMTAP	21	288	0
NMTAP	21	288	6
NMSTR	22	0	5
NMSI_	22	0	5	96	48	0
NMTAP	22	96	4
NMTAP	22	192	1
NMTAP	22	192	3
NMTAP	22	264	2
NMTAP	22	288	3
NMTAP	22	336	3
NMSTR	23	0	1
NMSI_	23	0	1	96	48	7
NMTAP	23	96	3
NMTAP	23	192	4
NMTAP	23	192	6
NMTAP	23	264	5
NMTAP	23	288	4
NMTAP	23	336	4
NMSTR	24	0	6
NMSCR	24	0	6	96	48	0
NMSTR	24	96	1
NMSI_	24	96	1	96	48	3
NMSI_	24	96	1	96	48	5
NMTAP	24	288	4
NMTAP	24	336	4
NMTAP	25	0	3
NMTAP	25	0	5
NMSTR	25	96	2
NMSI_	25	96	2	96	48	5
NMSTR	25	96	6
NMSI_	25	96	6	96	48	1
NMTAP	25	288	3
NMTAP	25	288	7
NMHLD	26	0	1	96
NMTAP	26	96	3
NMTAP	26	192	4
NMTAP	26	192	6
NMTAP	26	264	5
NMTAP	26	288	4
NMTAP	26	336	4
NMTAP	27	0	6
NMTAP	27	48	6
NMTAP	27	96	0
NMTAP	27	144	0
NMTAP	27	192	1
NMTAP	27	192	7
NMTAP	27	288	3
NMTAP	27	288	5
NMTAP	27	336	6
NMHLD	28	0	6	96
NMTAP	28	96	3
NMTAP	28	144	2
NMTAP	28	192	1
NMTAP	28	192	3
NMTAP	28	264	2
NMTAP	28	288	3
NMTAP	28	336	3
NMTAP	29	0	1
NMTAP	29	48	1
NMTAP	29	96	7
NMTAP	29	144	7
NMTAP	29	192	0
NMTAP	29	192	6
NMHLD	29	288	2	96
NMSTR	30	0	3
NMSI_	30	0	3	96	48	6
NMSTR	30	96	1
NMSI_	30	96	1	96	48	4
NMSTR	30	192	7
NMSI_	30	192	7	96	48	2
NMSTR	30	288	5
NMSI_	30	288	5	96	48	0
NMSTR	31	0	3
NMSI_	31	0	3	96	48	6
NMSTR	31	96	1
NMSI_	31	96	1	96	48	4
NMSTR	31	192	7
NMSI_	31	192	7	96	48	2
NMSTR	31	288	5
NMSI_	31	288	5	96	48	0
NMTAP	32	0	3
NMTAP	32	96	7
NMTAP	32	192	2
NMTAP	32	192	5
NMSTR	32	288	3
NMSI_	32	288	3	96	48	0
NMSTR	32	288	4
NMSI_	32	288	4	96	48	7
NMTAP	33	0	3
NMTAP	33	0	4
BRTAP	33	192	0
NMSTR	34	0	6
NMSI_	34	0	6	96	48	3
NMSTR	34	0	7
NMSI_	34	0	7	96	48	3
NMTAP	34	96	6
NMTAP	34	96	7
NMSTR	34	192	0
NMSI_	34	192	0	96	48	4
NMSTR	34	192	1
NMSI_	34	192	1	96	48	4
NMTAP	34	288	0
NMTAP	34	288	1
NMSTR	35	0	7
NMSI_	35	0	7	96	48	4
NMSI_	35	0	7	96	48	5
NMSTR	35	96	7
NMSI_	35	96	7	96	48	1
NMSI_	35	96	7	96	48	2
NMSTR	35	192	7
NMSI_	35	192	7	96	48	3
NMTAP	35	288	7
NMSTR	36	0	0
NMSI_	36	0	0	96	48	4
NMSTR	36	0	1
NMSI_	36	0	1	96	48	4
NMTAP	36	96	0
NMTAP	36	96	1
NMSTR	36	192	6
NMSI_	36	192	6	96	48	3
NMSTR	36	192	7
NMSI_	36	192	7	96	48	3
NMTAP	36	288	6
NMTAP	36	288	7
NMSTR	37	0	0
NMSI_	37	0	0	96	48	2
NMSI_	37	0	0	96	48	3
NMSTR	37	96	0
NMSI_	37	96	0	96	48	5
NMSI_	37	96	0	96	48	6
NMSTR	37	192	0
NMSI_	37	192	0	96	48	4
NMTAP	37	288	0
NMSTR	38	0	7
NMSCL	38	0	7	96	96	3
NMSTR	38	96	3
NMSCL	38	96	3	96	96	7
NMSTR	38	192	7
NMSLL	38	192	7	96	96	3
NMSTR	38	288	3
NMSLL	38	288	3	96	96	7
NMSTR	39	0	7
NMSCL	39	0	7	96	96	3
NMTAP	39	96	3
NMTAP	39	192	7
NMTAP	39	288	1
NMTAP	39	288	5
NMTAP	40	0	4
NMTAP	40	0	6
NMTAP	40	96	0
NMTAP	40	96	7
NMTAP	40	192	1
NMTAP	40	192	3
NMTAP	40	264	3
NMTAP	40	264	5
NMTAP	40	336	2
NMTAP	40	336	4
NMSTR	41	0	2
NMSXR	41	0	2	96	120	3
NMSTR	41	0	4
NMSXL	41	0	4	96	120	3
BRSTR	41	288	0
NMSI_	41	288	0	96	48	3
NMSTR	42	0	0
NMSI_	42	0	0	96	48	5
NMSTR	42	96	0
NMSI_	42	96	0	96	48	4
NMSTR	42	192	0
NMSI_	42	192	0	96	48	2
NMSI_	42	192	0	96	48	3
NMSTR	42	288	0
NMSI_	42	288	0	96	48	5
NMSI_	42	288	0	96	48	6
NMSTR	43	0	0
NMSI_	43	0	0	96	48	4
NMTAP	43	96	0
NMTAP	43	192	2
NMTAP	43	192	6
BRSTR	43	288	7
NMSI_	43	288	7	96	48	4
NMSTR	44	0	7
NMSI_	44	0	7	96	48	2
NMSTR	44	96	7
NMSI_	44	96	7	96	48	3
NMSTR	44	192	7
NMSI_	44	192	7	96	48	4
NMSI_	44	192	7	96	48	5
NMSTR	44	288	7
NMSI_	44	288	7	96	48	1
NMSI_	44	288	7	96	48	2
NMSTR	45	0	7
NMSI_	45	0	7	96	48	3
NMSTR	45	96	7
NMSCL	45	96	7	96	48	5
NMSCR	45	96	7	96	48	1
NMSTR	45	192	7
NMSSR	45	192	7	96	96	3
NMTAP	45	288	7
NMTAP	46	96	5
NMTAP	46	192	6
NMTAP	46	288	7
NMSTR	47	0	0
NMSCR	47	0	0	96	96	3
NMTAP	47	96	4
NMSTR	47	192	5
NMSCR	47	192	5	96	96	0
NMTAP	47	288	3
NMSTR	48	0	2
NMSUR	48	0	2	96	192	5
NMTAP	48	96	5
NMHLD	48	192	6	192
BRTAP	49	0	7
NMTAP	49	192	7
NMSTR	49	288	0
NMSCR	49	288	0	96	48	3
NMSTR	49	288	6
NMSCL	49	288	6	96	48	3
NMTAP	50	0	0
NMTAP	50	0	6
NMTAP	50	144	0
NMTAP	50	192	0
NMSTR	50	288	1
NMSCR	50	288	1	96	48	4
NMSTR	50	288	7
NMSCL	50	288	7	96	48	4
NMTAP	51	0	1
NMTAP	51	0	7
NMTAP	51	144	3
NMTAP	51	144	5
BRTAP	51	192	3
BRTAP	51	192	5
NMTAP	52	0	3
NMTAP	52	48	2
NMTAP	52	96	4
NMHLD	52	144	5	96
NMTAP	52	240	3
NMHLD	52	336	2	96
NMTAP	53	48	4
NMHLD	53	144	5	96
NMTAP	53	240	4
NMTAP	53	288	4
NMTAP	54	0	3
NMTAP	54	48	2
NMTAP	54	96	4
NMHLD	54	144	5	96
NMTAP	54	240	3
NMHLD	54	336	2	96
NMSTR	55	48	4
NMSCL	55	48	4	96	96	0
NMHLD	55	96	5	288
NMHLD	56	0	1	384
NMTTP	56	192	4	E	0	M1
NMHLD	57	0	3	384
NMTTP	57	192	3	E	0	M1
NMHLD	58	0	4	384
NMTTP	58	192	5	E	0	M1
NMTAP	59	0	6
NMTAP	59	192	5
NMHLD	60	0	6	384
NMTTP	60	192	4	E	0	M1
NMHLD	61	0	4	384
NMTTP	61	192	5	E	0	M1
NMHLD	62	0	3	384
NMTTP	62	192	3	E	0	M1
NMTAP	63	0	1
NMTAP	63	192	2
NMSTR	64	0	0
NMSXL	64	0	0	96	192	0
NMSTR	65	0	7
NMSXR	65	0	7	96	192	7
NMSTR	66	0	3
NMSCL	66	0	3	96	144	0
NMSTR	67	0	4
NMSCR	67	0	4	96	144	7
NMTAP	68	0	2
NMHLD	68	96	2	288
NMTAP	68	192	3
NMTAP	69	0	5
NMHLD	69	96	5	288
NMTAP	69	192	4
NMTAP	70	0	1
NMTAP	70	96	1
NMTAP	70	192	2
NMTAP	70	192	3
NMTAP	70	288	1
NMTAP	71	0	6
NMTAP	71	96	6
NMTAP	71	192	4
NMTAP	71	192	5
NMTAP	71	288	6
NMTAP	72	0	3
NMTAP	72	48	3
NMTAP	72	96	5
NMTAP	72	144	5
NMTAP	72	192	1
NMTAP	72	240	1
NMHLD	72	288	7	96
NMTAP	73	0	0
NMTTP	73	192	0	D	0	M1
NMTTP	73	200	0	A	0	M1
NMTTP	73	208	1	E	0	M1
NMTTP	73	216	1	B	0	M1
NMTTP	73	216	1	A	0	M1
NMTTP	73	216	2	B	1	M1
NMTTP	73	216	2	E	0	M1
NMTTP	73	216	2	A	0	M1
NMTTP	73	216	2	D	0	M1
NMTTP	73	216	3	E	0	M1
NMTTP	73	216	3	A	0	M1
NMTTP	73	216	3	D	0	M1
NMTTP	73	216	4	A	0	M1
NMTTP	73	216	4	D	0	M1
EXTAP	74	288	0
EXTAP	74	288	7
NMSTR	75	0	1
NMSI_	75	0	1	96	48	5
NMTAP	75	96	4
NMTAP	75	192	4
NMTAP	75	192	6
NMTAP	75	264	6
NMTAP	75	288	4
NMTAP	75	336	3
NMTAP	75	336	5
NMTAP	76	0	3
NMTAP	76	0	5
NMTAP	76	96	2
NMTAP	76	144	1
NMTAP	76	144	3
NMTAP	76	192	1
NMTAP	76	192	3
NMTAP	76	288	3
NMTAP	76	288	5
NMTAP	76	336	4
NMTAP	76	336	6
NMHLD	77	0	4	96
NMHLD	77	0	6	96
NMTAP	77	144	2
NMHLD	77	192	1	96
NMHLD	77	192	3	96
NMTAP	77	336	2
NMTAP	77	336	4
NMTAP	78	0	2
NMTAP	78	0	4
NMTAP	78	96	5
NMTAP	78	144	4
NMTAP	78	144	6
NMTAP	78	192	4
NMTAP	78	192	6
NMTAP	78	288	1
NMTAP	78	288	7
NMSTR	79	0	2
NMSCL	79	0	2	96	48	7
NMTAP	79	96	3
NMTAP	79	192	4
NMTAP	79	192	6
NMTAP	79	264	6
NMTAP	79	288	4
NMTAP	79	336	4
NMSTR	80	0	5
NMSV_	80	0	5	96	48	0
NMTAP	80	96	4
NMTAP	80	192	1
NMTAP	80	192	3
NMTAP	80	264	1
NMTAP	80	288	3
NMTAP	80	336	3
NMSTR	81	0	2
NMSCL	81	0	2	96	48	7
NMSTR	81	96	6
NMSI_	81	96	6	96	48	2
NMSCL	81	96	6	96	48	4
NMTAP	81	288	3
NMTAP	81	336	3
NMTAP	82	0	2
NMTAP	82	0	4
NMTAP	82	48	2
NMTAP	82	48	4
NMSTR	82	96	1
NMSI_	82	96	1	96	48	6
NMSTR	82	96	5
NMSI_	82	96	5	96	48	2
NMTAP	82	288	0
NMTAP	82	288	4
NMHLD	83	0	6	96
NMTAP	83	96	4
NMTAP	83	192	1
NMTAP	83	192	3
NMTAP	83	264	1
NMTAP	83	288	3
NMTAP	83	336	0
NMTAP	83	336	2
NMTAP	84	0	0
NMTAP	84	0	2
NMTAP	84	96	7
NMTAP	84	144	0
NMTAP	84	144	6
NMTAP	84	192	0
NMTAP	84	192	6
NMTAP	84	288	2
NMTAP	84	288	4
NMTAP	84	336	1
NMHLD	85	0	1	96
NMTAP	85	96	4
NMTAP	85	144	5
NMTAP	85	192	4
NMTAP	85	192	6
NMTAP	85	264	6
NMTAP	85	288	4
NMTAP	85	336	5
NMTAP	85	336	7
NMTAP	86	0	5
NMTAP	86	0	7
NMTAP	86	96	0
NMTAP	86	144	1
NMTAP	86	144	7
NMTAP	86	192	1
NMTAP	86	192	7
BRHLD	86	288	5	96
NMSTR	87	0	4
NMSI_	87	0	4	96	48	1
NMSTR	87	96	6
NMSI_	87	96	6	96	48	3
NMSTR	87	192	0
NMSI_	87	192	0	96	48	5
NMSTR	87	288	2
NMSI_	87	288	2	96	48	7
NMSTR	88	0	4
NMSI_	88	0	4	96	48	1
NMSTR	88	96	6
NMSI_	88	96	6	96	48	3
NMSTR	88	192	0
NMSI_	88	192	0	96	48	5
NMSTR	88	288	2
NMSI_	88	288	2	96	48	7
NMTAP	89	0	4
NMTAP	89	96	0
NMTAP	89	192	3
NMTAP	89	192	5
NMSTR	89	288	2
BRSCL	89	288	2	96	48	7
NMSTR	89	288	6
BRSCL	89	288	6	96	48	3
BRTAP	90	0	2
BRTAP	90	0	6
BRTAP	90	192	1
BRTAP	90	192	5
NMSTR	91	0	2
NMSI_	91	0	2	96	48	7
NMSTR	91	0	6
NMSI_	91	0	6	96	48	3
NMTAP	91	96	2
NMTAP	91	96	6
NMSTR	91	192	1
NMSI_	91	192	1	96	48	4
NMSTR	91	192	5
NMSI_	91	192	5	96	48	0
NMTAP	91	288	1
NMTAP	91	288	5
NMSTR	92	0	6
NMSI_	92	0	6	96	48	4
NMSTR	92	0	7
NMSI_	92	0	7	96	48	3
NMSTR	92	96	6
NMSI_	92	96	6	96	48	2
NMSTR	92	96	7
NMSI_	92	96	7	96	48	1
NMSTR	92	192	6
NMSI_	92	192	6	96	48	4
NMSTR	92	192	7
NMSI_	92	192	7	96	48	3
BRTAP	92	288	6
BRTAP	92	288	7
NMSTR	93	0	1
NMSI_	93	0	1	96	48	4
NMSTR	93	0	5
NMSI_	93	0	5	96	48	0
NMTAP	93	96	1
NMTAP	93	96	5
NMSTR	93	192	2
NMSI_	93	192	2	96	48	7
NMSTR	93	192	6
NMSI_	93	192	6	96	48	3
NMTAP	93	288	2
NMTAP	93	288	6
NMSTR	94	0	0
NMSI_	94	0	0	96	48	4
NMSTR	94	0	1
NMSI_	94	0	1	96	48	3
NMSTR	94	96	0
NMSI_	94	96	0	96	48	6
NMSTR	94	96	1
NMSI_	94	96	1	96	48	5
NMSTR	94	192	0
NMSI_	94	192	0	96	48	4
NMSTR	94	192	1
NMSI_	94	192	1	96	48	3
BRTAP	94	288	0
BRTAP	94	288	1
NMSTR	95	0	5
NMSCR	95	0	5	96	96	1
NMSTR	95	96	1
NMSCR	95	96	1	96	96	5
NMSTR	95	192	5
NMSLR	95	192	5	96	96	1
NMSTR	95	288	1
NMSLR	95	288	1	96	96	5
NMSTR	96	0	5
NMSCR	96	0	5	96	96	1
NMTAP	96	96	1
NMTAP	96	192	5
NMTAP	96	288	3
NMTAP	96	288	7
NMTAP	97	0	1
NMTAP	97	0	3
NMTAP	97	96	0
NMTAP	97	96	7
NMTAP	97	192	4
NMTAP	97	192	6
NMTAP	97	264	5
NMSTR	97	288	3
NMSXR	97	288	3	96	96	3
NMTAP	97	336	3
NMSTR	98	0	3
NMSXL	98	0	3	96	96	3
BRTAP	98	192	7
EXSTR	98	288	3
NMSI_	98	288	3	96	48	0
NMSTR	99	0	3
NMSI_	99	0	3	96	48	6
NMSTR	99	96	3
NMSI_	99	96	3	96	48	7
NMSTR	99	192	3
NMSI_	99	192	3	96	48	0
NMSI_	99	192	3	96	48	1
NMSTR	99	288	3
NMSI_	99	288	3	96	48	5
NMSI_	99	288	3	96	48	6
NMSTR	100	0	3
NMSI_	100	0	3	96	48	7
NMTAP	100	96	3
NMTAP	100	192	1
NMTAP	100	192	5
BRSTR	100	288	4
NMSI_	100	288	4	96	48	7
NMSTR	101	0	4
NMSI_	101	0	4	96	48	1
NMSTR	101	96	4
NMSI_	101	96	4	96	48	0
NMSTR	101	192	4
NMSI_	101	192	4	96	48	6
NMSI_	101	192	4	96	48	7
NMSTR	101	288	4
NMSI_	101	288	4	96	48	1
NMSI_	101	288	4	96	48	2
NMSTR	102	0	4
NMSI_	102	0	4	96	48	0
NMSTR	102	96	4
NMSCL	102	96	4	96	48	2
NMSCR	102	96	4	96	48	6
NMSTR	102	192	4
NMSXL	102	192	4	96	144	0
BRTAP	102	288	4
NMHLD	103	96	1	96
NMHLD	103	192	3	96
NMHLD	103	288	4	96
NMSTR	104	0	6
NMSCR	104	0	6	96	96	1
NMTAP	104	96	3
NMSTR	104	192	2
NMSCR	104	192	2	96	96	5
NMTAP	104	288	7
NMSTR	105	0	7
NMSSR	105	0	7	96	96	3
NMSTR	105	96	3
NMSSR	105	96	3	96	96	7
BXTAP	106	0	0
NMTAP	106	192	3
NMTAP	106	192	5
NMSTR	106	288	1
NMSV_	106	288	1	96	48	4
NMSTR	106	288	7
NMSV_	106	288	7	96	48	4
BRTAP	107	0	1
BRTAP	107	0	7
NMTAP	107	144	7
NMTAP	107	192	7
NMTAP	107	288	0
NMTAP	107	288	6
NMTAP	108	0	1
NMTAP	108	32	3
NMTAP	108	64	2
NMTAP	108	96	6
NMTAP	108	128	4
NMTAP	108	160	5
NMTAP	108	192	0
NMHLD	108	288	0	192
NMTAP	109	96	7
NMTAP	109	108	6
NMTAP	109	120	5
NMTAP	109	132	4
NMTAP	109	144	3
NMTAP	109	156	2
NMTAP	109	168	1
NMTAP	109	180	0
NMTAP	109	192	7
NMTAP	109	204	6
NMTAP	109	216	5
NMTAP	109	228	4
NMTAP	109	240	3
NMTAP	109	252	2
NMTAP	109	264	1
NMTAP	109	276	0
NMTAP	109	288	7
NMTAP	109	300	6
NMTAP	109	312	5
NMTAP	109	324	4
NMTAP	109	336	3
NMTAP	109	348	2
NMTAP	109	360	1
NMTAP	109	372	0
NMTAP	110	0	7
NMTAP	110	12	6
NMTAP	110	24	5
NMTAP	110	36	4
NMTAP	110	48	3
NMTAP	110	60	2
NMTAP	110	72	1
NMTAP	110	84	0
NMTAP	110	96	7
NMTAP	110	108	6
NMTAP	110	120	5
NMTAP	110	132	4
NMTAP	110	144	3
NMTAP	110	156	2
NMTAP	110	168	1
NMTAP	110	180	0
NMTAP	110	192	7
NMTAP	110	204	6
NMTAP	110	216	5
NMTAP	110	228	4
NMTAP	110	240	3
NMTAP	110	252	2
NMTAP	110	264	1
NMTAP	110	276	0
NMTAP	110	288	7
NMTAP	110	300	6
NMTAP	110	312	5
NMTAP	110	324	4
NMTAP	110	336	3
NMHLD	111	96	0	96
NMHLD	111	96	2	96
NMHLD	111	240	5	96
NMHLD	111	240	7	96
NMTAP	112	0	1
NMTAP	112	0	7
NMTAP	112	96	5
NMTAP	112	192	1
BRHLD	112	192	6	768
NMSTR	112	288	0
NMSCR	112	288	0	96	48	3
BRSTR	113	0	0
NMSI_	113	0	0	96	48	4
BRSTR	113	96	0
NMSI_	113	96	0	96	48	3
BRSTR	113	192	0
NMSI_	113	192	0	96	48	5
BRSTR	113	288	0
NMSCR	113	288	0	96	48	3
BRSTR	114	0	0
NMSI_	114	0	0	96	48	4
BRSTR	114	96	0
NMSI_	114	96	0	96	48	3
BRTAP	114	192	0
NMTAP	114	288	2
NMTAP	114	288	4
NMTAP	115	0	5
NMTAP	115	48	5
NMTAP	115	96	1
NMTAP	115	144	1
NMTAP	115	192	7
NMTTP	115	240	6	E	0	M1
NMTTP	115	264	5	E	0	M1
NMTTP	115	288	4	E	0	M1
NMTAP	115	336	1
NMTAP	116	0	2
NMTAP	116	48	3
NMTAP	116	96	4
NMTAP	116	144	5
NMTAP	116	192	3
NMTAP	116	192	6
BRTAP	116	288	1
BRTAP	116	288	4
NMTAP	117	0	2
NMTAP	117	32	3
NMTAP	117	64	1
NMTAP	117	96	5
NMTAP	117	128	4
NMTAP	117	160	6
NMTAP	117	192	1
NMTAP	117	224	3
NMTAP	117	256	2
NMTAP	117	288	6
NMTAP	117	320	4
NMTAP	117	352	5
NMTAP	118	0	2
NMTAP	118	32	3
NMTAP	118	64	1
NMTAP	118	96	5
NMTAP	118	128	4
NMTAP	118	160	6
NMTAP	118	192	1
NMTAP	118	224	3
NMTAP	118	256	2
NMTAP	118	288	5
NMHLD	119	0	3	96
NMHLD	119	0	7	144
NMTAP	119	144	4
NMTAP	119	160	3
NMTAP	119	176	2
NMTAP	119	192	1
NMTAP	119	240	1
NMHLD	119	288	1	96
NMTAP	120	0	0
NMTAP	120	16	7
NMTAP	120	32	6
NMHLD	120	48	5	96
NMTAP	120	144	3
NMTAP	120	192	3
NMTAP	120	224	4
NMTAP	120	256	2
NMTAP	120	288	1
NMTAP	120	288	5
NMTAP	121	0	1
NMTAP	121	0	4
NMTAP	121	48	2
NMTAP	121	72	3
NMTAP	121	96	2
NMTAP	121	144	1
NMSTR	121	192	0
NMSI_	121	192	0	96	48	4
NMTAP	121	288	7
NMTAP	122	0	3
NMTAP	122	0	6
NMTAP	122	48	5
NMTAP	122	72	4
NMTAP	122	96	5
NMTAP	122	144	6
NMSTR	122	192	7
NMSI_	122	192	7	96	48	3
NMSTR	122	288	0
NMSLR	122	288	0	96	96	4
BRTAP	123	0	5
NMSTR	123	96	7
NMSLL	123	96	7	96	96	3
BRTAP	123	192	3
NMSTR	123	288	2
NMSLL	123	288	2	96	96	6
BRTAP	124	0	4
NMSTR	124	96	5
NMSLR	124	96	5	96	96	1
BRTAP	124	192	4
NMSTR	124	288	3
BRSF_	124	288	3	96	96	7
NMTAP	125	192	2
NMTAP	125	224	5
NMTAP	125	256	4
NMTAP	125	288	5
NMTAP	125	320	3
NMTAP	125	352	5
NMTAP	126	0	3
NMTAP	126	32	5
NMTAP	126	64	4
NMTAP	126	96	5
NMTAP	126	128	3
NMTAP	126	160	5
NMTAP	126	192	3
NMTAP	126	224	6
NMTAP	126	256	4
NMSTR	126	288	7
NMSI_	126	288	7	96	48	2
NMSI_	126	288	7	96	48	3
BRTAP	127	0	7
NMSTR	127	96	1
NMSI_	127	96	1	96	48	4
NMSI_	127	96	1	96	48	5
BRTAP	127	192	1
NMSTR	127	288	6
NMSI_	127	288	6	96	48	2
NMSI_	127	288	6	96	48	3
BRTAP	128	0	6
NMSTR	128	96	0
NMSI_	128	96	0	96	48	4
NMSI_	128	96	0	96	48	5
BRTAP	128	192	0
NMSTR	128	288	3
BRSI_	128	288	3	96	48	0
BRSI_	128	288	3	96	48	7
BRTAP	129	0	3
NMSTR	129	96	5
BRSI_	129	96	5	96	48	0
BRSI_	129	96	5	96	48	1
BRTAP	129	192	5
NMSTR	129	288	2
BRSI_	129	288	2	96	48	5
BRSI_	129	288	2	96	48	6
BRTAP	130	0	2
NMSTR	130	96	0
BRSI_	130	96	0	96	48	4
NMSTR	130	96	7
BRSI_	130	96	7	96	48	3
BRTAP	130	192	0
BRTAP	130	192	7
BRTAP	130	288	2
BRTAP	130	288	5

T_REC_TAP	472
T_REC_BRK	36
T_REC_XTP	2
T_REC_BXX	1
T_REC_HLD	48
T_REC_XHO	0
T_REC_BHO	2
T_REC_BXH	0
T_REC_STR	154
T_REC_BST	9
T_REC_XST	1
T_REC_XBS	0
T_REC_TTP	23
T_REC_THO	0
T_REC_SLD	176
T_REC_BSL	11
T_REC_ALL	935
T_NUM_TAP	652
T_NUM_BRK	59
T_NUM_HLD	48
T_NUM_SLD	176
T_NUM_ALL	935
T_JUDGE_TAP	698
T_JUDGE_HLD	167
T_JUDGE_SLD	187
T_JUDGE_ALL	1052
TTM_EACHPAIRS	122
TTM_SCR_TAP	326000
TTM_SCR_BRK	153400
TTM_SCR_HLD	48000
TTM_SCR_SLD	264000
TTM_SCR_ALL	791400
TTM_SCR_S	761950
TTM_SCR_SS	785500
TTM_RAT_ACV	10075

