VERSION	0.00.00	1.04.00
FES_MODE	0
BPM_DEF	200.000	200.000	200.000	200.000
MET_DEF	4	4
RESOLUTION	384
CLK_DEF	384
COMPATIBLE_CODE	MA2

BPM	0	0	200.000
MET	0	0	4	4

NMHLD	2	0	1	1152
NMTAP	2	0	3
NMTAP	2	240	3
NMTAP	2	288	3
NMTAP	3	0	2
NMTAP	3	288	2
NMTAP	4	0	3
NMTAP	4	288	3
NMSTR	5	0	3
NMSI_	5	0	3	96	96	5
NMSTR	5	192	1
NMSI_	5	192	1	96	96	3
NMHLD	6	0	6	1152
NMTAP	6	240	4
NMTAP	6	288	4
NMTAP	7	0	5
NMTAP	7	288	5
NMTAP	8	0	4
NMTAP	8	288	4
NMSTR	9	0	4
NMSI_	9	0	4	96	96	2
NMSTR	9	192	6
NMSI_	9	192	6	96	96	4
NMTAP	10	0	2
NMTAP	10	96	2
NMTAP	10	192	2
NMTAP	10	192	3
NMTAP	10	288	2
NMTAP	11	0	2
NMSTR	11	0	3
NMSCR	11	0	3	96	96	6
NMTAP	11	96	2
NMTAP	11	192	2
NMTAP	11	288	3
NMTAP	11	288	5
NMTAP	12	0	6
NMTAP	12	96	6
NMTAP	12	192	4
NMTAP	12	192	6
NMTAP	12	288	6
NMSTR	13	0	5
NMSI_	13	0	5	96	96	2
NMTAP	13	0	6
NMTAP	13	96	6
NMTAP	13	192	6
NMTAP	13	288	1
NMTAP	13	288	5
NMTAP	14	0	2
NMTAP	14	0	4
NMTAP	14	96	1
NMTAP	14	192	1
NMTAP	14	192	3
NMTAP	14	288	2
NMTAP	15	0	3
NMTAP	15	0	4
NMTAP	15	96	5
NMTAP	15	192	4
NMTAP	15	192	6
NMTAP	15	288	3
NMTAP	15	288	5
NMSTR	16	0	2
NMSCL	16	0	2	96	96	7
NMTAP	16	0	4
NMTAP	16	96	4
NMSTR	16	192	5
NMSCL	16	192	5	96	96	2
NMTAP	16	288	0
NMTAP	17	0	0
NMTAP	17	96	2
NMTAP	17	96	3
BRTAP	17	192	0
BRTAP	17	192	6
NMTAP	18	0	0
NMTAP	18	0	7
NMTAP	18	96	0
NMTAP	18	96	7
NMHLD	18	192	1	72
NMHLD	18	264	3	72
NMSTR	18	336	2
NMSI_	18	336	2	96	96	4
NMTAP	19	48	5
NMTAP	19	96	5
NMHLD	19	192	6	72
NMHLD	19	264	5	72
NMTAP	19	336	4
NMTAP	20	0	4
NMTAP	20	96	2
NMTAP	20	96	3
NMHLD	20	192	1	72
NMHLD	20	264	2	72
NMSTR	20	336	3
NMSI_	20	336	3	96	96	5
NMTAP	21	48	6
NMTAP	21	96	6
NMHLD	21	192	7	72
NMHLD	21	264	6	72
NMTAP	21	336	5
NMSTR	22	0	5
NMSXR	22	0	5	96	288	2
NMTAP	22	96	3
NMTAP	22	192	2
NMTAP	22	288	1
NMSTR	23	0	1
NMSXR	23	0	1	96	288	6
NMTAP	23	96	3
NMTAP	23	192	3
NMTAP	23	288	4
NMTAP	24	0	4
NMHLD	24	96	5	240
NMSTR	24	96	7
NMSUR	24	96	7	96	144	0
NMTAP	25	48	6
NMTAP	25	96	6
NMTAP	25	192	0
NMTAP	25	192	6
NMTAP	25	288	1
NMTAP	25	288	7
BRTAP	26	0	0
BRTAP	26	0	7
NMTAP	26	96	0
NMTAP	26	96	7
NMHLD	26	192	1	72
NMHLD	26	264	2	72
NMSTR	26	336	3
NMSV_	26	336	3	96	96	4
NMTAP	27	48	5
NMTAP	27	96	5
NMHLD	27	192	6	72
NMHLD	27	264	5	72
NMTAP	27	336	4
NMTAP	28	0	4
NMTAP	28	96	1
NMTAP	28	96	3
NMHLD	28	192	2	72
NMHLD	28	264	1	72
NMSTR	28	336	0
NMSV_	28	336	0	96	96	7
NMTAP	29	48	6
NMTAP	29	96	6
NMHLD	29	192	5	72
NMHLD	29	264	6	72
NMTAP	29	336	7
NMTAP	30	0	7
NMTAP	30	96	1
NMTAP	30	144	1
NMTAP	30	192	2
NMTAP	30	192	3
NMTAP	30	288	3
NMTAP	30	288	4
NMTAP	31	0	4
NMSTR	31	0	5
NMSI_	31	0	5	96	96	1
CNSI_	31	192	1	0	48	7
CNSI_	31	240	7	0	48	4
NMTAP	32	0	1
NMTAP	32	0	3
NMTAP	32	96	4
NMTAP	32	96	6
NMTAP	32	192	0
NMTAP	32	192	1
NMTAP	32	288	6
NMTAP	32	288	7
BRTAP	33	0	1
BRTAP	33	0	5
NMSTR	33	288	0
NMSCR	33	288	0	96	48	3
NMTAP	33	288	7
NMSTR	34	0	0
NMSCL	34	0	0	96	48	5
NMSTR	34	96	0
NMSI_	34	96	0	96	48	4
NMTAP	34	192	0
NMTAP	34	288	2
NMTAP	34	288	6
NMSTR	35	0	1
NMSI_	35	0	1	96	48	6
NMSTR	35	0	5
NMSI_	35	0	5	96	48	2
NMTAP	35	96	1
NMTAP	35	96	5
NMTAP	35	192	0
NMTAP	35	192	4
NMSTR	35	288	7
NMSCL	35	288	7	96	48	4
NMTAP	35	336	1
NMSTR	36	0	7
NMSCR	36	0	7	96	48	2
NMSTR	36	96	7
NMSI_	36	96	7	96	48	3
NMTAP	36	192	7
NMTAP	36	288	1
NMTAP	36	288	5
NMSTR	37	0	2
NMSI_	37	0	2	96	48	5
NMSTR	37	0	6
NMSI_	37	0	6	96	48	1
NMTAP	37	96	2
NMTAP	37	96	6
NMTAP	37	192	3
NMTAP	37	192	7
NMTAP	37	288	2
NMTAP	37	336	2
NMTAP	38	0	1
EXSTR	38	0	3
NMSCR	38	0	3	96	72	7
NMTAP	38	96	2
NMSTR	38	192	4
NMSCL	38	192	4	96	72	0
NMTAP	38	288	6
NMSTR	39	0	3
NMSCR	39	0	3	96	72	7
NMTAP	39	96	1
NMHLD	39	192	4	96
NMTAP	39	288	6
BRSTR	40	0	3
NMSI_	40	0	3	96	48	7
BRSTR	40	0	5
NMSI_	40	0	5	96	48	7
NMTAP	40	192	0
NMTAP	40	264	1
NMTAP	40	264	3
NMSTR	40	336	4
NMSXL	40	336	4	96	144	4
NMSXR	40	336	4	96	144	4
NMTAP	40	336	5
NMTAP	41	0	4
NMTAP	41	0	5
NMSTR	41	288	2
NMSI_	41	288	2	96	48	7
NMSTR	41	288	6
NMSI_	41	288	6	96	48	3
NMTAP	42	0	2
NMTAP	42	0	6
NMSTR	42	96	1
NMSI_	42	96	1	96	48	4
NMSTR	42	96	5
NMSI_	42	96	5	96	48	0
NMTAP	42	192	1
NMTAP	42	192	5
NMTAP	42	288	3
NMSTR	42	288	7
NMSCL	42	288	7	96	48	4
NMSTR	43	0	0
NMSCR	43	0	0	96	48	3
NMTAP	43	0	7
NMTAP	43	96	0
NMTAP	43	96	7
NMTAP	43	192	2
NMTAP	43	192	6
NMSTR	43	288	0
NMSI_	43	288	0	96	48	4
NMSTR	43	288	1
NMSI_	43	288	1	96	48	4
NMTAP	44	0	0
NMTAP	44	0	1
NMSTR	44	96	6
NMSI_	44	96	6	96	48	3
NMSTR	44	96	7
NMSI_	44	96	7	96	48	3
NMTAP	44	192	6
NMTAP	44	192	7
NMTAP	44	288	0
NMSTR	44	288	1
NMSI_	44	288	1	96	48	6
NMTAP	45	0	1
NMSTR	45	0	5
NMSI_	45	0	5	96	48	2
NMTAP	45	96	1
NMTAP	45	96	5
NMTAP	45	192	0
BRTAP	45	288	1
BRTAP	45	288	5
NMHLD	46	0	2	144
NMTAP	46	144	3
NMHLD	46	192	3	144
NMSTR	46	336	4
NMSUL	46	336	4	96	144	3
NMTAP	47	48	5
NMTAP	47	144	6
NMTAP	47	192	6
NMTAP	47	288	5
NMHLD	48	0	4	96
NMTAP	48	0	6
NMTAP	48	96	5
NMTAP	48	192	4
NMTAP	48	192	5
NMTAP	48	264	3
NMTAP	48	264	4
NMTAP	48	336	2
NMTAP	48	336	3
NMTTP	49	0	0	C	1	M1
NMTTP	49	0	2	B	0	M1
NMTTP	49	0	2	E	0	M1
NMTTP	49	0	6	B	0	M1
NMTTP	49	0	6	E	0	M1
NMTAP	49	192	1
NMTAP	49	192	7
NMSTR	49	288	0
NMSV_	49	288	0	96	48	3
NMSTR	49	288	6
NMSI_	49	288	6	96	48	3
BXTAP	50	0	0
BXTAP	50	0	6
NMTAP	50	144	0
NMTAP	50	144	6
NMTAP	50	192	0
NMTAP	50	192	6
NMSTR	50	288	1
NMSI_	50	288	1	96	48	4
NMSTR	50	288	7
NMSV_	50	288	7	96	48	4
BXTAP	51	0	1
BXTAP	51	0	7
NMTAP	51	144	1
NMTAP	51	144	3
NMTAP	51	192	1
NMTAP	51	192	3
NMSTR	51	288	0
NMSXL	51	288	0	96	576	3
NMSTR	51	288	4
NMSXL	51	288	4	96	576	7
NMTAP	55	96	5
NMTAP	55	192	4
NMTAP	55	288	3
NMSTR	56	0	2
NMSUR	56	0	2	96	480	4
NMTAP	56	192	4
NMTAP	57	0	5
NMTAP	57	192	6
NMSTR	58	0	6
NMSV_	58	0	6	96	216	5
NMTAP	58	192	3
CNSI_	58	312	5	0	264	3
NMTAP	59	0	1
NMTAP	59	192	2
NMSTR	60	0	2
NMSXR	60	0	2	96	480	4
NMTAP	60	0	3
NMTAP	60	192	3
NMTAP	61	0	3
NMTAP	61	192	3
NMTAP	62	0	4
NMSTR	62	0	5
NMSXL	62	0	5	96	480	3
NMTAP	62	192	4
NMTAP	63	0	4
NMTAP	63	192	4
NMSTR	64	0	3
NMSCL	64	0	3	96	288	0
NMTTP	65	0	1	B	0	M1
NMTTP	65	0	2	B	0	M1
NMTAP	65	192	7
NMSTR	66	0	6
NMSCL	66	0	6	96	288	3
NMTTP	67	0	4	B	0	M1
NMTTP	67	0	5	B	0	M1
NMTAP	67	192	2
NMTAP	67	288	3
NMTAP	68	0	1
NMTAP	68	0	4
NMTAP	68	96	2
NMTAP	68	144	2
NMTAP	68	192	3
NMTAP	68	288	2
NMTAP	68	288	4
NMTAP	69	0	3
NMTAP	69	0	5
NMTAP	69	96	4
NMTAP	69	144	4
NMTAP	69	192	3
NMTAP	69	288	2
NMTAP	69	288	4
NMTAP	70	0	1
NMTAP	70	0	3
NMTAP	70	96	2
NMTAP	70	144	2
NMTAP	70	192	3
NMTAP	70	288	3
NMTAP	70	288	4
NMTAP	71	0	4
NMTAP	71	0	5
NMTAP	71	96	6
NMTAP	71	144	6
NMTAP	71	192	4
NMTAP	71	288	4
NMTAP	71	288	5
NMTAP	72	0	6
NMTAP	72	0	7
NMTAP	72	96	6
NMTAP	72	96	7
NMTAP	72	192	0
NMTAP	72	192	1
NMSTR	72	288	0
BRSV_	72	288	0	96	192	3
BRSV_	72	288	0	96	192	5
NMTAP	72	288	1
EXTAP	74	288	2
EXTAP	74	288	4
NMTAP	75	0	0
NMTAP	75	0	7
NMTAP	75	96	0
NMTAP	75	96	7
NMHLD	75	192	6	72
NMHLD	75	264	4	72
NMSTR	75	336	5
NMSI_	75	336	5	96	48	3
NMTAP	76	48	2
NMTAP	76	96	2
NMHLD	76	192	1	72
NMHLD	76	264	2	72
NMTAP	76	336	3
NMTAP	77	0	3
NMTAP	77	96	3
NMTAP	77	96	4
NMHLD	77	192	5	72
NMHLD	77	264	4	72
NMSTR	77	336	6
NMSUL	77	336	6	96	96	2
NMTAP	78	48	1
NMTAP	78	96	1
NMHLD	78	192	0	72
NMHLD	78	264	1	72
NMTAP	78	336	2
NMSTR	79	0	2
NMSCR	79	0	2	96	96	4
NMSTR	79	96	4
NMSCR	79	96	4	96	96	6
NMSTR	79	192	6
NMSCR	79	192	6	96	96	0
NMSTR	79	288	0
NMSCR	79	288	0	96	96	2
NMSTR	80	0	2
NMSCR	80	0	2	96	96	5
NMSTR	80	96	5
NMSCR	80	96	5	96	96	0
NMSTR	80	192	0
NMSCR	80	192	0	96	96	3
NMSTR	80	288	3
NMSXL	80	288	3	96	192	2
NMHLD	81	0	7	480
NMTAP	81	288	1
NMTAP	81	336	1
NMTAP	82	48	5
NMTAP	82	96	5
NMTAP	82	192	4
NMTAP	82	192	6
NMTAP	82	288	3
NMTAP	82	288	4
NMTAP	83	0	1
NMTAP	83	0	3
NMTAP	83	96	1
NMTAP	83	96	3
NMHLD	83	192	2	72
NMHLD	83	264	3	72
NMSTR	83	336	1
NMSI_	83	336	1	96	48	4
NMTAP	84	48	5
NMTAP	84	96	5
NMHLD	84	192	6	72
NMHLD	84	264	5	72
NMTAP	84	336	4
NMTAP	85	0	4
NMTAP	85	96	3
NMTAP	85	96	4
NMHLD	85	192	2	72
NMHLD	85	264	1	72
NMTAP	85	336	0
NMSTR	86	0	0
NMSXL	86	0	0	96	192	0
NMTAP	86	96	7
NMTAP	86	192	6
NMTAP	86	288	5
NMTAP	87	0	6
NMTAP	87	0	7
NMTAP	87	96	0
NMTAP	87	144	0
NMTAP	87	192	1
NMTAP	87	192	7
NMTAP	87	288	0
NMTAP	87	288	6
NMTAP	88	0	1
NMSTR	88	0	7
NMSI_	88	0	7	96	72	1
NMTAP	88	96	2
CNSI_	88	168	1	0	72	5
NMTAP	88	192	3
CNSI_	88	240	5	0	48	3
NMTAP	88	288	2
NMTAP	89	0	0
NMTAP	89	0	1
NMTAP	89	96	4
NMTAP	89	96	5
NMTAP	89	192	6
NMTAP	89	192	7
NMTAP	89	288	2
NMTAP	89	288	3
NMTTP	90	0	0	C	1	M1
NMTTP	90	0	1	B	0	M1
NMTTP	90	0	5	B	0	M1
NMTAP	90	288	0
NMSTR	90	288	6
NMSI_	90	288	6	96	48	3
BRSTR	91	0	2
NMSI_	91	0	2	96	48	7
BRTAP	91	0	6
NMTAP	91	96	2
NMSTR	91	96	5
NMSI_	91	96	5	96	48	0
NMSTR	91	192	1
NMSI_	91	192	1	96	48	4
NMTAP	91	192	5
NMTAP	91	288	1
NMTAP	91	288	6
NMSTR	92	0	3
NMSI_	92	0	3	96	48	0
NMSTR	92	0	7
NMSI_	92	0	7	96	48	4
NMTAP	92	96	3
NMTAP	92	96	7
NMTAP	92	192	1
NMTAP	92	192	5
NMSTR	92	288	0
NMSI_	92	288	0	96	48	4
NMTAP	92	288	6
BXTAP	93	0	0
BXSTR	93	0	5
NMSI_	93	0	5	96	48	0
NMSTR	93	96	1
NMSI_	93	96	1	96	48	5
NMTAP	93	96	5
NMTAP	93	192	1
NMSTR	93	192	6
NMSI_	93	192	6	96	48	3
NMTAP	93	288	2
NMTAP	93	288	6
NMSTR	94	0	1
NMSI_	94	0	1	96	48	6
NMSTR	94	0	5
NMSI_	94	0	5	96	48	2
NMTAP	94	96	1
NMTAP	94	96	5
BXTAP	94	192	0
BXTAP	94	192	4
NMTAP	94	288	2
NMTAP	94	288	6
NMSTR	95	0	7
NMSLL	95	0	7	96	96	3
NMSTR	95	96	3
NMSCR	95	96	3	96	96	7
NMTAP	95	192	7
NMTAP	95	288	1
NMSTR	96	0	3
NMSCL	96	0	3	96	96	7
NMSTR	96	96	7
NMSLR	96	96	7	96	96	3
NMTAP	96	192	3
NMTAP	96	288	5
BRSTR	97	0	2
NMSCR	97	0	2	96	48	5
BRSTR	97	0	6
NMSCR	97	0	6	96	48	1
NMTAP	97	192	3
NMTAP	97	192	7
NMTAP	97	264	4
NMTAP	97	264	6
NMTAP	97	336	2
NMSTR	97	336	3
NMSXL	97	336	3	96	144	3
NMSXR	97	336	3	96	144	3
NMTAP	98	0	2
NMTAP	98	0	3
NMSTR	98	288	0
NMSCR	98	288	0	96	96	4
BRSTR	99	0	4
NMSCR	99	0	4	96	96	0
NMSTR	99	96	0
NMSLR	99	96	0	96	96	4
NMTAP	99	192	4
NMTAP	99	288	7
NMSTR	100	0	0
BRSI_	100	0	0	96	48	4
NMSTR	100	0	6
BRSI_	100	0	6	96	48	2
NMTAP	100	96	0
NMTAP	100	96	6
NMTAP	100	192	1
NMTAP	100	192	5
NMSTR	100	288	3
NMSCL	100	288	3	96	96	7
NMSTR	101	0	7
NMSCL	101	0	7	96	96	3
NMSTR	101	96	3
NMSLL	101	96	3	96	96	7
NMTAP	101	192	7
NMTAP	101	288	3
NMSTR	102	0	4
NMSCL	102	0	4	96	48	1
NMSCR	102	0	4	96	48	7
NMSTR	102	96	4
NMSF_	102	96	4	96	48	0
BRTAP	102	288	2
BRTAP	102	288	6
NMHLD	103	0	5	144
NMTAP	103	144	4
NMHLD	103	192	4	144
NMSTR	103	336	3
NMSUR	103	336	3	96	144	4
NMTAP	104	48	2
NMTAP	104	144	1
NMTAP	104	192	1
NMTAP	104	288	2
NMTAP	105	0	1
NMHLD	105	0	3	96
NMTAP	105	96	2
NMTAP	105	192	2
NMTAP	105	192	3
NMTAP	105	264	3
NMTAP	105	264	4
NMTAP	105	336	4
NMTAP	105	336	5
NMTTP	106	0	0	C	1	M1
NMTTP	106	0	2	B	0	M1
NMTTP	106	0	2	A	0	M1
NMTTP	106	0	6	B	0	M1
NMTTP	106	0	6	A	0	M1
NMTAP	106	192	0
NMTAP	106	192	7
NMSTR	106	288	0
NMSI_	106	288	0	96	48	5
NMSTR	106	288	1
NMSI_	106	288	1	96	48	4
NMTAP	107	0	0
NMTAP	107	0	1
NMTAP	107	144	6
NMTAP	107	144	7
NMTAP	107	192	6
NMTAP	107	192	7
NMSTR	107	288	0
NMSI_	107	288	0	96	48	3
NMSTR	107	288	4
NMSI_	107	288	4	96	48	7
NMTAP	108	0	0
NMTAP	108	0	4
NMTAP	108	144	2
NMTAP	108	144	6
NMTAP	108	192	1
NMTAP	108	192	5
NMHLD	108	288	3	168
NMHLD	108	288	7	168
NMTTP	109	96	0	D	1	M1
NMTTP	109	96	4	D	0	M1
NMTTP	109	104	0	A	0	M1
NMTTP	109	104	4	A	0	M1
NMTTP	109	112	1	D	0	M1
NMTTP	109	112	5	D	0	M1
NMTTP	109	120	1	A	0	M1
NMTTP	109	120	5	A	0	M1
NMTTP	109	128	2	D	0	M1
NMTTP	109	128	6	D	0	M1
NMTTP	109	136	2	A	0	M1
NMTTP	109	136	6	A	0	M1
NMTAP	109	240	4
NMTAP	109	240	6
NMTAP	110	0	2
NMTAP	110	0	3
NMTAP	110	96	1
NMTAP	110	120	1
NMTAP	110	144	0
NMTAP	110	192	2
NMTAP	110	240	7
NMHLD	110	288	3	192
NMTTP	111	96	6	B	1	M1
NMTTP	111	96	6	E	0	M1
BXTAP	111	240	1
NMTTP	111	240	4	B	0	M1
NMTTP	111	240	4	E	0	M1
NMTTP	112	0	0	C	1	M1
NMTAP	112	0	6
NMTAP	112	192	0
NMTAP	112	192	7
NMSTR	112	288	1
NMSI_	112	288	1	96	48	4
NMTAP	112	336	1
NMSTR	113	0	0
NMSI_	113	0	0	96	48	5
NMSTR	113	96	2
NMSI_	113	96	2	96	48	7
NMSTR	113	192	3
NMSI_	113	192	3	96	48	6
NMSTR	113	288	1
NMSI_	113	288	1	96	48	5
NMTAP	114	0	0
NMTAP	114	96	7
NMTAP	114	144	7
NMTAP	114	192	4
NMTAP	114	192	6
NMTAP	114	288	1
NMTAP	114	288	5
NMSTR	115	0	2
NMSI_	115	0	2	96	48	7
NMSTR	115	0	3
NMSI_	115	0	3	96	48	6
NMTAP	115	96	2
NMTAP	115	96	3
NMTAP	115	192	0
NMTAP	115	192	5
NMTAP	115	264	1
NMTAP	115	264	6
NMTAP	115	336	2
NMTAP	115	336	7
NMSTR	116	0	1
NMSI_	116	0	1	96	48	3
NMTAP	116	48	0
NMSTR	116	96	1
NMSLL	116	96	1	96	96	5
NMTAP	116	144	7
BRTAP	116	192	1
EXTAP	117	0	1
EXTAP	117	32	2
EXTAP	117	64	3
EXTAP	117	96	7
EXTAP	117	128	6
EXTAP	117	160	5
EXTAP	117	192	1
EXTAP	117	224	2
EXTAP	117	256	3
EXTAP	117	288	7
EXTAP	117	320	6
EXTAP	117	352	5
EXTAP	118	0	0
EXTAP	118	32	1
EXTAP	118	64	2
EXTAP	118	96	6
EXTAP	118	128	5
EXTAP	118	160	4
EXTAP	118	192	0
EXTAP	118	224	1
EXTAP	118	256	2
EXTAP	118	288	6
EXTAP	118	320	5
EXTAP	118	352	4
EXTAP	119	0	2
EXTAP	119	0	3
NMTAP	119	96	1
NMTAP	119	144	1
NMTAP	119	192	3
NMTAP	119	240	2
NMTAP	119	288	5
NMTAP	119	336	5
NMTAP	120	0	4
NMTAP	120	48	6
NMSTR	120	96	0
NMSCR	120	96	0	96	96	7
NMTAP	120	144	7
NMTAP	120	192	0
NMTAP	121	0	5
NMTAP	121	48	4
NMTAP	121	96	3
NMTAP	121	96	6
NMTAP	121	144	5
NMSTR	121	192	4
NMSI_	121	192	4	96	48	0
NMTAP	121	288	4
NMTAP	121	288	6
NMTAP	122	0	2
NMTAP	122	48	3
NMTAP	122	96	1
NMTAP	122	96	4
NMTAP	122	144	2
NMSTR	122	192	3
NMSI_	122	192	3	96	48	7
NMSTR	122	288	1
NMSXL	122	288	1	96	288	5
NMTAP	122	288	3
NMTAP	123	0	0
NMTAP	123	144	6
NMTAP	123	192	6
NMSTR	123	288	7
NMSUL	123	288	7	96	96	3
NMTAP	124	0	0
NMSTR	124	96	1
NMSUL	124	96	1	96	96	5
NMTAP	124	192	2
NMSTR	124	288	3
NMSUL	124	288	3	96	96	7
NMTAP	125	0	4
NMTAP	125	192	6
NMTAP	125	224	4
NMTAP	125	256	5
NMTAP	125	288	4
NMTAP	126	0	1
NMTAP	126	32	3
NMTAP	126	64	2
NMTAP	126	96	3
NMTAP	126	192	7
NMTAP	126	224	0
NMTAP	126	256	7
NMTAP	126	288	1
NMSTR	126	288	6
NMSI_	126	288	6	96	48	3
BXTAP	127	0	0
BXTAP	127	0	6
NMTAP	127	96	0
NMSTR	127	96	1
NMSI_	127	96	1	96	48	4
BXTAP	127	192	1
BXTAP	127	192	7
NMSTR	127	288	6
NMSI_	127	288	6	96	48	3
NMSTR	127	288	7
NMSI_	127	288	7	96	48	3
BRTAP	128	0	6
BRTAP	128	0	7
NMSTR	128	96	0
NMSI_	128	96	0	96	48	4
NMSTR	128	96	1
NMSI_	128	96	1	96	48	4
BRTAP	128	192	0
BRTAP	128	192	1
NMTAP	128	288	3
NMSTR	128	288	5
NMSI_	128	288	5	96	48	0
BXTAP	129	0	4
BXTAP	129	0	5
NMSTR	129	96	2
NMSI_	129	96	2	96	48	7
NMTAP	129	96	4
BXTAP	129	192	2
BXTAP	129	192	3
NMSTR	129	288	1
NMSI_	129	288	1	96	48	6
NMSTR	129	288	5
NMSI_	129	288	5	96	48	2
BRTAP	130	0	1
BRTAP	130	0	5
NMSTR	130	96	3
NMSI_	130	96	3	96	48	7
NMSTR	130	96	4
NMSI_	130	96	4	96	48	0
BRTAP	130	192	3
BRTAP	130	192	4
NMTTP	130	216	0	C	1	M1
NMTAP	130	288	1
NMTAP	130	288	6

T_REC_TAP	426
T_REC_BRK	20
T_REC_XTP	28
T_REC_BXX	16
T_REC_HLD	44
T_REC_XHO	0
T_REC_BHO	0
T_REC_BXH	0
T_REC_STR	125
T_REC_BST	6
T_REC_XST	1
T_REC_XBS	1
T_REC_TTP	35
T_REC_THO	0
T_REC_SLD	133
T_REC_BSL	4
T_REC_ALL	839
T_NUM_TAP	615
T_NUM_BRK	47
T_NUM_HLD	44
T_NUM_SLD	133
T_NUM_ALL	839
T_JUDGE_TAP	658
T_JUDGE_HLD	153
T_JUDGE_SLD	137
T_JUDGE_ALL	948
TTM_EACHPAIRS	179
TTM_SCR_TAP	307500
TTM_SCR_BRK	122200
TTM_SCR_HLD	44000
TTM_SCR_SLD	199500
TTM_SCR_ALL	673200
TTM_SCR_S	648450
TTM_SCR_SS	668500
TTM_RAT_ACV	10070

