VERSION	0.00.00	1.04.00
FES_MODE	0
BPM_DEF	200.000	200.000	200.000	200.000
MET_DEF	4	4
RESOLUTION	384
CLK_DEF	384
COMPATIBLE_CODE	MA2

BPM	0	0	200.000
MET	0	0	4	4

NMHLD	2	0	2	384
NMHLD	3	0	3	384
NMHLD	4	0	4	384
NMTAP	5	0	5
NMTAP	5	192	4
NMTAP	5	192	5
NMHLD	6	0	5	384
NMHLD	7	0	4	384
NMHLD	8	0	3	384
NMTAP	9	0	2
EXTAP	9	192	2
EXTAP	9	192	3
NMTAP	10	0	1
NMTAP	10	96	1
NMHLD	10	192	1	192
NMTAP	11	0	3
NMTAP	11	96	3
NMHLD	11	192	3	192
NMTAP	12	0	4
NMTAP	12	96	4
NMHLD	12	192	4	192
NMTAP	13	0	5
NMSTR	13	96	5
NMSI_	13	96	5	96	96	3
NMTAP	14	0	2
NMTAP	14	96	2
NMHLD	14	192	1	192
NMTAP	15	0	0
NMTAP	15	96	0
NMHLD	15	192	7	192
NMTAP	16	0	0
NMTAP	16	96	0
NMTAP	16	192	6
NMTAP	16	288	6
NMTAP	17	0	7
NMTAP	17	96	0
NMTAP	17	96	6
EXTAP	17	192	1
EXTAP	17	192	5
NMSTR	18	0	2
NMSCR	18	0	2	96	96	5
NMTAP	18	192	6
NMTAP	18	288	6
NMSTR	19	0	7
NMSI_	19	0	7	96	96	3
NMTAP	19	192	2
NMTAP	19	288	2
NMSTR	20	0	1
NMSI_	20	0	1	96	96	4
NMTAP	20	192	5
NMTAP	20	288	5
NMSTR	21	0	6
NMSCR	21	0	6	96	96	1
NMTAP	21	192	2
NMTAP	21	288	2
NMTAP	22	0	2
NMTAP	22	0	3
NMTAP	22	96	2
NMTAP	22	96	3
NMTAP	22	192	1
NMTAP	22	240	1
NMTAP	22	288	0
NMTAP	23	0	6
NMTAP	23	0	7
NMTAP	23	96	6
NMTAP	23	96	7
NMTAP	23	192	5
NMTAP	23	240	5
NMTAP	23	288	4
NMSTR	24	0	3
NMSCL	24	0	3	96	96	0
NMTAP	24	192	7
NMTAP	24	288	7
NMSTR	25	0	6
NMSCL	25	0	6	96	96	3
NMTAP	25	192	2
NMTAP	25	288	2
BXHLD	26	0	1	480
NMTAP	26	192	2
NMTAP	26	288	2
NMHLD	27	0	3	96
NMTAP	27	192	2
NMTAP	27	192	3
NMTAP	27	288	3
NMTAP	27	288	4
NMHLD	28	0	5	480
NMTAP	28	192	4
NMTAP	28	288	4
NMHLD	29	0	4	96
NMHLD	29	192	3	96
NMHLD	29	192	4	96
NMSTR	30	0	2
NMSI_	30	0	2	96	96	5
NMSTR	30	192	6
NMSI_	30	192	6	96	96	2
NMSTR	31	0	1
NMSI_	31	0	1	96	96	5
NMSTR	31	192	7
NMSI_	31	192	7	96	96	3
NMTAP	32	0	2
NMTAP	32	96	2
NMTAP	32	192	2
NMTAP	32	192	4
NMTAP	32	288	3
NMTAP	32	288	5
NMHLD	33	0	2	192
NMHLD	33	0	6	192
BRTAP	34	0	0
BRTAP	34	0	1
NMTAP	34	96	0
NMTAP	34	96	1
NMTAP	34	192	2
NMTAP	34	192	3
NMTAP	34	288	4
NMTAP	34	288	5
NMTAP	35	0	6
NMTAP	35	0	7
NMTAP	35	96	0
NMTAP	35	96	1
NMTAP	35	192	2
NMTAP	35	192	7
NMTAP	35	288	2
NMTAP	35	288	7
EXTAP	36	0	6
EXTAP	36	0	7
NMTAP	36	96	6
NMTAP	36	96	7
NMTAP	36	192	4
NMTAP	36	192	5
NMTAP	36	288	2
NMTAP	36	288	3
NMTAP	37	0	0
NMTAP	37	0	1
NMTAP	37	96	6
NMTAP	37	96	7
BRTAP	37	192	0
BRTAP	37	192	5
NMTAP	37	288	0
NMTAP	37	288	5
NMHLD	38	0	1	96
NMTAP	38	96	3
NMHLD	38	192	6	96
NMTAP	38	288	4
NMHLD	39	0	2	96
NMTAP	39	96	3
NMTAP	39	192	3
NMTAP	39	192	4
NMSTR	39	288	4
NMSXL	39	288	4	96	240	4
NMSXR	39	288	4	96	240	4
NMTAP	39	288	5
EXTAP	41	0	3
EXTAP	41	0	5
EXTAP	41	96	3
EXTAP	41	96	5
BRTAP	41	192	2
BRTAP	41	192	6
NMTAP	42	0	6
NMTAP	42	0	7
NMTAP	42	96	6
NMTAP	42	96	7
NMTAP	42	192	4
NMTAP	42	192	5
NMTAP	42	288	2
NMTAP	42	288	3
NMTAP	43	0	0
NMTAP	43	0	1
NMTAP	43	96	6
NMTAP	43	96	7
NMTAP	43	192	0
NMTAP	43	192	5
NMTAP	43	288	0
NMTAP	43	288	5
EXTAP	44	0	0
EXTAP	44	0	1
NMTAP	44	96	0
NMTAP	44	96	1
NMTAP	44	192	6
NMTAP	44	192	7
NMTAP	44	288	4
NMTAP	44	288	5
NMTAP	45	0	2
NMTAP	45	0	3
NMTAP	45	96	0
NMTAP	45	96	1
NMTAP	45	192	2
NMTAP	45	192	7
NMTAP	45	288	2
NMTAP	45	288	7
NMTTP	46	0	4	B	0	M1
NMTTP	46	0	4	E	0	M1
NMTTP	46	0	5	B	0	M1
NMTTP	46	0	5	E	1	M1
NMTTP	46	0	6	E	0	M1
NMTAP	46	192	0
NMTAP	46	288	1
NMHLD	47	0	2	192
NMTAP	47	192	0
NMTAP	47	288	7
NMTAP	48	0	4
NMTAP	48	0	6
NMTAP	48	96	3
NMTAP	48	96	5
NMTAP	48	192	2
NMTAP	48	240	2
NMTAP	48	288	4
NMTAP	49	0	1
NMTAP	49	0	3
NMTAP	49	96	1
NMTAP	49	96	3
NMTAP	49	192	3
NMTAP	49	192	4
NMTAP	49	288	4
NMSTR	49	288	6
NMSCL	49	288	6	96	192	2
NMTAP	50	192	1
NMSTR	50	288	1
NMSCR	50	288	1	96	192	5
NMTAP	51	192	6
NMSTR	51	288	6
NMSI_	51	288	6	96	192	0
CNSI_	52	192	0	0	192	3
CNSI_	53	0	3	0	192	5
NMTTP	54	0	6	E	0	M1
NMTTP	54	192	5	E	0	M1
NMTTP	55	0	4	E	0	M1
NMTTP	55	192	3	E	0	M1
NMHLD	56	0	2	1152
NMTTP	56	192	4	E	0	M1
NMTTP	57	0	0	C	0	M1
NMTTP	57	192	0	E	0	M1
NMTTP	58	0	1	E	0	M1
NMTTP	58	192	2	E	0	M1
NMTTP	59	0	3	E	0	M1
NMTAP	59	192	3
NMTAP	59	192	4
NMHLD	60	0	5	1152
NMTTP	60	192	4	E	0	M1
NMTTP	61	0	0	C	0	M1
NMTTP	61	192	0	E	0	M1
NMTTP	62	0	7	E	0	M1
NMTTP	62	192	6	E	0	M1
NMTTP	63	0	5	E	0	M1
EXTAP	63	192	3
EXTAP	63	192	6
NMHLD	64	0	4	384
NMHLD	64	0	5	192
NMTAP	65	0	6
NMTAP	65	192	3
NMTAP	65	192	4
NMHLD	66	0	1	192
NMHLD	66	0	3	384
NMTAP	67	0	2
NMTAP	67	192	3
NMTAP	67	192	4
NMHLD	68	0	5	96
NMHLD	68	192	4	96
NMHLD	68	192	6	96
NMHLD	69	0	3	96
NMHLD	69	192	2	96
NMHLD	69	192	4	96
NMHLD	70	0	1	96
NMHLD	70	192	0	96
NMHLD	70	192	2	96
NMHLD	71	0	7	96
NMHLD	71	192	0	96
NMHLD	71	192	6	96
NMTAP	72	0	6
NMTAP	72	96	7
NMTAP	72	192	0
NMTAP	72	288	1
NMSTR	72	288	7
NMSF_	72	288	7	96	192	3
EXTAP	74	288	0
EXTAP	74	288	7
NMSTR	75	0	1
NMSI_	75	0	1	96	96	4
NMHLD	75	192	6	192
NMTAP	76	0	4
NMTAP	76	96	5
NMHLD	76	192	4	192
NMTAP	76	192	6
NMSTR	77	0	5
NMSI_	77	0	5	96	96	0
NMHLD	77	192	2	192
NMTAP	78	0	0
NMTAP	78	96	7
EXTAP	78	192	0
EXTAP	78	192	6
NMTAP	79	0	5
NMTAP	79	96	5
NMTAP	79	192	0
NMTAP	79	288	1
NMTAP	80	0	2
NMTAP	80	96	2
NMTAP	80	192	7
NMTAP	80	288	6
NMHLD	81	0	4	96
NMHLD	81	0	5	96
NMHLD	81	192	1	96
NMHLD	81	192	3	96
NMHLD	82	0	4	96
NMHLD	82	0	6	96
NMTAP	82	192	3
NMTAP	82	192	5
NMTAP	82	288	3
NMTAP	82	288	5
NMHLD	83	0	6	192
NMHLD	83	192	7	192
NMTAP	84	0	6
NMTAP	84	96	0
NMSTR	84	96	5
NMSCL	84	96	5	96	96	2
NMHLD	85	0	1	192
NMHLD	85	192	0	192
NMTAP	86	0	1
NMTAP	86	96	2
NMSTR	86	96	7
NMSCL	86	96	7	96	192	4
NMSTR	87	0	2
NMSI_	87	0	2	96	192	7
NMTAP	87	288	6
NMSTR	88	0	6
NMSI_	88	0	6	96	192	2
NMTAP	88	288	0
NMSTR	89	0	0
NMSCR	89	0	0	96	192	3
NMTAP	89	288	5
EXTAP	90	0	3
EXTAP	90	0	4
NMTAP	90	192	0
NMTAP	90	192	7
BRTAP	91	0	0
BRTAP	91	0	1
NMTAP	91	96	0
NMTAP	91	96	1
NMTAP	91	192	6
NMTAP	91	192	7
NMTAP	91	288	4
NMTAP	91	288	5
NMTAP	92	0	2
NMTAP	92	0	3
NMTAP	92	96	0
NMTAP	92	96	1
NMTAP	92	192	2
NMTAP	92	192	7
NMTAP	92	288	2
NMTAP	92	288	7
EXTAP	93	0	6
EXTAP	93	0	7
NMTAP	93	96	6
NMTAP	93	96	7
NMTAP	93	192	0
NMTAP	93	192	1
NMTAP	93	288	2
NMTAP	93	288	3
NMTAP	94	0	4
NMTAP	94	0	5
NMTAP	94	96	6
NMTAP	94	96	7
EXTAP	94	192	0
EXTAP	94	192	5
EXTAP	94	288	0
EXTAP	94	288	5
NMTAP	95	0	0
NMHLD	95	0	1	96
NMTAP	95	96	3
NMHLD	95	192	6	96
NMTAP	95	192	7
NMTAP	95	288	4
NMTAP	96	0	0
NMHLD	96	0	1	96
NMTAP	96	96	3
NMTAP	96	192	2
NMTAP	96	192	4
NMSTR	96	288	3
BRSXL	96	288	3	96	240	3
BRSXR	96	288	3	96	240	3
NMTAP	96	288	5
EXTAP	98	0	2
EXTAP	98	0	4
EXTAP	98	96	2
EXTAP	98	96	4
BRTAP	98	192	0
BRTAP	98	192	6
NMTAP	99	0	0
NMTAP	99	0	1
NMTAP	99	96	0
NMTAP	99	96	1
NMTAP	99	192	6
NMTAP	99	192	7
NMTAP	99	288	4
NMTAP	99	288	5
NMTAP	100	0	2
NMTAP	100	0	3
NMTAP	100	96	0
NMTAP	100	96	1
NMTAP	100	192	2
NMTAP	100	192	7
NMTAP	100	288	2
NMTAP	100	288	7
BRTAP	101	0	6
BRTAP	101	0	7
NMTAP	101	96	6
NMTAP	101	96	7
NMTAP	101	192	0
NMTAP	101	192	1
NMTAP	101	288	2
NMTAP	101	288	3
NMTAP	102	0	4
NMTAP	102	0	5
NMTAP	102	96	6
NMTAP	102	96	7
NMTAP	102	192	0
NMTAP	102	192	5
NMTAP	102	288	0
NMTAP	102	288	5
NMTTP	103	0	2	B	0	M1
NMTTP	103	0	2	E	0	M1
NMTTP	103	0	3	B	0	M1
NMTTP	103	0	3	E	1	M1
NMTTP	103	0	4	E	0	M1
NMTAP	103	192	7
NMTAP	103	288	6
NMHLD	104	0	5	192
NMTAP	104	192	7
NMTAP	104	288	0
NMSTR	105	0	1
NMSI_	105	0	1	96	96	4
NMSTR	105	192	6
NMSI_	105	192	6	96	96	3
NMHLD	106	0	1	192
NMTAP	106	192	3
NMSTR	106	288	2
NMSCL	106	288	2	96	96	7
NMSTR	106	288	3
NMSCR	106	288	3	96	96	6
NMTAP	107	192	4
NMTAP	107	192	5
NMSTR	107	288	4
NMSCL	107	288	4	96	96	1
NMSTR	107	288	5
NMSCR	107	288	5	96	96	0
NMTAP	108	192	2
NMTAP	108	192	7
NMTAP	108	288	2
NMHLD	108	288	7	192
NMTTP	109	96	0	C	1	M1
NMTTP	109	96	3	B	0	M1
NMTTP	109	96	4	B	0	M1
BXTAP	110	288	0
BXTAP	110	288	7
NMHLD	111	96	6	144
NMHLD	111	240	4	144
NMTAP	112	0	5
NMTAP	112	96	4
NMTAP	112	96	5
NMTAP	112	192	3
NMTAP	112	192	6
NMTAP	112	288	2
NMTAP	112	288	7
NMTAP	113	0	0
NMTAP	113	0	1
NMTAP	113	96	2
NMTAP	113	192	3
NMTAP	113	192	4
NMTAP	113	288	2
NMTAP	114	0	0
NMHLD	114	0	1	96
NMTAP	114	96	5
NMHLD	114	192	6	96
NMTAP	114	192	7
NMTAP	114	288	2
NMTAP	115	0	6
NMTAP	115	0	7
NMTAP	115	96	5
NMTAP	115	192	3
NMTAP	115	192	4
NMTAP	115	288	5
NMSTR	116	0	6
NMSI_	116	0	6	96	48	2
BRTAP	116	192	0
BRTAP	116	192	1
NMHLD	117	0	1	96
NMHLD	117	96	3	96
NMHLD	117	192	5	96
NMHLD	117	288	7	96
NMHLD	118	0	1	96
NMHLD	118	96	3	96
NMHLD	118	192	5	96
NMHLD	118	288	7	96
NMSTR	119	0	0
NMSCR	119	0	0	96	96	3
NMSTR	119	192	5
NMSCR	119	192	5	96	96	0
EXTAP	120	0	3
NMTAP	120	96	3
NMTAP	120	192	2
NMTAP	120	192	7
NMTAP	120	288	1
NMTAP	120	288	6
BRTAP	121	0	0
BRTAP	121	0	5
NMTAP	121	96	2
NMTAP	121	96	3
NMTAP	121	192	5
NMTAP	121	240	5
NMTAP	121	288	4
NMTAP	122	0	2
NMTAP	122	0	7
NMTAP	122	96	4
NMTAP	122	96	5
NMTAP	122	192	2
NMTAP	122	240	2
NMTAP	122	288	3
NMSTR	123	0	1
NMSI_	123	0	1	96	96	4
NMTAP	123	0	4
NMSTR	123	192	5
NMSI_	123	192	5	96	96	0
NMSTR	124	0	2
NMSI_	124	0	2	96	96	7
NMSTR	124	192	6
NMSI_	124	192	6	96	96	3
NMTHO	125	0	0	384	C	0	M1
EXTAP	126	192	0
EXTAP	126	192	7
BXHLD	127	0	0	96
BXHLD	127	0	1	96
BXHLD	127	192	6	96
BXHLD	127	192	7	96
BXHLD	128	0	1	96
BXHLD	128	0	3	96
BXHLD	128	192	4	96
BXHLD	128	192	6	96
BXHLD	129	0	0	96
BXHLD	129	0	2	96
BXHLD	129	192	5	96
BXHLD	129	192	7	96
NMTAP	130	0	3
NMTAP	130	0	4
NMTAP	130	96	3
NMTAP	130	96	4
BRSTR	130	192	2
BRSCL	130	192	2	96	48	0
BRSTR	130	192	5
BRSCR	130	192	5	96	48	7

T_REC_TAP	300
T_REC_BRK	16
T_REC_XTP	33
T_REC_BXX	2
T_REC_HLD	71
T_REC_XHO	0
T_REC_BHO	0
T_REC_BXH	13
T_REC_STR	37
T_REC_BST	2
T_REC_XST	0
T_REC_XBS	0
T_REC_TTP	29
T_REC_THO	1
T_REC_SLD	37
T_REC_BSL	4
T_REC_ALL	545
T_NUM_TAP	399
T_NUM_BRK	37
T_NUM_HLD	72
T_NUM_SLD	37
T_NUM_ALL	545
T_JUDGE_TAP	419
T_JUDGE_HLD	326
T_JUDGE_SLD	41
T_JUDGE_ALL	786
TTM_EACHPAIRS	153
TTM_SCR_TAP	199500
TTM_SCR_BRK	96200
TTM_SCR_HLD	72000
TTM_SCR_SLD	55500
TTM_SCR_ALL	423200
TTM_SCR_S	406950
TTM_SCR_SS	419500
TTM_RAT_ACV	10088

