VERSION	0.00.00	1.04.00
FES_MODE	0
BPM_DEF	200.000	200.000	200.000	200.000
MET_DEF	4	4
RESOLUTION	384
CLK_DEF	384
COMPATIBLE_CODE	MA2

BPM	0	0	200.000
MET	0	0	4	4

NMSTR	2	0	6
NMSI_	2	0	6	96	288	3
NMSTR	4	0	1
NMSI_	4	0	1	96	288	4
NMSTR	6	0	6
NMSI_	6	0	6	96	288	2
NMSTR	8	0	1
NMSI_	8	0	1	96	288	5
NMTAP	10	0	6
NMTAP	10	192	6
NMTAP	11	0	5
NMTAP	11	192	5
NMTAP	12	0	4
NMTAP	12	192	4
NMTAP	13	0	2
NMTAP	13	0	3
NMTAP	14	0	1
NMTAP	14	192	1
NMTAP	15	0	2
NMTAP	15	192	2
NMTAP	16	0	3
NMTAP	16	192	3
NMTAP	17	0	4
NMTAP	17	0	5
NMTAP	18	0	6
NMTAP	18	96	6
NMTAP	18	192	6
NMTAP	18	192	7
NMTAP	19	0	5
NMTAP	19	96	5
NMTAP	19	192	4
NMTAP	19	192	5
NMTAP	20	0	3
NMTAP	20	96	3
NMTAP	20	192	2
NMTAP	20	192	3
NMTAP	21	0	0
NMTAP	21	0	1
NMTAP	21	96	0
NMTAP	21	96	1
NMTAP	21	192	0
NMTAP	21	192	1
NMTAP	22	0	1
NMTAP	22	96	1
NMTAP	22	192	0
NMTAP	22	192	1
NMTAP	23	0	2
NMTAP	23	96	2
NMTAP	23	192	2
NMTAP	23	192	3
NMTAP	24	0	4
NMTAP	24	96	4
NMTAP	24	192	4
NMTAP	24	192	5
NMTAP	25	0	6
NMTAP	25	0	7
NMTAP	25	96	6
NMTAP	25	96	7
NMTAP	25	192	6
NMTAP	25	192	7
NMHLD	26	0	6	192
NMTAP	26	192	7
NMTAP	27	0	6
NMTAP	27	0	7
NMTAP	27	192	6
NMTAP	27	192	7
NMHLD	28	0	5	192
NMTAP	28	192	4
NMTAP	29	0	4
NMTAP	29	0	5
NMTAP	29	192	4
NMTAP	29	192	5
NMHLD	30	0	2	192
NMTAP	30	192	3
NMTAP	31	0	2
NMTAP	31	0	3
NMTAP	31	192	2
NMTAP	31	192	3
NMHLD	32	0	1	192
NMTAP	32	192	0
NMTAP	33	0	0
NMTAP	33	0	1
NMTAP	33	192	0
NMTAP	33	192	1
NMTAP	34	0	2
NMTAP	34	96	2
NMTAP	34	192	1
NMTAP	34	288	1
NMTAP	35	0	0
NMTAP	35	96	0
NMTAP	35	192	6
NMTAP	35	192	7
NMTAP	36	0	5
NMTAP	36	96	5
NMTAP	36	192	6
NMTAP	36	288	6
NMTAP	37	0	7
NMTAP	37	96	7
NMTAP	37	192	0
NMTAP	37	192	1
NMTAP	38	0	1
NMTAP	38	96	1
NMTAP	38	192	2
NMTAP	38	288	2
NMTAP	39	0	3
NMTAP	39	96	3
NMTAP	39	192	4
NMTAP	39	192	5
NMTAP	40	0	6
NMTAP	40	96	6
NMTAP	40	192	5
NMTAP	40	288	5
NMTAP	41	0	4
NMTAP	41	96	4
BRTAP	41	192	2
BRTAP	41	192	3
NMTAP	42	0	2
NMTAP	42	96	2
NMTAP	42	192	1
NMTAP	42	288	1
NMTAP	43	0	0
NMTAP	43	96	0
NMTAP	43	192	6
NMTAP	43	192	7
NMTAP	44	0	5
NMTAP	44	96	5
NMTAP	44	192	6
NMTAP	44	288	6
NMTAP	45	0	7
NMTAP	45	96	7
NMTAP	45	192	0
NMTAP	45	192	1
NMTAP	46	0	1
NMTAP	46	96	1
NMTAP	46	192	2
NMTAP	46	288	2
NMTAP	47	0	3
NMTAP	47	96	3
NMTAP	47	192	4
NMTAP	47	192	5
NMTAP	48	0	6
NMTAP	48	96	6
NMTAP	48	192	5
NMTAP	48	288	5
NMTAP	49	0	4
NMTAP	49	96	4
NMTAP	49	192	2
NMTAP	49	192	3
NMTAP	50	0	4
NMTAP	50	96	4
NMTAP	50	192	4
NMTAP	50	192	5
NMTAP	51	0	3
NMTAP	51	96	3
NMTAP	51	192	2
NMTAP	51	192	3
NMSTR	52	0	3
NMSXR	52	0	3	96	672	0
NMSTR	52	0	4
NMSXL	52	0	4	96	672	7
NMHLD	56	0	6	384
NMHLD	57	0	5	384
NMHLD	58	0	4	384
NMTAP	59	0	3
NMHLD	60	0	1	384
NMHLD	61	0	2	384
NMHLD	62	0	3	384
NMTAP	63	0	4
NMTAP	64	0	4
NMTAP	64	192	4
NMTAP	65	0	5
NMTAP	65	192	5
NMTAP	66	0	6
NMTAP	66	192	6
NMTAP	67	0	0
NMTAP	67	0	7
NMTAP	67	192	0
NMTAP	67	192	7
NMTAP	68	0	1
NMTAP	68	192	1
NMTAP	69	0	2
NMTAP	69	192	2
NMTAP	70	0	3
NMTAP	70	192	3
NMTAP	71	0	3
NMTAP	71	0	4
NMTAP	72	0	4
NMTAP	72	0	5
NMTAP	72	192	4
NMTAP	72	192	5
NMTAP	73	0	2
NMTAP	73	0	3
NMTAP	73	192	2
NMTAP	73	192	3
EXSTR	75	0	2
NMSI_	75	0	2	96	288	5
NMTAP	76	192	6
NMSTR	77	0	7
NMSI_	77	0	7	96	288	3
NMTAP	78	192	2
NMSTR	79	0	1
NMSI_	79	0	1	96	288	4
NMTAP	80	192	5
NMSTR	81	0	6
NMSUL	81	0	6	96	480	3
NMTTP	83	0	1	B	0	L1
NMTTP	83	192	2	B	0	L1
NMTTP	84	0	3	B	0	L1
NMTTP	85	0	6	B	0	L1
NMTTP	85	192	5	B	0	L1
NMTTP	86	0	4	B	0	L1
NMTTP	87	0	1	B	0	L1
NMTTP	87	192	2	B	0	L1
NMTTP	88	0	3	B	0	L1
NMTTP	88	192	4	B	0	L1
NMTTP	89	0	5	B	0	L1
NMTTP	89	192	6	B	0	L1
NMTTP	90	0	0	C	0	L1
NMTAP	91	0	1
NMTAP	91	96	1
NMTAP	91	192	0
NMTAP	91	192	1
NMTAP	91	288	0
NMTAP	91	288	1
NMTAP	92	0	7
NMTAP	92	96	7
NMTAP	92	192	6
NMTAP	92	192	7
NMTAP	93	0	5
NMTAP	93	96	5
NMTAP	93	192	6
NMTAP	93	192	7
NMTAP	93	288	6
NMTAP	93	288	7
NMTAP	94	0	0
NMTAP	94	96	0
NMTAP	94	192	0
NMTAP	94	192	1
NMTAP	95	0	1
NMTAP	95	96	1
NMTAP	95	192	2
NMTAP	95	192	3
NMTAP	95	288	2
NMTAP	95	288	3
NMTAP	96	0	4
NMTAP	96	96	4
NMTAP	96	192	4
NMTAP	96	192	5
NMTAP	97	0	6
NMTAP	97	96	6
NMTAP	97	192	4
NMTAP	97	192	5
NMTAP	97	288	4
NMTAP	97	288	5
NMTAP	98	0	3
NMTAP	98	96	3
BRTAP	98	192	2
BRTAP	98	192	3
NMTAP	99	0	2
NMTAP	99	96	2
NMTAP	99	192	0
NMTAP	99	192	1
NMTAP	99	288	0
NMTAP	99	288	1
NMTAP	100	0	7
NMTAP	100	96	7
NMTAP	100	192	6
NMTAP	100	192	7
NMTAP	100	288	6
NMTAP	100	288	7
NMTAP	101	0	5
NMTAP	101	96	5
NMTAP	101	192	6
NMTAP	101	192	7
NMTAP	101	288	6
NMTAP	101	288	7
NMTAP	102	0	0
NMTAP	102	96	0
NMTAP	102	192	0
NMTAP	102	192	1
NMTAP	103	0	1
NMTAP	103	96	1
NMTAP	103	192	2
NMTAP	103	192	3
NMTAP	103	288	2
NMTAP	103	288	3
NMTAP	104	0	4
NMTAP	104	96	4
NMTAP	104	192	4
NMTAP	104	192	5
NMTAP	104	288	4
NMTAP	104	288	5
NMTAP	105	0	6
NMTAP	105	96	6
NMTAP	105	192	4
NMTAP	105	192	5
NMTAP	105	288	4
NMTAP	105	288	5
NMTAP	106	0	3
NMTAP	106	96	3
NMTAP	106	192	2
NMTAP	106	192	3
NMTAP	107	0	4
NMTAP	107	96	5
NMTAP	107	192	6
NMTAP	107	288	7
NMTAP	108	0	0
NMTAP	108	96	1
NMTAP	108	192	2
NMTAP	108	288	3
EXSTR	109	0	4
NMSI_	109	0	4	96	288	1
EXSTR	109	0	5
NMSI_	109	0	5	96	288	0
NMSTR	111	0	6
NMSI_	111	0	6	96	288	3
NMSTR	111	0	7
NMSI_	111	0	7	96	288	2
NMTAP	113	0	3
NMTAP	113	96	2
NMTAP	113	192	1
NMTAP	113	288	0
NMTAP	114	0	7
NMTAP	114	96	6
NMTAP	114	192	4
NMTAP	114	192	5
NMTAP	115	0	4
NMTAP	115	96	5
NMTAP	115	192	6
NMTAP	115	288	7
NMTAP	116	0	0
NMTAP	116	96	1
NMTAP	116	192	2
NMTAP	116	192	3
NMTAP	117	0	2
NMTAP	117	96	2
NMTAP	117	192	2
NMTAP	117	288	2
NMTAP	117	288	3
NMTAP	118	0	1
NMTAP	118	96	1
NMTAP	118	192	1
NMTAP	118	288	0
NMTAP	118	288	1
NMTAP	119	0	7
NMTAP	119	96	7
NMTAP	119	192	7
NMTAP	119	288	6
NMTAP	119	288	7
NMTAP	120	0	5
NMTAP	120	96	5
NMTAP	120	192	4
NMTAP	120	192	5
NMTAP	121	0	5
NMTAP	121	96	5
NMTAP	121	192	5
NMTAP	121	288	4
NMTAP	121	288	5
NMTAP	122	0	6
NMTAP	122	96	6
NMTAP	122	192	6
NMTAP	122	288	6
NMTAP	122	288	7
NMTAP	123	0	0
NMTAP	123	96	0
NMTAP	123	192	0
NMTAP	123	288	0
NMTAP	123	288	1
NMTAP	124	0	2
NMTAP	124	96	2
NMTAP	124	192	2
NMTAP	124	192	3
NMSTR	125	0	3
NMSI_	125	0	3	96	288	0
NMSTR	125	0	4
NMSI_	125	0	4	96	288	7
NMTAP	127	0	7
NMTAP	127	96	6
NMTAP	127	192	5
NMTAP	127	288	4
NMTAP	128	0	3
NMTAP	128	96	2
NMTAP	128	192	1
NMTAP	128	288	0
NMTAP	129	0	0
NMTAP	129	0	7
NMTAP	129	96	0
NMTAP	129	96	7
NMTAP	129	192	1
NMTAP	129	192	6
NMTAP	129	288	1
NMTAP	129	288	6
NMTAP	130	0	2
NMTAP	130	0	5
NMTAP	130	96	2
NMTAP	130	96	5
NMTAP	130	192	3
NMTAP	130	192	4
BXTAP	130	288	3
BXTAP	130	288	4

T_REC_TAP	339
T_REC_BRK	4
T_REC_XTP	0
T_REC_BXX	2
T_REC_HLD	10
T_REC_XHO	0
T_REC_BHO	0
T_REC_BXH	0
T_REC_STR	13
T_REC_BST	0
T_REC_XST	3
T_REC_XBS	0
T_REC_TTP	13
T_REC_THO	0
T_REC_SLD	16
T_REC_BSL	0
T_REC_ALL	400
T_NUM_TAP	368
T_NUM_BRK	6
T_NUM_HLD	10
T_NUM_SLD	16
T_NUM_ALL	400
T_JUDGE_TAP	374
T_JUDGE_HLD	64
T_JUDGE_SLD	16
T_JUDGE_ALL	454
TTM_EACHPAIRS	87
TTM_SCR_TAP	184000
TTM_SCR_BRK	15600
TTM_SCR_HLD	10000
TTM_SCR_SLD	24000
TTM_SCR_ALL	233600
TTM_SCR_S	226050
TTM_SCR_SS	233000
TTM_RAT_ACV	10025

