VERSION	0.00.00	1.04.00
FES_MODE	0
BPM_DEF	200.000	200.000	200.000	200.000
MET_DEF	4	4
RESOLUTION	384
CLK_DEF	384
COMPATIBLE_CODE	MA2

BPM	0	0	200.000
MET	0	0	4	4

NMTAP	2	0	7
NMTAP	3	0	6
NMTAP	4	0	5
NMTAP	5	0	4
NMTAP	6	0	3
NMTAP	7	0	2
NMTAP	8	0	1
NMTAP	9	0	0
NMTAP	9	0	1
NMTAP	10	0	0
NMTAP	11	0	1
NMTAP	12	0	2
NMTAP	13	0	3
NMTAP	14	0	4
NMTAP	15	0	5
NMTAP	16	0	6
NMTAP	17	0	6
NMTAP	17	0	7
NMTAP	18	0	7
NMTAP	18	192	7
NMTAP	19	0	6
NMTAP	20	0	5
NMTAP	20	192	5
NMTAP	21	0	4
NMTAP	22	0	3
NMTAP	22	192	3
NMTAP	23	0	2
NMTAP	24	0	1
NMTAP	24	192	1
NMTAP	25	0	0
NMTAP	25	0	1
NMTAP	26	0	0
NMTAP	26	192	0
NMTAP	27	0	1
NMTAP	28	0	2
NMTAP	28	192	2
NMTAP	29	0	3
NMTAP	29	0	4
NMTAP	30	0	4
NMTAP	30	192	4
NMTAP	31	0	5
NMTAP	32	0	6
NMTAP	32	192	6
NMTAP	33	0	0
NMTAP	33	0	7
BRTAP	34	0	7
NMTAP	34	192	7
NMTAP	35	0	6
NMTAP	35	192	6
NMTAP	36	0	5
NMTAP	36	192	5
NMTAP	37	0	4
NMTAP	37	0	5
NMTAP	38	0	3
NMTAP	38	192	3
NMTAP	39	0	2
NMTAP	39	192	2
NMTAP	40	0	1
NMTAP	40	192	1
NMTAP	41	0	0
NMTAP	41	0	1
BRTAP	42	0	0
NMTAP	42	192	0
NMTAP	43	0	1
NMTAP	43	192	1
NMTAP	44	0	2
NMTAP	44	192	2
NMTAP	45	0	3
NMTAP	45	0	4
NMTAP	46	0	4
NMTAP	46	192	4
NMTAP	47	0	5
NMTAP	47	192	5
NMTAP	48	0	6
NMTAP	48	192	6
NMTAP	49	0	0
NMTAP	49	0	7
NMHLD	50	0	0	384
NMHLD	50	0	7	384
NMTAP	52	0	6
NMTAP	52	192	6
NMTAP	53	0	0
NMTAP	53	0	7
NMTAP	54	0	1
NMTAP	54	192	1
NMTAP	55	0	0
NMTAP	55	0	7
NMHLD	56	0	6	384
NMHLD	56	0	7	384
NMHLD	58	0	4	384
NMHLD	58	0	5	384
NMHLD	60	0	2	384
NMHLD	60	0	3	384
NMHLD	62	0	0	384
NMHLD	62	0	1	384
NMTTP	64	0	0	B	0	L1
NMTTP	65	0	7	B	0	L1
NMTTP	66	0	1	B	0	L1
NMTTP	67	0	6	B	0	L1
NMTTP	68	0	2	B	0	L1
NMTTP	69	0	5	B	0	L1
NMTTP	70	0	3	B	0	L1
NMTTP	71	0	4	B	0	L1
NMTHO	72	0	0	768	C	0	L1
NMTAP	75	0	0
NMTAP	75	192	0
NMTAP	76	0	0
NMTAP	76	0	1
NMTAP	77	0	2
NMTAP	77	192	2
NMTAP	78	0	2
NMTAP	78	0	3
NMTAP	79	0	4
NMTAP	79	192	4
NMTAP	80	0	4
NMTAP	80	0	5
NMTAP	81	0	6
NMTAP	81	192	6
NMTAP	82	0	6
NMTAP	82	0	7
NMTAP	83	0	7
NMTAP	83	192	7
NMTAP	84	0	6
NMTAP	84	0	7
NMTAP	85	0	5
NMTAP	85	192	5
NMTAP	86	0	3
NMTAP	86	0	4
NMTAP	87	0	3
NMTAP	87	192	3
NMTAP	88	0	2
NMTAP	88	0	3
NMTAP	89	0	1
NMTAP	89	192	1
NMTAP	90	0	0
NMTAP	90	0	7
BRTAP	91	0	0
NMTAP	91	192	0
NMTAP	92	0	1
NMTAP	92	192	1
NMTAP	93	0	2
NMTAP	93	192	2
NMTAP	94	0	2
NMTAP	94	0	3
NMTAP	94	192	2
NMTAP	94	192	3
NMTAP	95	0	4
NMTAP	95	192	4
NMTAP	96	0	5
NMTAP	96	192	5
NMTAP	97	0	6
NMTAP	97	192	6
NMTAP	98	0	6
NMTAP	98	0	7
BRTAP	99	0	7
NMTAP	99	192	7
NMTAP	100	0	6
NMTAP	100	192	6
NMTAP	101	0	5
NMTAP	101	192	5
NMTAP	102	0	3
NMTAP	102	0	4
NMTAP	102	192	3
NMTAP	102	192	4
NMTAP	103	0	3
NMTAP	103	192	3
NMTAP	104	0	2
NMTAP	104	192	2
NMTAP	105	0	1
NMTAP	105	192	1
NMTAP	106	0	0
NMTAP	106	0	7
NMTAP	107	0	0
NMTAP	107	0	7
NMTAP	107	192	0
NMTAP	107	192	7
NMTAP	108	0	0
NMTAP	108	0	7
EXSTR	109	0	0
NMSI_	109	0	0	96	288	4
NMSTR	111	0	7
NMSI_	111	0	7	96	288	3
NMSTR	113	0	1
NMSI_	113	0	1	96	288	5
NMSTR	115	0	6
NMSI_	115	0	6	96	288	2
NMTAP	117	0	1
NMTAP	117	96	1
NMTAP	117	192	1
NMTAP	118	0	0
NMTAP	118	0	1
NMTAP	118	192	0
NMTAP	118	192	1
NMTAP	119	0	2
NMTAP	119	96	2
NMTAP	119	192	2
NMTAP	120	0	3
NMTAP	120	0	4
NMTAP	120	192	3
NMTAP	120	192	4
NMTAP	121	0	5
NMTAP	121	96	5
NMTAP	121	192	5
NMTAP	122	0	4
NMTAP	122	0	5
NMTAP	122	192	4
NMTAP	122	192	5
NMTAP	123	0	6
NMTAP	123	96	6
NMTAP	123	192	6
NMTAP	124	0	0
NMTAP	124	0	7
NMTTP	125	0	0	B	0	L1
NMTTP	125	0	7	B	0	L1
NMTTP	126	0	1	B	0	L1
NMTTP	126	0	6	B	0	L1
NMTTP	127	0	2	B	0	L1
NMTTP	127	0	5	B	0	L1
NMTTP	128	0	3	B	0	L1
NMTTP	128	0	4	B	0	L1
NMTTP	129	0	2	B	0	L1
NMTTP	129	0	5	B	0	L1
NMTHO	130	0	0	288	C	1	L1
NMTTP	130	0	1	B	0	L1
NMTTP	130	0	6	B	0	L1

T_REC_TAP	181
T_REC_BRK	4
T_REC_XTP	0
T_REC_BXX	0
T_REC_HLD	10
T_REC_XHO	0
T_REC_BHO	0
T_REC_BXH	0
T_REC_STR	3
T_REC_BST	0
T_REC_XST	1
T_REC_XBS	0
T_REC_TTP	20
T_REC_THO	2
T_REC_SLD	4
T_REC_BSL	0
T_REC_ALL	225
T_NUM_TAP	205
T_NUM_BRK	4
T_NUM_HLD	12
T_NUM_SLD	4
T_NUM_ALL	225
T_JUDGE_TAP	209
T_JUDGE_HLD	102
T_JUDGE_SLD	4
T_JUDGE_ALL	315
TTM_EACHPAIRS	40
TTM_SCR_TAP	102500
TTM_SCR_BRK	10400
TTM_SCR_HLD	12000
TTM_SCR_SLD	6000
TTM_SCR_ALL	130900
TTM_SCR_S	126600
TTM_SCR_SS	130500
TTM_RAT_ACV	10030

