VERSION	0.00.00	1.05.00
FES_MODE	0
BPM_DEF	118.000	118.000	118.000	118.000
MET_DEF	4	4
RESOLUTION	384
CLK_DEF	384
COMPATIBLE_CODE	MA2

BPM	0	0	118.000
MET	0	0	4	4

NMTTP	1	0	4	E	0	M1
NMTTP	1	192	5	A	0	M1
NMTTP	2	0	2	A	0	M1
NMTTP	2	192	5	B	0	M1
NMTTP	2	288	0	C	0	M1
NMTTP	3	0	2	B	0	M1
NMTTP	3	192	4	E	0	M1
NMTTP	4	0	0	C	0	M1
NMTTP	4	0	2	B	0	M1
NMTTP	4	0	5	B	0	M1
NMTTP	4	96	3	B	0	M1
NMTTP	4	96	4	B	0	M1
NMTTP	4	192	4	E	0	M1
NMTAP	4	288	3
NMTAP	4	288	4
NMSTR	5	0	4
NMSCL	5	0	4	96	48	2
NMTAP	5	48	5
NMTAP	5	96	4
NMTAP	5	96	6
NMTAP	5	192	2
NMTAP	5	192	4
NMTAP	5	240	2
NMTAP	5	240	4
NMTAP	5	288	1
NMTAP	5	288	5
NMSTR	6	0	3
NMSCR	6	0	3	96	48	5
NMTAP	6	48	2
NMTAP	6	96	1
NMTAP	6	96	3
NMTAP	6	192	3
NMTAP	6	192	5
NMTAP	6	240	3
NMTAP	6	240	5
NMTAP	6	288	2
NMTAP	6	288	6
NMSTR	7	0	4
NMSCL	7	0	4	96	48	2
NMTAP	7	48	5
NMTAP	7	96	4
NMTAP	7	96	6
NMTAP	7	192	2
NMTAP	7	192	4
NMTAP	7	240	2
NMTAP	7	240	4
NMTAP	7	288	1
NMSTR	7	288	5
NMSCR	7	288	5	96	48	0
NMSTR	8	0	2
NMSCR	8	0	2	96	48	5
NMSTR	8	96	7
NMSXL	8	96	7	96	120	4
BRTAP	8	192	4
NMTAP	9	0	3
NMTAP	9	48	2
NMTAP	9	96	1
NMTAP	9	96	4
NMTAP	9	144	1
NMTAP	9	144	4
NMTAP	9	192	2
NMTAP	9	240	1
NMTAP	9	240	3
NMHLD	9	288	1	384
NMSTR	9	288	3
NMSCR	9	288	3	96	48	6
NMSTR	10	0	3
NMSI_	10	0	3	96	48	0
NMSTR	10	96	3
NMSI_	10	96	3	96	48	7
NMTAP	10	192	3
NMTAP	10	288	7
NMTAP	11	0	3
NMTAP	11	0	6
NMTAP	11	48	2
NMTAP	11	96	1
NMTAP	11	144	0
NMHLD	11	192	0	96
NMTAP	11	288	3
NMTAP	11	336	3
NMTAP	12	0	2
NMTAP	12	0	4
NMTAP	12	48	6
NMTAP	12	96	2
NMTAP	12	96	4
NMTAP	12	144	0
NMTAP	12	192	2
NMTAP	12	192	4
NMTAP	12	240	0
NMTAP	12	240	6
NMTAP	12	288	1
NMTAP	12	288	5
NMTAP	13	0	4
NMTAP	13	48	5
NMTAP	13	96	3
NMTAP	13	96	6
NMTAP	13	144	3
NMTAP	13	144	6
NMTAP	13	192	5
NMTAP	13	240	4
NMTAP	13	240	6
NMSTR	13	288	4
NMSXR	13	288	4	96	48	2
NMHLD	13	288	6	384
NMSTR	14	0	4
NMSV_	14	0	4	96	48	7
NMSTR	14	96	4
NMSI_	14	96	4	96	48	0
NMTAP	14	192	4
NMTAP	14	288	0
NMTAP	15	0	1
NMTAP	15	0	5
NMTAP	15	48	2
NMTAP	15	48	4
NMHLD	15	96	2	48
NMHLD	15	96	3	48
NMTAP	15	192	2
NMTAP	15	192	6
NMTAP	15	240	3
NMTAP	15	240	5
NMHLD	15	288	4	48
NMHLD	15	288	5	48
NMTAP	16	0	6
NMTAP	16	32	4
NMTAP	16	64	7
NMTAP	16	96	1
NMTAP	16	128	3
NMTAP	16	160	0
NMTAP	16	192	6
NMTAP	16	224	2
NMTAP	16	256	4
NMSTR	16	288	3
NMSI_	16	288	3	96	192	6
NMSTR	16	288	5
NMSI_	16	288	5	96	192	2
BRTAP	17	0	3
BRTAP	17	0	5
CNSI_	17	192	2	0	192	7
CNSI_	17	192	6	0	192	1
CNSI_	18	0	1	0	192	4
CNSI_	18	0	7	0	192	4
NMSTR	19	0	3
NMSI_	19	0	3	96	48	6
NMTAP	19	48	2
NMTAP	19	96	1
NMTAP	19	96	3
NMTAP	19	192	1
NMTAP	19	192	7
NMTAP	19	240	1
NMTAP	19	240	7
NMSTR	19	288	2
NMSCL	19	288	2	96	48	7
NMTAP	19	288	6
NMSTR	20	0	5
NMSCL	20	0	5	96	48	2
NMSTR	20	96	0
NMSXR	20	96	0	96	120	3
BRTAP	20	192	3
NMTAP	21	0	7
NMTAP	21	48	6
NMTAP	21	96	0
NMTAP	21	96	5
NMTAP	21	144	0
NMTAP	21	144	5
NMTAP	21	192	6
NMTAP	21	240	5
NMTAP	21	240	7
NMHLD	21	288	5	384
NMSTR	21	288	7
NMSCR	21	288	7	96	48	2
NMSTR	22	0	7
NMSI_	22	0	7	96	48	4
NMSTR	22	96	7
NMSI_	22	96	7	96	48	3
NMTAP	22	192	7
NMTAP	22	288	3
NMTAP	23	0	2
NMTAP	23	0	7
NMTAP	23	48	6
NMTAP	23	96	5
NMTAP	23	144	4
NMHLD	23	192	4	96
NMTAP	23	288	7
NMTAP	23	336	7
NMTAP	24	0	0
NMTAP	24	0	6
NMTAP	24	48	2
NMTAP	24	96	0
NMTAP	24	96	6
NMTAP	24	144	4
NMTAP	24	192	0
NMTAP	24	192	6
NMTAP	24	240	2
NMTAP	24	240	4
NMTAP	24	288	1
NMTAP	24	288	5
NMTAP	25	0	0
NMTAP	25	48	1
NMTAP	25	96	2
NMTAP	25	96	7
NMTAP	25	144	2
NMTAP	25	144	7
NMTAP	25	192	1
NMTAP	25	240	0
NMTAP	25	240	2
NMSTR	25	288	0
NMSCL	25	288	0	96	48	5
NMHLD	25	288	2	384
NMSTR	26	0	0
NMSI_	26	0	0	96	48	3
NMSTR	26	96	0
NMSI_	26	96	0	96	48	4
NMTAP	26	192	0
NMTAP	26	288	4
NMTAP	27	0	3
NMSTR	27	0	5
NMSCR	27	0	5	96	48	0
NMTAP	27	48	4
NMTAP	27	96	4
NMSTR	27	192	2
NMSI_	27	192	2	96	48	5
NMSTR	27	192	6
NMSI_	27	192	6	96	48	1
NMTAP	27	240	1
NMTAP	27	240	5
NMSTR	28	0	0
NMSCR	28	0	0	96	48	3
NMTAP	28	0	4
NMSTR	28	96	0
NMSCL	28	96	0	96	48	5
NMSTR	28	192	0
NMSI_	28	192	0	96	48	4
NMTAP	28	288	0
NMTAP	28	288	4
NMSTR	29	0	5
NMSXR	29	0	5	96	96	4
NMTAP	29	48	5
NMTTP	29	96	1	E	0	M1
CNSXR	29	192	4	0	96	2
NMTTP	29	192	7	E	0	M1
NMTTP	29	288	0	E	0	M1
NMSTR	30	0	1
NMSXR	30	0	1	96	120	0
NMTAP	30	48	1
NMTTP	30	96	3	E	0	M1
NMTTP	30	192	5	E	0	M1
CNSV_	30	216	0	0	72	6
NMTTP	30	288	4	E	0	M1
NMSTR	31	0	5
NMSV_	31	0	5	96	72	3
NMTAP	31	48	5
NMTTP	31	96	1	E	0	M1
CNSCR	31	168	3	0	24	4
CNSXR	31	192	4	0	96	2
NMTTP	31	192	7	E	0	M1
NMSTR	31	288	0
NMSCR	31	288	0	96	48	3
NMTAP	31	336	0
NMSTR	32	0	0
NMSCL	32	0	0	96	48	5
NMTAP	32	0	4
NMSTR	32	96	0
NMSCR	32	96	0	96	48	3
NMTAP	32	96	4
NMTAP	32	192	0
NMSTR	32	192	4
NMSI_	32	192	4	96	48	1
NMSI_	32	192	4	96	48	7
NMTAP	32	288	4
NMSTR	33	0	6
NMSLR	33	0	6	96	144	2
NMTAP	33	48	6
NMTTP	33	96	3	A	0	M1
NMTTP	33	192	5	A	0	M1
CNSCL	33	240	2	0	48	7
NMTTP	33	288	4	A	0	M1
NMSTR	34	0	1
NMSLL	34	0	1	96	96	5
NMTAP	34	48	1
NMTTP	34	96	4	A	0	M1
NMTTP	34	192	2	A	0	M1
CNSCR	34	192	5	0	96	0
NMTTP	34	288	3	A	0	M1
NMTAP	35	0	4
NMTAP	35	48	5
NMTAP	35	96	6
NMTAP	35	96	7
NMTAP	35	144	5
NMTAP	35	192	3
NMTAP	35	192	4
NMTAP	35	240	2
NMTAP	35	288	0
NMTAP	35	288	1
NMTAP	35	336	7
NMTAP	36	0	6
NMTAP	36	24	4
NMTAP	36	72	1
NMTAP	36	96	3
NMTAP	36	144	6
NMTAP	36	168	7
NMTAP	36	216	1
NMTAP	36	240	0
NMTTP	36	288	3	B	0	M1
NMTTP	36	288	4	B	0	M1
NMTTP	36	288	4	E	1	M1
BRTAP	36	288	7
NMTAP	37	0	1
NMTAP	37	48	2
NMTAP	37	48	7
NMSTR	37	96	3
NMSXR	37	96	3	96	96	3
NMTAP	37	96	5
NMTAP	37	144	6
EXSTR	37	192	3
NMSXL	37	192	3	96	96	3
NMTAP	37	192	7
NMTAP	37	240	7
NMTAP	37	288	0
NMTAP	37	336	0
NMTAP	38	0	7
NMTAP	38	48	7
NMTAP	38	96	4
NMSTR	38	96	6
NMSCR	38	96	6	96	48	1
NMSTR	38	144	2
NMSCR	38	144	2	96	48	5
NMTAP	38	192	6
NMTAP	38	240	2
NMTAP	38	288	7
NMTAP	38	336	3
NMTAP	39	0	2
NMTAP	39	24	2
NMTAP	39	48	3
NMTAP	39	72	3
NMTAP	39	96	1
NMTAP	39	120	1
NMTAP	39	144	6
NMTAP	39	168	6
NMTAP	39	192	4
NMTAP	39	216	4
NMTAP	39	240	5
NMTAP	39	264	5
NMSTR	39	288	0
NMSCR	39	288	0	96	48	3
NMTAP	39	312	0
NMTAP	39	336	3
NMTAP	40	0	0
NMTAP	40	48	5
NMSTR	40	96	5
NMSCL	40	96	5	96	72	2
NMSTR	40	96	6
NMSUL	40	96	6	96	72	1
NMTAP	40	144	5
NMTAP	40	144	6
CNSUR	40	264	1	0	72	6
CNSCR	40	264	2	0	72	5
NMTAP	41	0	7
NMTAP	41	48	0
NMSTR	41	96	2
NMSLL	41	96	2	96	120	4
NMTAP	41	96	3
NMTAP	41	144	2
NMTAP	41	144	3
NMTAP	41	192	4
NMTAP	41	240	5
NMTAP	41	288	6
NMTAP	41	336	7
NMTAP	42	0	6
NMTAP	42	32	6
NMTAP	42	48	4
NMTAP	42	80	4
NMTAP	42	96	3
NMTAP	42	128	3
NMTAP	42	144	1
NMTAP	42	176	1
NMTAP	42	192	3
NMTAP	42	224	3
NMTAP	42	240	4
NMTAP	42	272	4
NMSTR	42	288	6
NMSI_	42	288	6	96	48	2
NMSCL	42	288	6	96	48	3
NMTAP	42	336	7
NMTTP	43	0	6	A	1	M1
NMSTR	43	96	1
NMSI_	43	96	1	96	48	4
NMTAP	43	144	0
NMTAP	43	192	1
NMSTR	43	192	6
NMSI_	43	192	6	96	48	3
NMTAP	43	240	7
NMSTR	43	288	1
NMSUR	43	288	1	96	48	5
NMTAP	43	288	6
NMTAP	43	336	0
NMTAP	44	0	1
NMSTR	44	0	7
NMSUL	44	0	7	96	48	3
NMTAP	44	48	0
NMTAP	44	96	1
NMTAP	44	96	7
NMTAP	44	144	0
BRTAP	44	192	1
BRTAP	44	192	5
NMTAP	45	0	4
NMTAP	45	48	5
NMSTR	45	96	6
NMSCL	45	96	6	96	96	2
NMTAP	45	336	1
NMHLD	46	0	1	288
NMSTR	46	96	3
NMSI_	46	96	3	96	48	0
NMSTR	46	288	7
NMSUL	46	288	7	96	48	3
NMTAP	47	0	2
NMSTR	47	96	1
NMSUR	47	96	1	96	48	5
NMTAP	47	192	6
NMTAP	47	288	7
NMTAP	48	0	6
NMTAP	48	32	7
NMTAP	48	64	4
NMTAP	48	96	1
NMTAP	48	128	0
NMTAP	48	160	3
NMSTR	48	192	6
BRSI_	48	192	6	96	48	2
NMTAP	48	224	7
NMTAP	48	256	4
NMTAP	48	288	0
NMHLD	49	0	1	168
NMTTP	49	96	3	E	0	M1
NMTAP	49	168	3
NMTAP	49	192	2
NMTAP	49	216	4
NMHLD	49	240	4	144
NMTTP	49	288	4	E	0	M1
NMHLD	50	0	1	168
NMTTP	50	96	3	E	0	M1
NMTAP	50	168	3
NMTAP	50	192	2
NMTAP	50	216	4
NMHLD	50	240	4	144
NMTTP	50	288	4	E	0	M1
NMHLD	51	0	2	168
NMTTP	51	96	0	E	0	M1
NMTAP	51	168	0
NMTAP	51	192	1
NMTAP	51	216	7
NMTAP	51	240	7
NMTAP	51	288	0
NMTAP	51	288	6
NMSTR	51	336	0
NMSI_	51	336	0	96	48	4
NMTAP	51	336	6
NMTAP	52	48	0
NMSTR	52	48	5
NMSI_	52	48	5	96	48	0
NMSTR	52	144	2
NMSI_	52	144	2	96	48	4
NMTAP	52	144	5
NMTAP	52	240	7
CNSI_	52	288	4	0	48	1
NMTAP	52	288	7
CNSI_	52	336	1	0	48	5
NMHLD	53	0	6	168
NMTTP	53	96	5	E	0	M1
NMTAP	53	168	4
NMTAP	53	192	5
NMTAP	53	216	3
NMHLD	53	240	3	144
NMTTP	53	288	4	E	0	M1
NMHLD	54	0	6	168
NMTTP	54	96	5	E	0	M1
NMTAP	54	168	4
NMTAP	54	192	5
NMTAP	54	216	3
NMHLD	54	240	3	144
NMTTP	54	288	4	E	0	M1
NMHLD	55	0	5	168
NMTTP	55	96	0	E	0	M1
NMTAP	55	168	7
NMTAP	55	192	6
NMTAP	55	216	0
NMTAP	55	240	0
NMTAP	55	288	1
NMTAP	55	288	7
NMSTR	55	336	1
NMSCR	55	336	1	96	48	3
NMSTR	55	336	7
NMSI_	55	336	7	96	48	3
NMSTR	56	48	1
NMSI_	56	48	1	96	48	5
NMSTR	56	48	7
NMSCL	56	48	7	96	48	5
NMTAP	56	144	1
NMTAP	56	144	7
BRTAP	56	240	2
BRTAP	56	240	6
BRTAP	56	288	2
BRTAP	56	288	6
NMTAP	57	0	3
NMTAP	57	48	3
NMTAP	57	96	1
NMTAP	57	96	5
NMTAP	57	168	6
NMTAP	57	192	4
NMTAP	57	192	6
NMTAP	57	240	2
NMTAP	57	240	4
NMTAP	57	264	2
NMTAP	57	264	4
NMTAP	57	312	1
NMTAP	57	336	1
NMTAP	57	336	3
BRTAP	58	0	0
BRTAP	58	0	5
NMTAP	58	48	7
NMTAP	58	96	3
NMSTR	58	96	5
NMSI_	58	96	5	96	48	7
NMTAP	58	144	3
NMTAP	58	144	5
NMTAP	58	192	2
NMTAP	58	240	1
CNSUL	58	240	7	0	96	2
NMTAP	58	288	0
NMTAP	58	336	0
NMTAP	59	0	1
NMTAP	59	48	1
NMTAP	59	96	2
NMSTR	59	96	3
NMSCR	59	96	3	96	72	7
NMTAP	59	144	2
NMTAP	59	144	3
NMTTP	59	192	3	E	1	M1
CNSCL	59	264	7	0	72	3
NMTAP	59	336	1
NMTAP	60	0	0
NMTAP	60	24	0
NMTAP	60	48	6
NMTAP	60	72	6
NMTAP	60	96	4
NMTAP	60	120	4
NMTAP	60	144	2
NMTAP	60	168	2
NMTAP	60	192	0
NMTAP	60	216	0
NMTAP	60	240	3
NMTAP	60	264	3
NMTAP	60	288	4
NMTAP	60	312	4
NMTAP	60	336	7
NMTAP	60	360	7
NMSTR	61	0	1
NMSI_	61	0	1	96	48	7
NMSTR	61	48	5
NMSI_	61	48	5	96	48	3
NMSTR	61	96	1
NMSI_	61	96	1	96	48	4
NMSTR	61	144	5
NMSI_	61	144	5	96	48	0
NMSTR	61	192	1
NMSCL	61	192	1	96	48	6
NMTAP	61	240	5
NMTAP	61	288	1
NMTAP	61	336	3
BRTAP	62	0	0
BRTAP	62	0	4
NMTAP	62	48	1
NMSTR	62	96	2
NMSCL	62	96	2	96	72	0
NMTAP	62	96	3
NMTAP	62	144	2
NMTAP	62	144	3
NMTAP	62	192	4
NMTAP	62	240	5
CNSUR	62	264	0	0	48	4
NMTAP	62	288	6
NMTAP	62	336	7
NMTAP	63	0	4
NMTAP	63	0	6
NMTAP	63	48	0
NMTAP	63	96	1
NMSTR	63	96	3
NMSI_	63	96	3	96	48	7
NMSTR	63	144	7
NMSI_	63	144	7	96	48	3
NMTAP	63	192	2
NMTAP	63	240	2
NMSTR	63	288	1
NMSI_	63	288	1	96	48	5
NMSCR	63	288	1	96	16	2
NMTAP	63	336	0
NMTTP	64	0	1	A	1	M1
CNSI_	64	16	2	0	32	4
NMHLD	64	96	6	96
NMHLD	64	192	3	96
NMTTP	64	240	4	E	0	M1
NMHLD	64	288	5	96
NMTTP	64	336	5	E	0	M1
NMHLD	65	0	2	96
NMTTP	65	48	3	E	0	M1
NMHLD	65	96	4	96
NMTTP	65	144	4	E	0	M1
NMHLD	65	192	1	96
NMTTP	65	240	2	E	0	M1
NMTAP	65	288	3
NMTAP	65	336	1
NMTAP	65	336	4
BRTAP	66	0	0
BRTAP	66	0	5
NMTAP	66	48	6
NMTAP	66	80	6
NMTAP	66	96	4
NMSTR	66	144	1
NMSCR	66	144	1	96	24	2
NMTAP	66	176	1
NMTAP	66	192	3
NMHLD	66	240	5	144
CNSI_	66	264	2	0	24	4
CNSI_	66	288	4	0	48	7
NMTAP	67	0	1
NMTAP	67	32	1
NMTAP	67	48	3
NMSTR	67	96	6
NMSXL	67	96	6	96	96	4
NMTAP	67	128	6
NMTAP	67	144	4
NMTAP	67	192	3
NMTAP	67	288	2
EXTAP	67	336	2
EXTAP	67	336	3
NMTAP	68	0	1
NMTAP	68	24	1
NMTAP	68	48	7
NMTAP	68	72	7
NMTAP	68	96	5
NMTAP	68	120	5
NMTAP	68	144	3
NMTAP	68	168	3
NMTAP	68	192	1
NMTAP	68	216	1
NMTAP	68	240	7
NMTAP	68	264	7
NMTAP	68	288	5
NMTAP	68	312	5
NMTAP	68	336	3
NMSTR	69	0	4
NMSI_	69	0	4	96	48	6
NMSTR	69	48	4
NMSI_	69	48	4	96	48	2
EXSTR	69	96	4
NMSI_	69	96	4	96	48	7
EXSTR	69	144	4
NMSI_	69	144	4	96	48	1
EXSTR	69	192	4
NMSI_	69	192	4	96	48	0
EXTAP	69	240	4
EXTAP	69	288	4
EXTAP	69	336	1
NMTAP	70	0	7
NMTAP	70	24	7
NMTAP	70	48	4
NMTAP	70	72	4
NMTAP	70	96	5
NMTAP	70	120	5
NMTAP	70	144	2
NMSTR	70	168	2
NMSXL	70	168	2	96	48	3
NMTAP	70	192	3
NMSTR	70	216	3
NMSCL	70	216	3	96	56	6
NMTAP	70	264	4
NMTAP	71	0	5
NMTAP	71	32	5
NMTAP	71	48	7
NMTAP	71	96	2
NMTAP	71	128	2
NMTAP	71	144	0
NMTAP	71	192	3
NMTAP	71	224	3
NMTAP	71	240	5
NMTAP	71	272	5
NMSTR	71	288	7
NMSCR	71	288	7	96	48	2
NMSUR	71	288	7	96	48	3
NMTAP	71	336	0
NMTAP	71	336	6
NMTTP	72	0	7	A	1	M1
NMSTR	72	96	3
NMSI_	72	96	3	96	48	6
NMSTR	72	192	1
NMSI_	72	192	1	96	48	4
NMTAP	72	192	3
NMTAP	72	240	0
NMTAP	72	288	1
NMSTR	72	288	7
NMSI_	72	288	7	96	48	2
NMTAP	72	336	6
NMSTR	73	0	5
NMSI_	73	0	5	96	48	0
NMTAP	73	0	7
NMTAP	73	48	4
NMTAP	73	96	3
NMTAP	73	96	5
NMTAP	73	144	2
BRHLD	73	192	1	96
BRHLD	73	192	7	456
NMTAP	74	264	2
NMTAP	74	288	3
NMSTR	74	288	6
NMSCL	74	288	6	96	96	0
NMTAP	74	312	4
NMTAP	74	312	5
NMTAP	74	360	7
BRTAP	75	0	7

T_REC_TAP	411
T_REC_BRK	18
T_REC_XTP	5
T_REC_BXX	0
T_REC_HLD	28
T_REC_XHO	0
T_REC_BHO	2
T_REC_BXH	0
T_REC_STR	86
T_REC_BST	0
T_REC_XST	4
T_REC_XBS	0
T_REC_TTP	49
T_REC_THO	0
T_REC_SLD	93
T_REC_BSL	1
T_REC_ALL	697
T_NUM_TAP	555
T_NUM_BRK	21
T_NUM_HLD	28
T_NUM_SLD	93
T_NUM_ALL	697
T_JUDGE_TAP	573
T_JUDGE_HLD	211
T_JUDGE_SLD	94
T_JUDGE_ALL	878
TTM_EACHPAIRS	113
TTM_SCR_TAP	277500
TTM_SCR_BRK	54600
TTM_SCR_HLD	28000
TTM_SCR_SLD	139500
TTM_SCR_ALL	499600
TTM_SCR_S	482600
TTM_SCR_SS	497500
TTM_RAT_ACV	10042

