VERSION	0.00.00	1.04.00
FES_MODE	0
BPM_DEF	118.000	118.000	118.000	118.000
MET_DEF	4	4
RESOLUTION	384
CLK_DEF	384
COMPATIBLE_CODE	MA2

BPM	0	0	118.000
MET	0	0	4	4

NMHLD	1	0	0	48
NMHLD	1	192	6	48
NMHLD	2	0	2	48
NMHLD	2	192	4	48
NMTAP	2	288	3
NMHLD	3	0	5	48
NMHLD	3	192	3	48
NMHLD	4	0	6	96
NMHLD	4	96	4	96
NMHLD	4	192	3	96
NMTAP	4	288	1
NMSTR	5	0	7
NMSCL	5	0	7	96	96	4
NMTAP	5	192	2
NMTAP	5	288	1
NMSTR	6	0	0
NMSCR	6	0	0	96	96	3
NMTAP	6	192	5
NMTAP	6	288	6
NMSTR	7	0	7
NMSCL	7	0	7	96	96	4
NMTAP	7	192	2
NMTAP	7	288	1
NMHLD	8	0	1	96
NMHLD	8	96	3	96
NMHLD	8	192	4	96
NMTAP	8	288	6
NMTAP	9	0	5
NMTAP	9	48	5
NMTAP	9	96	3
NMTAP	9	192	2
NMTAP	9	192	4
NMTAP	9	288	2
NMTAP	9	288	4
NMTAP	10	0	1
NMTAP	10	48	1
NMTAP	10	96	3
NMTAP	10	192	2
NMTAP	10	192	4
NMTAP	10	288	3
NMTAP	10	288	5
NMTAP	11	0	6
NMTAP	11	48	6
NMTAP	11	96	4
NMTAP	11	192	3
NMTAP	11	192	5
NMTAP	11	288	2
NMTAP	11	288	4
NMSTR	12	0	1
NMSI_	12	0	1	96	96	5
NMSTR	12	192	7
NMSCL	12	192	7	96	96	4
NMHLD	13	0	1	96
NMTAP	13	96	3
NMTAP	13	144	3
NMTAP	13	192	2
NMTAP	13	288	4
NMTAP	13	288	5
NMHLD	14	0	6	96
NMTAP	14	96	4
NMTAP	14	144	4
NMTAP	14	192	5
NMTAP	14	288	2
NMTAP	14	288	3
NMHLD	15	0	1	96
NMTAP	15	96	3
NMTAP	15	144	3
NMTAP	15	192	2
NMTAP	15	288	4
NMTAP	15	288	5
NMTAP	16	0	4
NMTAP	16	0	5
NMTAP	16	96	6
NMTAP	16	96	7
NMTAP	16	192	0
NMTAP	16	192	1
NMHLD	16	288	2	480
NMSTR	16	288	3
NMSCL	16	288	3	96	384	4
NMTAP	18	192	2
NMTAP	18	192	4
NMTAP	18	288	2
NMTAP	18	288	4
NMHLD	19	0	5	192
NMHLD	19	192	7	192
NMHLD	20	0	0	192
NMTAP	20	192	2
NMTAP	21	0	1
NMTAP	21	48	1
NMTAP	21	96	3
NMTAP	21	192	2
NMTAP	21	192	4
NMTAP	21	288	3
NMTAP	21	288	5
NMTAP	22	0	6
NMTAP	22	48	6
NMTAP	22	96	4
NMTAP	22	192	3
NMTAP	22	192	5
NMTAP	22	288	2
NMTAP	22	288	4
NMTAP	23	0	1
NMTAP	23	48	1
NMTAP	23	96	3
NMTAP	23	192	2
NMTAP	23	192	4
NMTAP	23	288	3
NMTAP	23	288	5
NMSTR	24	0	6
NMSI_	24	0	6	96	96	2
NMSTR	24	192	0
NMSCR	24	192	0	96	96	3
NMHLD	25	0	5	96
NMTAP	25	96	7
NMTAP	25	144	7
NMTAP	25	192	6
NMTAP	25	288	0
NMTAP	25	288	1
NMHLD	26	0	2	96
NMTAP	26	96	0
NMTAP	26	144	0
NMTAP	26	192	1
NMTAP	26	288	6
NMTAP	26	288	7
NMHLD	27	0	5	96
NMTAP	27	96	7
NMTAP	27	144	7
NMTAP	27	192	6
NMTAP	27	288	0
NMTAP	27	288	1
NMTAP	28	0	0
NMTAP	28	0	1
NMTAP	28	96	2
NMTAP	28	96	3
NMTAP	28	192	4
NMTAP	28	192	5
NMTAP	28	288	6
NMTAP	28	288	7
NMSTR	29	0	5
NMSCR	29	0	5	96	96	0
NMTAP	29	48	5
NMTAP	29	192	1
NMTAP	29	288	2
NMSTR	30	0	3
NMSCL	30	0	3	96	96	0
NMTAP	30	48	3
NMTAP	30	192	7
NMTAP	30	288	6
NMSTR	31	0	5
NMSCR	31	0	5	96	96	0
NMTAP	31	48	5
NMTAP	31	192	1
NMTAP	31	288	2
NMHLD	32	0	2	96
NMHLD	32	96	0	96
NMHLD	32	192	7	96
NMTAP	32	288	5
NMSTR	33	0	2
NMSCL	33	0	2	96	96	7
NMTAP	33	48	2
NMTAP	33	192	6
NMTAP	33	288	5
NMSTR	34	0	4
NMSCR	34	0	4	96	96	7
NMTAP	34	48	4
NMTAP	34	192	0
NMTAP	34	288	1
NMSTR	35	0	2
NMSCL	35	0	2	96	96	7
NMTAP	35	48	2
NMTAP	35	192	6
NMTAP	35	288	5
EXTAP	36	0	4
EXTAP	36	0	6
EXTAP	36	72	4
EXTAP	36	72	6
EXTAP	36	144	1
EXTAP	36	144	3
EXTAP	36	216	1
EXTAP	36	216	3
BXTAP	36	288	2
BXTAP	36	288	4
NMTAP	37	0	2
NMTAP	37	48	3
NMTAP	37	96	4
NMTAP	37	144	5
NMHLD	37	192	6	96
NMTAP	37	288	4
NMTAP	37	336	4
NMSTR	38	0	7
NMSI_	38	0	7	96	96	3
NMTAP	38	48	7
NMSTR	38	192	0
NMSCR	38	192	0	96	96	3
NMTAP	38	240	0
NMTAP	39	0	5
NMTAP	39	48	4
NMTAP	39	96	3
NMTAP	39	144	2
NMHLD	39	192	1	96
NMTAP	39	288	3
NMTAP	39	336	3
NMTAP	40	0	2
NMTAP	40	48	3
NMTAP	40	96	4
NMTAP	40	192	3
NMTAP	40	192	5
NMTAP	40	288	2
NMTAP	40	288	4
NMTAP	41	0	5
NMTAP	41	48	4
NMTAP	41	96	3
NMTAP	41	144	2
NMHLD	41	192	1	96
NMTAP	41	288	3
NMTAP	41	336	3
NMSTR	42	0	0
NMSI_	42	0	0	96	96	4
NMTAP	42	48	0
NMSTR	42	192	7
NMSCL	42	192	7	96	96	4
NMTAP	42	240	7
NMHLD	43	0	2	96
NMTAP	43	96	4
NMHLD	43	192	6	96
NMTAP	43	288	4
NMTAP	43	336	4
NMTAP	44	0	5
NMTAP	44	48	4
NMTAP	44	96	3
NMTAP	44	144	2
NMTAP	44	192	1
NMTTP	44	288	4	E	0	M1
NMSTR	45	0	6
NMSI_	45	0	6	96	96	2
CNSI_	45	192	2	0	96	5
NMSTR	46	0	0
NMSI_	46	0	0	96	96	5
CNSI_	46	192	5	0	96	1
NMSTR	47	0	7
NMSCL	47	0	7	96	96	4
NMSTR	47	192	0
NMSCR	47	192	0	96	96	3
NMHLD	48	0	6	32
NMHLD	48	96	3	32
NMHLD	48	96	5	32
NMHLD	48	192	2	32
NMHLD	48	192	4	32
BRTAP	48	288	1
NMHLD	49	0	0	768
NMTTP	49	192	3	E	0	M1
NMTTP	49	288	2	E	0	M1
NMTTP	50	0	1	E	0	M1
NMTTP	50	96	0	E	0	M1
NMTTP	50	192	7	E	0	M1
NMHLD	51	0	7	768
NMTTP	51	192	5	E	0	M1
NMTTP	51	288	6	E	0	M1
NMTTP	52	0	7	E	0	M1
NMTTP	52	96	0	E	0	M1
NMTTP	52	192	1	E	0	M1
NMTAP	53	0	1
NMHLD	53	96	1	96
NMTAP	53	192	3
NMHLD	53	288	3	96
NMTAP	54	0	4
NMHLD	54	96	4	96
NMTAP	54	192	6
NMHLD	54	288	6	96
NMTAP	55	0	2
NMHLD	55	96	2	96
NMTAP	55	192	0
NMHLD	55	288	0	96
NMTAP	56	0	7
NMHLD	56	96	7	96
NMTAP	56	192	5
NMTAP	56	288	4
NMTAP	56	288	5
NMTAP	57	0	2
NMTAP	57	48	2
NMTAP	57	96	2
NMTAP	57	96	3
NMTAP	57	192	2
NMTAP	57	192	3
NMTAP	57	240	3
NMTAP	57	240	4
NMTAP	57	288	4
NMTAP	57	288	5
NMTAP	58	0	6
NMTAP	58	48	6
NMTAP	58	96	5
NMTAP	58	96	7
NMTAP	58	192	1
NMTAP	58	240	1
NMTAP	58	288	0
NMTAP	58	288	2
NMTAP	59	0	5
NMTAP	59	48	5
NMTAP	59	96	3
NMTAP	59	144	3
NMTAP	59	192	7
NMTAP	59	240	7
NMHLD	59	288	1	96
NMTAP	60	0	3
NMTAP	60	48	3
NMTAP	60	96	0
NMTAP	60	144	0
NMTAP	60	192	6
NMTAP	60	240	6
NMTAP	60	288	4
NMSTR	61	0	3
NMSCL	61	0	3	96	96	0
NMTAP	61	48	3
NMSTR	61	192	4
NMSCR	61	192	4	96	96	7
NMTAP	61	240	4
NMTAP	62	0	1
NMTAP	62	48	1
NMTAP	62	96	0
NMTAP	62	96	2
NMTAP	62	192	6
NMTAP	62	240	6
NMTAP	62	288	5
NMTAP	62	288	7
NMTAP	63	0	2
NMTAP	63	48	2
NMTAP	63	96	4
NMTAP	63	144	4
NMTAP	63	192	0
NMTAP	63	240	0
NMHLD	63	288	6	96
NMTAP	64	0	4
NMHLD	64	96	1	96
NMTAP	64	192	3
NMHLD	64	288	5	96
NMHLD	65	0	7	96
NMHLD	65	96	0	96
NMHLD	65	192	2	96
NMTAP	65	288	5
NMTAP	66	0	7
NMTAP	66	48	7
NMTAP	66	96	4
NMTAP	66	96	6
NMTAP	66	192	0
NMTAP	66	240	0
NMTAP	66	288	1
NMTAP	66	288	3
NMTAP	67	0	6
NMTAP	67	48	6
NMTAP	67	96	4
NMTAP	67	144	4
NMSTR	67	192	7
NMSI_	67	192	7	96	96	3
NMTAP	68	0	1
NMTAP	68	48	1
NMTAP	68	96	3
NMTAP	68	144	3
NMSTR	68	192	0
NMSI_	68	192	0	96	96	4
NMHLD	69	0	5	48
NMHLD	69	96	6	48
NMHLD	69	96	7	48
NMHLD	69	192	0	48
NMHLD	69	192	1	48
NMTAP	69	288	2
NMTAP	70	0	0
NMTAP	70	48	0
NMTAP	70	96	1
NMTAP	70	96	3
NMTAP	70	192	7
NMTAP	70	240	7
NMTAP	70	288	4
NMTAP	70	288	6
NMTAP	71	0	1
NMTAP	71	48	1
NMTAP	71	96	3
NMTAP	71	144	3
NMTAP	71	192	0
NMTAP	71	240	0
NMHLD	71	288	5	96
NMTAP	72	0	7
NMHLD	72	96	2	96
NMTAP	72	192	0
NMHLD	72	288	5	96
NMHLD	73	0	7	96
NMHLD	73	96	0	96
NMHLD	73	192	2	96
NMTHO	73	288	0	480	C	1	M1
NMTTP	75	0	0	B	0	M1
NMTTP	75	0	0	E	0	M1
NMTTP	75	0	7	B	0	M1

T_REC_TAP	249
T_REC_BRK	1
T_REC_XTP	8
T_REC_BXX	2
T_REC_HLD	62
T_REC_XHO	0
T_REC_BHO	0
T_REC_BXH	0
T_REC_STR	26
T_REC_BST	0
T_REC_XST	0
T_REC_XBS	0
T_REC_TTP	14
T_REC_THO	1
T_REC_SLD	26
T_REC_BSL	0
T_REC_ALL	389
T_NUM_TAP	297
T_NUM_BRK	3
T_NUM_HLD	63
T_NUM_SLD	26
T_NUM_ALL	389
T_JUDGE_TAP	300
T_JUDGE_HLD	320
T_JUDGE_SLD	26
T_JUDGE_ALL	646
TTM_EACHPAIRS	52
TTM_SCR_TAP	148500
TTM_SCR_BRK	7800
TTM_SCR_HLD	63000
TTM_SCR_SLD	39000
TTM_SCR_ALL	258300
TTM_SCR_S	250300
TTM_SCR_SS	258000
TTM_RAT_ACV	10011

