VERSION	0.00.00	1.04.00
FES_MODE	0
BPM_DEF	118.000	118.000	118.000	118.000
MET_DEF	4	4
RESOLUTION	384
CLK_DEF	384
COMPATIBLE_CODE	MA2

BPM	0	0	118.000
MET	0	0	4	4

NMTAP	5	0	0
NMTAP	5	192	0
NMTAP	6	0	0
NMTAP	6	0	7
NMTAP	7	0	7
NMTAP	7	192	7
NMTAP	8	0	0
NMTAP	8	0	7
NMTAP	9	0	7
NMTAP	9	192	7
NMTAP	10	0	6
NMTAP	10	192	6
NMTAP	11	0	5
NMTAP	11	192	5
NMTAP	12	0	4
NMTAP	12	0	5
NMTAP	13	0	3
NMTAP	13	192	3
NMTAP	14	0	2
NMTAP	14	192	2
NMTAP	15	0	1
NMTAP	15	192	1
NMTAP	16	0	0
NMTAP	16	0	1
NMSTR	17	0	1
NMSI_	17	0	1	96	288	5
NMSTR	19	0	6
NMSI_	19	0	6	96	288	2
NMTAP	21	0	0
NMTAP	21	192	0
NMTAP	22	0	1
NMTAP	22	192	1
NMTAP	23	0	2
NMTAP	23	192	2
NMTAP	24	0	3
NMTAP	24	0	4
NMTAP	25	0	4
NMTAP	25	192	4
NMTAP	26	0	5
NMTAP	26	192	5
NMTAP	27	0	6
NMTAP	27	192	6
NMTAP	28	0	0
NMTAP	28	0	7
NMHLD	29	0	6	384
NMHLD	29	0	7	384
NMHLD	31	0	4	384
NMHLD	31	0	5	384
NMHLD	33	0	2	384
NMHLD	33	0	3	384
NMHLD	35	0	0	384
NMHLD	35	0	1	384
BXTAP	37	0	0
NMTAP	37	96	0
NMTAP	37	192	0
NMTAP	38	0	1
NMTAP	38	192	1
NMTAP	39	0	2
NMTAP	39	96	2
NMTAP	39	192	2
NMTAP	40	0	3
NMTAP	40	192	3
NMTAP	40	192	4
NMTAP	41	0	4
NMTAP	41	96	4
NMTAP	41	192	4
NMTAP	42	0	5
NMTAP	42	192	5
NMTAP	43	0	6
NMTAP	43	96	6
NMTAP	43	192	6
NMTAP	44	0	7
BRTAP	44	192	0
BRTAP	44	192	7
NMSTR	45	0	7
NMSI_	45	0	7	96	288	3
NMSTR	47	0	0
NMSI_	47	0	0	96	288	4
NMTTP	49	0	7	B	0	L1
NMTTP	50	0	0	B	0	L1
NMTTP	51	0	6	B	0	L1
NMTTP	52	0	1	B	0	L1
NMTTP	53	0	5	B	0	L1
NMTTP	54	0	2	B	0	L1
NMTTP	55	0	4	B	0	L1
NMTTP	56	0	3	B	0	L1
NMTTP	57	0	0	C	0	L1
BXTAP	58	0	0
NMTAP	58	96	0
NMTAP	58	192	0
NMTAP	59	0	1
NMTAP	59	96	1
NMTAP	59	192	1
NMTAP	60	0	2
NMTAP	60	96	2
NMTAP	60	192	2
NMTAP	61	0	2
NMTAP	61	0	3
NMTAP	61	192	2
NMTAP	61	192	3
NMTAP	62	0	4
NMTAP	62	96	4
NMTAP	62	192	4
NMTAP	63	0	5
NMTAP	63	96	5
NMTAP	63	192	5
NMTAP	64	0	6
NMTAP	64	96	6
NMTAP	64	192	6
NMTAP	65	0	6
NMTAP	65	0	7
NMTAP	65	192	6
NMTAP	65	192	7
NMTAP	66	0	7
NMTAP	66	96	7
NMTAP	66	192	7
NMTAP	67	0	6
NMTAP	67	96	6
NMTAP	67	192	6
NMTAP	67	192	7
NMTAP	68	0	5
NMTAP	68	96	5
NMTAP	68	192	5
NMTAP	69	0	4
NMTAP	69	96	4
NMTAP	69	192	3
NMTAP	69	192	4
NMTAP	70	0	3
NMTAP	70	96	3
NMTAP	70	192	3
NMTAP	71	0	2
NMTAP	71	96	2
NMTAP	71	192	2
NMTAP	71	192	3
NMTAP	72	0	1
NMTAP	72	96	1
NMTAP	72	192	1
NMTAP	73	0	0
NMTAP	73	96	0
NMHLD	73	192	0	576
NMHLD	73	192	7	576

T_REC_TAP	110
T_REC_BRK	2
T_REC_XTP	0
T_REC_BXX	2
T_REC_HLD	10
T_REC_XHO	0
T_REC_BHO	0
T_REC_BXH	0
T_REC_STR	4
T_REC_BST	0
T_REC_XST	0
T_REC_XBS	0
T_REC_TTP	9
T_REC_THO	0
T_REC_SLD	4
T_REC_BSL	0
T_REC_ALL	141
T_NUM_TAP	123
T_NUM_BRK	4
T_NUM_HLD	10
T_NUM_SLD	4
T_NUM_ALL	141
T_JUDGE_TAP	127
T_JUDGE_HLD	176
T_JUDGE_SLD	4
T_JUDGE_ALL	307
TTM_EACHPAIRS	20
TTM_SCR_TAP	61500
TTM_SCR_BRK	10400
TTM_SCR_HLD	10000
TTM_SCR_SLD	6000
TTM_SCR_ALL	87900
TTM_SCR_S	84900
TTM_SCR_SS	87500
TTM_RAT_ACV	10045

