VERSION	0.00.00	1.05.00
FES_MODE	0
BPM_DEF	150.000	150.000	150.000	150.000
MET_DEF	4	4
RESOLUTION	384
CLK_DEF	384
COMPATIBLE_CODE	MA2

BPM	0	0	150.000
MET	0	0	4	4
MET	47	0	4	5
MET	48	96	4	4

NMHLD	2	0	1	96
NMHLD	2	96	3	96
NMTAP	2	192	1
NMTAP	2	240	1
NMTAP	2	288	3
NMTAP	2	336	3
NMSTR	3	0	2
NMSXL	3	0	2	96	192	3
NMHLD	4	0	5	96
NMHLD	4	96	4	96
NMTAP	4	192	5
NMTAP	4	240	5
NMTAP	4	288	4
NMTAP	4	336	4
NMSTR	5	0	6
NMSCL	5	0	6	96	192	3
NMHLD	6	0	1	96
NMHLD	6	96	3	96
NMTAP	6	192	1
NMTAP	6	240	1
NMTAP	6	288	3
NMTAP	6	336	3
NMSTR	7	0	2
NMSXL	7	0	2	96	192	3
NMHLD	8	0	5	96
NMHLD	8	96	4	96
NMTAP	8	192	5
NMTAP	8	240	5
NMTAP	8	288	4
NMTAP	8	336	4
NMSTR	9	0	6
NMSI_	9	0	6	96	96	2
BRTAP	9	288	1
BRTAP	9	288	7
NMTAP	10	0	3
NMTAP	10	0	5
NMTAP	10	96	4
NMTAP	10	96	6
NMTAP	10	192	4
NMSTR	10	192	6
NMSV_	10	192	6	96	72	5
NMTAP	10	288	3
NMTAP	10	336	3
CNSI_	10	360	5	0	120	3
NMTAP	11	48	1
NMSTR	11	96	1
NMSLR	11	96	1	96	144	7
BRTAP	11	192	4
NMTAP	11	336	6
NMSTR	12	0	6
NMSI_	12	0	6	96	72	4
NMTAP	12	96	7
NMTAP	12	144	0
NMSTR	12	192	1
NMSI_	12	192	1	96	72	7
NMTAP	12	288	3
NMSTR	12	336	3
NMSI_	12	336	3	96	48	5
NMTAP	13	48	7
CNSV_	13	96	5	0	96	2
NMTAP	13	96	7
NMHLD	13	192	0	144
NMTAP	13	336	2
NMSTR	14	0	2
NMSCR	14	0	2	96	96	5
NMTAP	14	96	0
NMTAP	14	192	1
NMTAP	14	288	2
NMTAP	14	288	6
NMTAP	14	336	5
NMTAP	15	0	4
NMTAP	15	48	3
NMTAP	15	96	2
NMHLD	15	192	1	96
NMHLD	15	192	5	96
NMTAP	16	0	1
NMSTR	16	48	1
NMSI_	16	48	1	96	96	6
NMTAP	16	96	5
NMSTR	16	144	5
NMSI_	16	144	5	96	96	2
NMTAP	16	288	0
NMTAP	17	0	1
NMTAP	17	0	3
NMSTR	17	96	4
NMSI_	17	96	4	96	48	1
NMSI_	17	96	4	96	48	7
NMTAP	17	96	5
EXTAP	17	288	2
EXTAP	17	288	6
BXSTR	18	0	5
NMSI_	18	0	5	96	48	3
NMTAP	18	96	2
NMTAP	18	192	2
NMTAP	18	240	3
NMTAP	18	288	1
NMTAP	18	336	3
EXSTR	19	0	0
NMSCR	19	0	0	96	96	3
NMTAP	19	0	3
NMTAP	19	96	4
NMTAP	19	144	4
NMSTR	19	192	5
NMSCR	19	192	5	96	96	0
NMTAP	19	288	2
NMTAP	19	336	2
NMTAP	20	0	1
NMTTP	20	96	0	E	0	M1
NMTAP	20	96	1
NMTTP	20	96	7	B	0	M1
NMTAP	20	192	1
NMTTP	20	192	3	B	0	M1
NMTTP	20	192	4	E	0	M1
NMTTP	20	288	0	C	0	M1
NMTAP	20	288	1
NMTAP	21	0	0
NMHLD	21	0	1	192
NMTTP	21	96	1	E	0	M1
NMTTP	21	144	2	E	0	M1
NMTTP	21	192	3	E	0	M1
NMTAP	21	288	1
NMTAP	21	288	4
BXSTR	22	0	2
NMSI_	22	0	2	96	48	4
NMTAP	22	96	5
NMTAP	22	192	5
NMTAP	22	240	4
NMTAP	22	288	6
NMTAP	22	336	4
NMTAP	23	0	4
EXSTR	23	0	7
NMSI_	23	0	7	96	96	3
NMTAP	23	96	2
NMTAP	23	144	2
NMSTR	23	192	1
NMSI_	23	192	1	96	96	4
NMTAP	23	288	5
NMTAP	23	336	5
NMTAP	24	0	6
NMTTP	24	96	4	B	0	M1
NMTTP	24	96	4	E	0	M1
NMTAP	24	96	6
NMTTP	24	192	0	B	0	M1
NMTTP	24	192	0	E	0	M1
NMTAP	24	192	6
NMTTP	24	288	0	C	0	M1
NMTAP	24	288	6
NMSTR	25	0	0
NMSI_	25	0	0	96	96	4
NMSTR	25	0	6
NMSI_	25	0	6	96	96	2
EXTAP	25	288	0
EXTAP	25	288	7
NMSTR	26	0	2
NMSCR	26	0	2	96	192	5
NMHLD	26	0	4	576
NMSTR	27	0	5
NMSCL	27	0	5	96	192	2
NMSTR	28	0	4
NMSXL	28	0	4	96	192	4
NMSXR	28	0	4	96	192	4
NMTAP	29	0	3
NMTAP	29	96	2
NMTAP	29	96	4
NMTAP	29	192	5
NMTAP	29	288	4
NMTAP	29	288	6
NMTAP	30	0	0
NMTAP	30	48	0
NMTAP	30	96	1
NMTAP	30	96	7
NMTAP	30	192	3
NMTAP	30	192	5
NMSTR	30	288	2
NMSCL	30	288	2	96	192	4
NMTAP	30	288	6
NMTTP	31	0	4	B	1	M1
NMTAP	31	144	2
NMHLD	31	192	3	96
NMSTR	31	288	2
NMSCL	31	288	2	96	192	4
BXTAP	32	0	4
NMTAP	32	144	2
EXTAP	32	192	3
NMTAP	32	288	4
NMTAP	32	336	4
NMTAP	33	0	3
NMTAP	33	0	5
NMTAP	33	48	6
NMTAP	33	96	0
NMTAP	33	96	7
NMTAP	33	144	1
NMTAP	33	192	2
NMSTR	33	192	3
NMSI_	33	192	3	96	48	0
NMTAP	33	240	4
NMTAP	33	288	5
NMTAP	34	0	6
NMTAP	34	0	7
NMTAP	34	96	0
NMTAP	34	96	1
NMTAP	34	144	0
NMTAP	34	144	1
BRTAP	34	192	2
BRTAP	34	192	6
NMSTR	34	288	5
NMSCR	34	288	5	96	192	3
NMTTP	35	0	3	B	1	M1
NMTAP	35	144	5
NMHLD	35	192	4	96
NMSTR	35	288	5
NMSCR	35	288	5	96	192	3
BXTAP	36	0	3
NMTAP	36	144	5
NMTAP	36	192	4
NMSTR	36	288	3
NMSLL	36	288	3	96	96	7
NMSTR	37	0	7
NMSLL	37	0	7	96	96	3
NMSTR	37	96	3
NMSLL	37	96	3	96	96	7
NMSTR	37	192	7
NMSLL	37	192	7	96	96	3
NMSTR	37	288	3
NMSXL	37	288	3	96	144	7
NMSXR	37	288	3	96	144	7
BXTAP	38	192	1
BXTAP	38	192	5
NMSTR	38	288	2
NMSCL	38	288	2	96	192	4
NMTTP	39	0	4	B	1	M1
NMTAP	39	144	2
NMHLD	39	192	3	96
NMSTR	39	288	2
NMSCL	39	288	2	96	192	4
BXTAP	40	0	4
NMTAP	40	144	2
NMTAP	40	192	3
NMTAP	40	288	2
NMSTR	41	0	0
NMSI_	41	0	0	96	48	4
NMSTR	41	0	1
NMSI_	41	0	1	96	48	3
EXTAP	41	96	0
EXTAP	41	96	1
NMSTR	41	192	6
NMSI_	41	192	6	96	48	4
NMSTR	41	192	7
NMSI_	41	192	7	96	48	3
EXTAP	41	288	6
EXTAP	41	288	7
NMSTR	42	0	0
NMSCL	42	0	0	96	48	5
NMSTR	42	0	1
NMSCR	42	0	1	96	48	4
NMTAP	42	96	0
NMTAP	42	96	1
BRTAP	42	192	3
BRTAP	42	192	7
NMTAP	42	336	0
NMTAP	42	336	6
NMTAP	43	0	0
NMTAP	43	0	6
NMTAP	43	48	1
NMTAP	43	96	2
NMTAP	43	96	3
NMTAP	43	144	4
NMSTR	43	192	3
NMSI_	43	192	3	96	48	7
NMTAP	43	192	5
NMTAP	43	336	6
NMHLD	44	0	6	72
NMHLD	44	72	5	72
NMTAP	44	144	4
NMHLD	44	192	3	72
NMHLD	44	264	2	72
NMSTR	44	336	1
NMSSR	44	336	1	96	144	5
NMTAP	45	0	1
NMSTR	45	240	7
NMSUR	45	240	7	96	144	0
NMTAP	45	288	7
NMHLD	45	336	1	240
CNSCR	46	96	0	0	96	4
BRTAP	46	288	3
BRTAP	46	288	7
NMTHO	47	0	0	288	C	0	M1
NMTTP	47	0	2	B	0	M1
NMTTP	47	0	2	E	0	M1
NMTTP	47	0	3	E	0	M1
EXSTR	48	0	0
NMSCR	48	0	0	96	192	6
NMTTP	48	96	0	E	1	M1
NMSTR	48	192	6
NMSCL	48	192	6	96	192	0
NMTAP	48	288	7
NMSTR	49	0	0
NMSSL	49	0	0	96	96	4
NMTAP	49	96	7
NMTAP	49	192	7
NMTAP	49	288	3
NMTAP	49	288	5
NMTAP	50	0	5
NMTAP	50	48	5
NMTAP	50	96	4
NMTAP	50	96	6
NMTAP	50	144	7
NMTAP	50	192	0
NMTAP	50	192	1
NMTAP	50	240	2
NMSTR	50	288	3
NMSI_	50	288	3	96	48	7
NMTAP	50	288	5
NMTAP	51	0	3
NMSTR	51	0	6
NMSI_	51	0	6	96	48	2
NMSTR	51	96	0
NMSI_	51	96	0	96	48	3
NMSI_	51	96	0	96	48	5
NMTAP	51	96	6
NMTAP	51	192	0
BXTAP	51	288	2
BXTAP	51	288	6
NMSTR	52	0	7
NMSCL	52	0	7	96	192	1
NMTTP	52	96	0	E	1	M1
NMSTR	52	192	1
NMSCR	52	192	1	96	192	7
NMTAP	52	288	0
NMSTR	53	0	7
NMSSR	53	0	7	96	96	3
NMTAP	53	96	0
NMTAP	53	192	0
NMTAP	53	288	2
NMTAP	53	288	4
NMTAP	54	0	1
NMSTR	54	0	3
NMSLR	54	0	3	96	96	7
NMSTR	54	96	7
NMSLR	54	96	7	96	96	3
NMSTR	54	192	3
NMSLR	54	192	3	96	96	7
NMSTR	54	288	7
NMSLR	54	288	7	96	96	3
NMSTR	55	0	3
NMSXL	55	0	3	96	144	7
NMSXR	55	0	3	96	144	7
BRTAP	55	288	1
BRTAP	55	288	5
NMSTR	56	0	0
BRSCR	56	0	0	96	192	6
NMTTP	56	96	0	E	1	M1
NMSTR	56	192	6
BRSCL	56	192	6	96	192	0
NMTAP	56	288	7
NMSTR	57	0	0
BRSF_	57	0	0	96	96	4
EXTAP	57	288	2
EXTAP	57	288	6
NMTAP	58	0	1
NMTAP	58	0	5
NMTAP	58	48	1
NMTAP	58	48	5
NMSTR	58	96	2
NMSI_	58	96	2	96	48	7
NMSTR	58	96	6
NMSI_	58	96	6	96	48	3
NMTAP	58	192	2
NMTAP	58	192	6
NMSTR	58	288	1
NMSI_	58	288	1	96	48	4
NMSTR	58	288	5
NMSI_	58	288	5	96	48	0
NMTAP	59	0	1
NMTAP	59	0	5
NMSTR	59	96	2
NMSXR	59	96	2	96	96	3
NMSTR	59	96	6
NMSXR	59	96	6	96	96	7
BRTAP	60	0	1
BRTAP	60	0	5
NMTAP	60	96	6
NMTAP	60	96	7
NMTAP	60	144	5
NMTAP	60	192	3
NMTAP	60	192	4
NMTAP	60	240	2
NMTAP	60	288	0
NMSTR	60	288	1
NMSCR	60	288	1	96	48	4
NMTAP	61	48	5
NMHLD	61	96	5	72
NMHLD	61	168	6	72
NMTAP	61	240	7
NMHLD	61	288	0	72
NMHLD	61	360	1	72
NMSTR	62	48	2
NMSUL	62	48	2	96	144	7
NMTAP	62	96	2
NMSTR	62	336	6
NMSLL	62	336	6	96	144	0
NMSTR	63	0	6
NMSI_	63	0	6	96	48	1
NMTAP	63	48	6
CNSI_	63	144	1	0	48	3
NMTAP	63	288	2
NMTAP	63	288	7
NMSTR	64	0	0
NMSI_	64	0	0	96	48	4
NMTAP	64	0	5
NMTAP	64	96	0
NMSTR	64	96	7
NMSI_	64	96	7	96	48	3
NMSTR	64	192	0
NMSCL	64	192	0	96	48	5
NMSTR	64	192	7
NMSCR	64	192	7	96	48	2
NMTAP	64	288	0
NMTAP	64	288	7
NMTAP	65	48	1
NMTAP	65	48	3
EXTAP	65	96	1
EXTAP	65	96	3
NMTAP	65	168	0
NMTAP	65	168	7
NMTAP	65	240	4
NMTAP	65	240	6
NMTAP	65	288	3
NMTAP	65	288	4
NMTAP	65	360	1
NMTAP	65	360	3
NMSTR	66	48	6
BRSUR	66	48	6	96	144	0
NMTAP	66	48	7
NMHLD	66	96	0	288
NMTAP	66	96	5
CNSCR	66	288	0	0	120	5
NMSTR	67	96	1
NMSV_	67	96	1	96	48	4
NMSTR	67	144	5
NMSUR	67	144	5	96	48	1
NMTAP	67	192	1
NMTAP	67	240	5
BRTAP	68	0	0
BRTAP	68	0	3
EXTAP	68	96	1
EXHLD	68	96	5	72
NMTAP	68	168	7
NMTAP	68	192	7
NMTAP	68	240	6
NMTAP	68	288	0
NMTAP	68	288	7
NMTAP	68	336	1
NMTAP	69	0	0
NMTAP	69	0	2
NMHLD	69	96	2	72
NMTAP	69	168	0
NMTAP	69	192	0
NMTAP	69	240	1
NMTAP	69	288	0
NMTAP	69	288	7
NMTAP	69	336	6
NMTAP	70	0	5
NMTAP	70	0	7
NMHLD	70	96	5	72
NMTAP	70	168	4
NMTAP	70	192	5
NMTAP	70	240	3
NMTAP	70	240	6
NMTAP	70	288	2
NMTAP	70	288	7
NMTAP	70	336	0
NMTAP	70	336	1
NMSTR	71	0	2
NMSCL	71	0	2	96	48	7
NMTAP	71	96	2
NMSTR	71	96	5
NMSCL	71	96	5	96	48	2
NMSTR	71	192	0
NMSF_	71	192	0	96	48	4
NMTAP	71	192	5
NMTAP	71	288	0
EXTAP	72	0	2
EXTAP	72	0	6
NMHLD	72	96	2	72
NMTAP	72	168	3
NMTAP	72	192	3
NMTAP	72	240	1
NMTAP	72	288	0
NMTAP	72	288	7
NMTAP	72	336	6
NMTAP	73	0	4
NMTAP	73	0	5
NMHLD	73	96	5	72
NMTAP	73	168	4
NMTAP	73	192	4
NMTAP	73	240	6
NMTAP	73	288	0
NMTAP	73	288	7
NMTAP	73	336	1
NMTAP	74	0	2
NMTAP	74	0	3
NMHLD	74	96	1	72
NMTAP	74	168	3
NMTAP	74	192	2
NMTAP	74	240	3
NMTAP	74	240	4
NMTAP	74	288	5
NMTAP	74	336	6
NMTAP	75	0	4
NMSTR	75	0	7
NMSI_	75	0	7	96	48	4
NMSI_	75	0	7	96	48	5
NMSTR	75	96	7
NMSI_	75	96	7	96	48	1
NMSI_	75	96	7	96	48	2
NMSTR	75	192	7
NMSI_	75	192	7	96	48	3
NMTAP	75	288	7
NMTAP	76	0	1
NMTAP	76	0	5
BXHLD	76	96	2	72
NMTAP	76	168	0
NMTAP	76	192	2
NMTAP	76	240	1
NMTAP	76	240	7
NMSTR	76	288	0
NMSI_	76	288	0	96	48	4
NMSTR	76	288	6
NMSI_	76	288	6	96	48	4
NMTAP	77	0	0
NMTAP	77	0	6
NMHLD	77	96	5	72
NMTAP	77	168	7
NMTAP	77	192	5
NMTAP	77	240	0
NMTAP	77	240	6
NMSTR	77	288	1
NMSI_	77	288	1	96	48	3
NMSTR	77	288	7
NMSI_	77	288	7	96	48	3
NMTAP	78	0	1
NMTAP	78	0	7
NMHLD	78	96	2	72
NMTAP	78	168	3
NMTAP	78	192	2
NMTAP	78	240	1
NMTAP	78	240	4
NMTAP	78	288	0
NMTAP	78	288	5
NMTAP	78	336	6
NMTAP	78	336	7
NMSTR	79	0	0
NMSCR	79	0	0	96	96	4
NMTAP	79	0	5
NMSTR	79	96	4
NMSCR	79	96	4	96	96	0
NMSTR	79	192	0
NMSI_	79	192	0	96	48	4
NMTAP	80	0	3
NMTAP	80	0	5
NMHLD	80	96	1	72
NMTAP	80	168	0
NMTAP	80	192	0
NMTAP	80	240	0
NMTAP	80	240	7
NMSTR	80	288	6
NMSI_	80	288	6	96	48	4
NMSTR	80	288	7
NMSI_	80	288	7	96	48	3
NMTAP	80	336	5
NMTAP	81	0	6
NMTAP	81	0	7
NMHLD	81	96	6	72
NMTAP	81	168	7
NMTAP	81	192	7
NMTAP	81	240	0
NMTAP	81	240	7
NMSTR	81	288	0
NMSI_	81	288	0	96	48	4
NMSTR	81	288	1
NMSI_	81	288	1	96	48	3
NMTAP	81	336	2
NMTAP	82	0	0
NMTAP	82	0	1
NMHLD	82	96	5	72
NMTAP	82	168	4
NMTAP	82	192	4
NMTAP	82	240	3
NMTAP	82	240	6
NMSTR	82	288	2
NMSI_	82	288	2	96	48	0
NMSTR	82	288	7
NMSI_	82	288	7	96	48	3
NMTAP	83	0	2
NMTAP	83	0	7
NMHLD	83	96	1	288
NMSTR	83	96	5
NMSCR	83	96	5	96	96	1
CNSCL	83	288	1	0	96	5
NMHLD	84	96	0	96
NMHLD	84	192	3	96
NMTAP	84	288	1
NMTAP	84	336	1
NMTAP	85	0	3
NMTAP	85	48	3
NMSTR	85	96	2
NMSXR	85	96	2	96	192	3
NMHLD	86	96	5	96
NMHLD	86	192	4	96
NMTAP	86	288	6
NMTAP	86	336	6
NMTAP	87	0	5
NMTAP	87	48	5
NMSTR	87	96	7
NMSXR	87	96	7	96	192	4
NMHLD	88	96	1	72
NMHLD	88	192	3	72
NMTAP	88	288	4
NMHLD	88	336	4	72
NMTAP	89	0	6
NMHLD	89	48	6	24
NMTAP	89	96	5
NMSTR	89	192	5
BRSI_	89	192	5	96	48	2
NMSTR	89	192	6
BRSI_	89	192	6	96	48	1
NMTTP	89	312	0	C	0	M1

T_REC_TAP	300
T_REC_BRK	15
T_REC_XTP	16
T_REC_BXX	7
T_REC_HLD	45
T_REC_XHO	1
T_REC_BHO	0
T_REC_BXH	1
T_REC_STR	98
T_REC_BST	0
T_REC_XST	3
T_REC_XBS	2
T_REC_TTP	23
T_REC_THO	1
T_REC_SLD	104
T_REC_BSL	6
T_REC_ALL	622
T_NUM_TAP	440
T_NUM_BRK	31
T_NUM_HLD	47
T_NUM_SLD	104
T_NUM_ALL	622
T_JUDGE_TAP	464
T_JUDGE_HLD	123
T_JUDGE_SLD	110
T_JUDGE_ALL	697
TTM_EACHPAIRS	117
TTM_SCR_TAP	220000
TTM_SCR_BRK	80600
TTM_SCR_HLD	47000
TTM_SCR_SLD	156000
TTM_SCR_ALL	503600
TTM_SCR_S	485500
TTM_SCR_SS	500500
TTM_RAT_ACV	10061

