VERSION	0.00.00	1.04.00
FES_MODE	0
BPM_DEF	150.000	150.000	150.000	150.000
MET_DEF	4	4
RESOLUTION	384
CLK_DEF	384
COMPATIBLE_CODE	MA2

BPM	0	0	150.000
MET	0	0	4	4
MET	47	0	4	5
MET	48	96	4	4

NMTAP	2	0	3
NMTAP	2	0	4
NMTAP	2	96	2
NMTAP	2	192	1
NMTAP	2	240	1
NMTAP	2	288	3
NMSTR	3	0	2
NMSCR	3	0	2	96	192	5
NMTAP	4	0	5
NMTAP	4	96	4
NMTAP	4	96	5
NMTAP	4	192	6
NMTAP	4	240	6
NMTAP	4	288	4
NMSTR	5	0	5
NMSCR	5	0	5	96	192	0
NMTAP	6	0	2
NMTAP	6	96	2
NMTAP	6	96	3
NMTAP	6	192	1
NMTAP	6	240	1
NMTAP	6	288	3
NMSTR	7	0	2
NMSCR	7	0	2	96	192	5
NMTAP	8	0	5
NMTAP	8	96	4
NMTAP	8	96	5
NMTAP	8	192	6
NMTAP	8	240	6
NMTAP	8	288	4
NMHLD	9	0	3	96
NMHLD	9	0	5	96
BRTAP	9	192	2
BRTAP	9	192	6
NMTAP	10	0	2
NMHLD	10	96	2	576
NMTTP	10	288	3	E	0	M1
NMTTP	11	96	4	E	0	M1
NMTAP	11	288	4
NMTAP	12	0	5
NMHLD	12	96	5	576
NMTTP	12	288	5	E	0	M1
NMTTP	13	96	4	E	0	M1
NMTAP	13	288	3
NMTAP	14	0	2
NMHLD	14	96	1	576
NMTTP	14	288	3	E	0	M1
NMTTP	15	96	4	E	0	M1
NMTAP	15	288	3
NMTAP	16	0	2
NMTAP	16	0	4
NMTAP	16	96	2
NMTAP	16	96	4
NMTAP	16	192	3
NMTAP	16	192	5
NMTAP	16	288	3
NMTAP	16	288	5
NMTAP	17	0	2
NMTAP	17	0	4
NMSTR	17	96	1
NMSI_	17	96	1	96	96	6
NMSTR	17	96	5
NMSI_	17	96	5	96	96	2
NMSTR	18	0	0
NMSUR	18	0	0	96	96	4
NMTAP	18	192	5
NMTAP	18	288	4
NMTAP	18	288	5
NMTAP	19	0	3
NMSTR	19	0	6
NMSCL	19	0	6	96	96	3
NMTAP	19	192	2
NMTAP	19	288	2
NMTAP	19	288	3
NMHLD	20	0	1	192
NMTAP	20	96	0
NMHLD	20	192	6	192
NMTAP	20	288	7
NMTAP	21	0	0
NMTAP	21	96	1
NMTAP	21	96	5
NMTAP	21	192	1
NMTAP	21	192	5
NMSTR	22	0	7
NMSUL	22	0	7	96	96	3
NMTAP	22	192	2
NMTAP	22	288	2
NMTAP	22	288	3
NMSTR	23	0	1
NMSCR	23	0	1	96	96	4
NMTAP	23	192	5
NMTAP	23	288	4
NMTAP	23	288	5
NMHLD	24	0	2	192
NMTAP	24	96	0
NMHLD	24	192	5	192
NMTAP	24	288	7
NMHLD	25	0	0	96
NMTAP	25	96	7
BRTAP	25	192	1
BRTAP	25	192	6
NMSTR	26	0	5
NMSUL	26	0	5	96	288	3
NMSTR	27	0	1
NMSUR	27	0	1	96	288	4
NMSTR	28	0	7
NMSUL	28	0	7	96	288	4
NMTAP	29	0	2
NMTAP	29	96	2
NMTAP	29	96	3
NMTAP	29	192	3
NMTAP	29	192	4
NMTAP	29	288	4
NMTAP	29	288	5
NMTAP	30	0	6
NMTAP	30	48	6
NMTAP	30	96	4
NMTAP	30	192	6
NMTAP	30	192	7
NMSTR	30	288	0
NMSCL	30	288	0	96	96	5
NMSTR	30	288	1
NMSUL	30	288	1	96	96	4
NMTAP	31	192	6
NMTAP	31	192	7
NMSTR	31	288	0
NMSCL	31	288	0	96	96	4
NMSTR	31	288	1
NMSUL	31	288	1	96	96	4
NMTAP	32	192	4
NMTAP	32	192	5
NMTAP	32	288	6
NMTAP	32	336	6
NMTAP	33	0	6
NMTAP	33	0	7
NMTAP	33	96	0
NMTAP	33	96	1
NMTAP	33	192	2
NMTAP	33	192	3
NMHLD	33	288	4	288
NMSTR	33	288	5
NMSCL	33	288	5	96	144	0
NMSTR	34	288	6
NMSUR	34	288	6	96	96	3
NMSTR	34	288	7
NMSCR	34	288	7	96	96	2
NMTAP	35	192	0
NMTAP	35	192	1
NMSTR	35	288	6
NMSUR	35	288	6	96	96	3
NMSTR	35	288	7
NMSLR	35	288	7	96	96	3
NMTAP	36	192	2
NMTAP	36	192	3
NMTAP	36	336	1
NMHLD	37	0	1	96
NMTAP	37	96	3
NMHLD	37	192	6	96
NMTAP	37	288	4
NMHLD	38	0	2	96
NMTAP	38	96	4
BXTAP	38	192	0
BXTAP	38	192	7
EXSTR	38	288	6
NMSUR	38	288	6	96	96	3
EXSTR	38	288	7
NMSCR	38	288	7	96	96	2
NMTAP	39	192	0
NMTAP	39	192	1
NMSTR	39	288	6
NMSUR	39	288	6	96	96	3
NMSTR	39	288	7
NMSCR	39	288	7	96	96	3
NMTAP	40	192	2
NMTAP	40	192	3
NMTAP	40	288	1
NMTAP	40	336	1
NMTAP	41	0	0
NMTAP	41	0	1
NMTAP	41	96	6
NMTAP	41	96	7
NMTAP	41	192	4
NMTAP	41	192	5
NMTAP	41	288	2
NMSTR	41	288	3
NMSSL	41	288	3	96	192	7
NMHLD	42	192	0	144
NMTAP	42	336	7
NMTAP	43	0	7
NMTAP	43	96	4
NMTAP	43	96	6
NMTAP	43	192	1
NMTAP	43	192	3
NMTAP	43	288	0
NMTAP	43	288	7
NMHLD	44	0	6	72
NMTAP	44	72	7
NMTAP	44	144	0
NMTAP	44	144	5
NMHLD	44	192	1	72
NMTAP	44	264	0
NMTAP	44	336	2
NMTAP	44	336	7
NMSTR	45	0	2
NMSUR	45	0	2	96	96	6
NMHLD	45	0	7	672
NMSTR	45	288	6
NMSCL	45	288	6	96	240	0
EXSTR	47	0	0
NMSF_	47	0	0	96	192	4
BXSTR	48	0	3
NMSCL	48	0	3	96	96	0
BXSTR	48	0	5
NMSUL	48	0	5	96	96	0
NMTAP	48	288	2
NMTAP	48	288	3
NMSTR	49	0	4
NMSCL	49	0	4	96	96	0
NMSTR	49	0	5
NMSUL	49	0	5	96	96	0
NMTAP	49	288	0
NMTAP	49	288	7
NMTAP	50	0	1
NMTAP	50	48	1
NMTAP	50	96	0
NMTAP	50	96	1
NMTAP	50	192	2
NMTAP	50	192	3
NMTAP	50	288	4
NMTAP	50	288	5
NMHLD	51	0	6	288
NMSTR	51	0	7
NMSCL	51	0	7	96	144	3
EXSTR	52	0	2
NMSUR	52	0	2	96	96	7
EXSTR	52	0	3
NMSCR	52	0	3	96	96	6
NMTAP	52	288	4
NMTAP	52	288	5
NMSTR	53	0	2
NMSUR	53	0	2	96	96	7
NMSTR	53	0	3
NMSLR	53	0	3	96	96	7
NMTAP	53	288	4
NMTAP	53	288	6
NMTAP	54	48	1
NMHLD	54	96	1	96
NMTAP	54	192	0
NMHLD	54	288	6	96
NMTAP	55	0	7
NMHLD	55	96	1	96
NMTAP	55	192	0
BRTAP	55	288	0
BRTAP	55	288	1
EXSTR	56	0	2
NMSUR	56	0	2	96	96	7
EXSTR	56	0	3
NMSCR	56	0	3	96	96	6
NMTAP	56	288	4
NMTAP	56	288	5
NMSTR	57	0	2
NMSUR	57	0	2	96	96	7
NMSTR	57	0	3
NMSCR	57	0	3	96	96	7
NMTAP	57	288	0
NMTAP	57	288	7
NMTAP	58	0	6
NMTAP	58	48	6
NMTAP	58	96	6
NMTAP	58	96	7
NMTAP	58	192	4
NMTAP	58	192	6
NMTAP	58	288	1
NMTAP	58	288	3
NMSTR	59	0	0
NMSSL	59	0	0	96	192	4
NMTAP	59	0	7
NMTAP	59	288	5
NMTAP	60	48	5
NMTAP	60	96	4
NMTAP	60	96	5
NMTAP	60	192	6
NMTAP	60	192	7
NMTAP	60	288	0
NMTAP	60	288	1
NMTAP	61	0	2
NMTAP	61	0	3
NMHLD	61	96	1	72
NMTAP	61	168	3
NMTAP	61	240	2
NMTAP	61	240	4
NMHLD	61	288	5	72
NMTAP	61	360	3
NMTAP	62	48	2
NMTAP	62	48	6
NMSTR	62	96	1
NMSUR	62	96	1	96	120	6
NMHLD	62	96	7	672
NMSTR	63	0	6
NMSCL	63	0	6	96	240	0
NMTAP	64	96	0
NMTAP	64	96	7
NMTAP	64	192	1
NMTAP	64	192	3
NMTAP	64	288	3
NMTAP	64	288	4
NMTAP	65	0	4
NMTAP	65	0	6
NMHLD	65	96	7	72
NMHLD	65	168	5	72
NMTAP	65	240	4
NMHLD	65	288	0	72
NMHLD	65	360	2	72
NMTAP	66	48	3
NMSTR	66	96	3
NMSCL	66	96	3	96	288	4
NMTTP	67	96	0	C	1	M1
NMTAP	68	96	0
NMTAP	68	96	1
NMTAP	68	168	0
NMTAP	68	168	7
NMTAP	68	240	6
NMTAP	68	240	7
NMTAP	68	288	5
NMTAP	68	336	5
NMTAP	69	0	4
NMTAP	69	96	6
NMTAP	69	96	7
NMTAP	69	168	0
NMTAP	69	168	7
NMTAP	69	240	0
NMTAP	69	240	1
NMTAP	69	288	2
NMTAP	69	336	2
NMTAP	70	0	3
NMSTR	70	96	1
NMSCR	70	96	1	96	96	4
NMSTR	70	96	5
NMSUL	70	96	5	96	96	0
NMTAP	71	0	3
NMSTR	71	96	2
NMSUR	71	96	2	96	96	7
NMSTR	71	96	6
NMSCL	71	96	6	96	96	3
NMTAP	72	0	6
NMTAP	72	0	7
NMTAP	72	96	6
NMTAP	72	96	7
NMTAP	72	168	0
NMTAP	72	168	7
NMTAP	72	240	0
NMTAP	72	240	1
NMTAP	72	288	2
NMTAP	72	336	2
NMTAP	73	0	3
NMTAP	73	96	0
NMTAP	73	96	1
NMTAP	73	168	0
NMTAP	73	168	7
NMTAP	73	240	6
NMTAP	73	240	7
NMTAP	73	288	5
NMTAP	73	336	5
NMTAP	74	0	4
NMSTR	74	96	3
NMSCL	74	96	3	96	96	0
NMSTR	74	288	5
NMSCR	74	288	5	96	96	0
NMSTR	75	96	2
NMSCR	75	96	2	96	96	5
NMHLD	75	288	6	96
NMTAP	76	0	5
NMTAP	76	96	4
NMTAP	76	96	7
NMTAP	76	168	3
NMTAP	76	168	6
NMTAP	76	240	2
NMTAP	76	240	5
NMTAP	76	288	1
NMTAP	76	336	1
NMTAP	77	0	4
NMTAP	77	96	0
NMTAP	77	96	3
NMTAP	77	168	1
NMTAP	77	168	4
NMTAP	77	240	2
NMTAP	77	240	5
NMTAP	77	288	6
NMTAP	77	336	6
NMTAP	78	0	3
NMSTR	78	96	4
NMSV_	78	96	4	96	96	1
NMSTR	78	96	7
NMSCL	78	96	7	96	96	4
NMTAP	79	0	1
NMTAP	79	0	4
NMSTR	79	96	0
NMSCR	79	96	0	96	96	3
NMSTR	79	96	3
NMSV_	79	96	3	96	96	6
NMTAP	80	0	3
NMTAP	80	0	6
NMSTR	80	96	4
NMSCR	80	96	4	96	216	2
NMHLD	80	96	7	288
CNSUR	81	24	2	0	168	3
NMHLD	81	192	6	96
NMHLD	81	288	4	96
NMSTR	82	0	2
NMSXL	82	0	2	96	288	6
NMSXR	82	0	2	96	288	6
NMTTP	83	96	0	B	0	M1
NMTTP	83	96	0	E	1	M1
NMTTP	83	96	1	E	0	M1
NMTTP	83	96	5	B	0	M1
NMTTP	83	96	5	E	0	M1
NMTTP	83	96	6	E	0	M1
NMTAP	84	96	3
NMTAP	84	96	4
NMTAP	84	192	2
NMTAP	84	288	1
NMTAP	84	336	1
NMTAP	85	0	3
NMTAP	85	48	3
NMSTR	85	96	2
NMSI_	85	96	2	96	120	4
CNSCR	85	312	4	0	72	5
NMTAP	86	96	5
NMTAP	86	192	4
NMTAP	86	192	5
NMTAP	86	288	6
NMTAP	86	336	6
NMTAP	87	0	4
NMTAP	87	48	4
NMSTR	87	96	5
NMSCR	87	96	5	96	120	6
CNSI_	87	312	6	0	72	0
NMTAP	88	96	1
NMTAP	88	192	0
NMTAP	88	192	1
NMTAP	88	288	2
NMTAP	88	336	2
NMTAP	89	0	0
NMTAP	89	48	0
NMSTR	89	96	1
BRSF_	89	96	1	96	144	5

T_REC_TAP	264
T_REC_BRK	6
T_REC_XTP	0
T_REC_BXX	2
T_REC_HLD	33
T_REC_XHO	0
T_REC_BHO	0
T_REC_BXH	0
T_REC_STR	53
T_REC_BST	0
T_REC_XST	7
T_REC_XBS	2
T_REC_TTP	13
T_REC_THO	0
T_REC_SLD	62
T_REC_BSL	1
T_REC_ALL	443
T_NUM_TAP	337
T_NUM_BRK	11
T_NUM_HLD	33
T_NUM_SLD	62
T_NUM_ALL	443
T_JUDGE_TAP	347
T_JUDGE_HLD	141
T_JUDGE_SLD	63
T_JUDGE_ALL	551
TTM_EACHPAIRS	112
TTM_SCR_TAP	168500
TTM_SCR_BRK	28600
TTM_SCR_HLD	33000
TTM_SCR_SLD	93000
TTM_SCR_ALL	323100
TTM_SCR_S	312350
TTM_SCR_SS	322000
TTM_RAT_ACV	10034

