VERSION	0.00.00	1.05.00
FES_MODE	0
BPM_DEF	150.000	150.000	150.000	150.000
MET_DEF	4	4
RESOLUTION	384
CLK_DEF	384
COMPATIBLE_CODE	MA2

BPM	0	0	150.000
MET	0	0	4	4
MET	47	0	4	5
MET	48	96	4	4

NMTAP	2	0	6
NMTAP	2	96	6
NMTAP	2	192	6
NMTAP	3	0	5
NMTAP	3	96	5
NMTAP	3	192	5
NMTAP	4	0	4
NMTAP	4	96	4
NMTAP	4	192	4
NMTAP	5	0	2
NMTAP	5	0	3
NMTAP	5	192	2
NMTAP	5	192	3
NMTAP	6	0	1
NMTAP	6	96	1
NMTAP	6	192	1
NMTAP	7	0	2
NMTAP	7	96	2
NMTAP	7	192	2
NMTAP	8	0	3
NMTAP	8	96	3
NMTAP	8	192	3
NMTAP	9	0	4
NMTAP	9	0	5
NMTAP	9	192	4
NMTAP	9	192	5
NMTAP	10	0	3
NMTAP	10	96	3
NMTAP	10	192	2
NMTAP	11	0	1
NMTAP	11	96	1
NMTAP	11	192	0
NMTAP	12	0	7
NMTAP	12	96	7
NMTAP	12	192	6
NMTAP	13	0	5
NMTAP	13	96	5
NMTAP	13	192	4
NMTAP	13	192	5
NMTAP	14	0	4
NMTAP	14	96	4
NMTAP	14	192	5
NMTAP	15	0	6
NMTAP	15	96	6
NMTAP	15	192	7
NMTAP	16	0	0
NMTAP	16	96	0
NMTAP	16	192	1
NMTAP	17	0	2
NMTAP	17	96	2
NMTAP	17	192	2
NMTAP	17	192	3
NMSTR	18	0	4
NMSI_	18	0	4	96	192	7
NMSTR	19	0	0
NMSI_	19	0	0	96	192	3
NMSTR	20	0	5
NMSI_	20	0	5	96	192	2
NMSTR	21	0	1
NMSI_	21	0	1	96	192	4
NMSTR	22	0	6
NMSI_	22	0	6	96	192	3
NMSTR	23	0	1
NMSI_	23	0	1	96	192	5
NMSTR	24	0	7
NMSI_	24	0	7	96	192	3
NMTAP	25	0	2
NMTAP	25	192	2
NMTAP	25	192	3
NMHLD	26	0	2	192
NMHLD	26	192	3	192
NMHLD	27	0	4	192
NMTAP	27	192	5
NMHLD	28	0	5	192
NMHLD	28	192	4	192
NMHLD	29	0	3	192
NMTAP	29	192	2
NMHLD	30	0	3	192
NMHLD	30	0	4	192
NMTAP	31	0	5
NMTAP	31	96	5
NMTAP	31	192	6
NMTAP	31	288	6
NMTAP	32	0	7
NMTAP	32	96	7
NMTAP	32	192	0
NMTAP	32	192	1
NMTAP	33	0	2
NMTAP	33	96	2
NMTAP	33	192	1
NMTAP	33	288	1
NMTAP	34	0	0
NMTAP	34	96	0
NMTAP	34	192	6
NMTAP	34	192	7
NMTAP	35	0	6
NMTAP	35	96	6
NMTAP	35	192	5
NMTAP	35	288	5
NMTAP	36	0	4
NMTAP	36	96	4
NMTAP	36	192	2
NMTAP	36	192	3
NMTAP	37	0	1
NMTAP	37	96	1
NMTAP	37	192	2
NMTAP	37	288	2
NMTAP	38	0	3
NMTAP	38	96	3
NMTAP	38	192	4
NMTAP	38	192	5
BRTAP	39	0	5
NMTAP	39	96	5
NMTAP	39	192	6
NMTAP	39	288	6
NMTAP	40	0	7
NMTAP	40	96	7
NMTAP	40	192	0
NMTAP	40	192	1
NMTAP	41	0	2
NMTAP	41	96	2
NMTAP	41	192	1
NMTAP	41	288	1
NMTAP	42	0	0
NMTAP	42	96	0
NMTAP	42	192	6
NMTAP	42	192	7
NMTAP	43	0	6
NMTAP	43	96	6
NMTAP	43	192	5
NMTAP	43	288	5
NMTAP	44	0	4
NMTAP	44	96	4
NMTAP	44	192	2
NMTAP	44	192	3
NMTAP	45	0	1
NMTAP	45	96	1
NMTAP	45	192	2
NMTAP	45	288	2
NMTAP	46	0	3
NMTAP	46	96	3
NMTAP	46	192	4
NMTAP	46	192	5
NMHLD	47	0	3	288
NMHLD	47	0	4	288
NMTAP	48	96	2
NMTAP	48	192	2
NMTAP	48	288	0
NMTAP	48	288	1
NMTAP	49	0	0
NMTAP	49	0	1
NMTAP	49	96	7
NMTAP	49	192	7
NMTAP	49	288	6
NMTAP	49	288	7
NMTAP	50	96	5
NMTAP	50	192	5
NMTAP	50	288	6
NMTAP	50	288	7
NMTAP	51	0	6
NMTAP	51	0	7
NMTAP	51	96	0
NMTAP	51	192	0
NMTAP	51	288	0
NMTAP	51	288	1
NMTAP	52	96	1
NMTAP	52	192	1
NMTAP	52	288	2
NMTAP	52	288	3
NMTAP	53	0	2
NMTAP	53	0	3
NMTAP	53	96	4
NMTAP	53	192	4
NMTAP	53	288	4
NMTAP	53	288	5
NMTAP	54	96	6
NMTAP	54	192	6
NMTAP	54	288	4
NMTAP	54	288	5
NMTAP	55	0	4
NMTAP	55	0	5
NMTAP	55	96	3
NMTAP	55	192	3
NMTAP	55	288	2
NMTAP	55	288	3
BRTAP	56	96	2
NMTAP	56	192	2
NMTAP	56	288	0
NMTAP	56	288	1
NMTAP	57	0	0
NMTAP	57	0	1
NMTAP	57	96	7
NMTAP	57	192	7
NMTAP	57	288	6
NMTAP	57	288	7
NMTAP	58	0	6
NMTAP	58	0	7
NMTAP	58	96	5
NMTAP	58	192	5
NMTAP	58	288	6
NMTAP	58	288	7
NMTAP	59	0	6
NMTAP	59	0	7
NMTAP	59	96	0
NMTAP	59	192	0
NMTAP	59	288	0
NMTAP	59	288	1
NMTAP	60	96	1
NMTAP	60	192	1
NMTAP	60	288	2
NMTAP	60	288	3
NMTAP	61	0	2
NMTAP	61	0	3
NMTAP	61	96	4
NMTAP	61	192	4
NMTAP	61	288	4
NMTAP	61	288	5
NMTAP	62	0	4
NMTAP	62	0	5
NMTAP	62	96	6
NMTAP	62	192	6
NMTAP	62	288	4
NMTAP	62	288	5
NMTAP	63	0	4
NMTAP	63	0	5
NMTAP	63	96	3
NMTAP	63	192	3
NMTAP	63	288	2
NMTAP	63	288	3
NMTAP	64	96	1
NMTAP	64	192	1
NMTAP	64	288	0
NMTAP	64	288	1
NMTAP	65	96	6
NMTAP	65	192	6
NMTAP	65	288	6
NMTAP	65	288	7
NMTAP	66	96	0
NMTAP	66	96	7
NMTAP	66	192	0
NMTAP	66	192	7
NMTAP	66	288	1
NMTAP	66	288	6
NMTAP	67	0	1
NMTAP	67	0	6
NMTAP	67	96	2
NMTAP	67	96	5
NMTAP	67	192	2
NMTAP	67	192	5
NMTAP	67	288	3
NMTAP	67	288	4
NMTTP	68	96	3	B	0	L1
NMTTP	68	192	2	B	0	L1
NMTTP	68	288	1	B	0	L1
NMTTP	69	96	4	B	0	L1
NMTTP	69	192	5	B	0	L1
NMTTP	69	288	6	B	0	L1
NMTTP	70	96	2	B	0	L1
NMTTP	70	192	1	B	0	L1
NMTTP	70	288	0	B	0	L1
NMTTP	71	0	7	B	0	L1
NMTTP	71	96	6	B	0	L1
NMTTP	71	192	5	B	0	L1
NMTTP	71	288	3	B	0	L1
NMTTP	71	288	4	B	0	L1
NMTTP	72	96	5	B	0	L1
NMTTP	72	192	6	B	0	L1
NMTTP	72	288	7	E	0	L1
NMTTP	73	96	2	B	0	L1
NMTTP	73	192	1	B	0	L1
NMTTP	73	288	1	E	0	L1
NMTTP	74	96	7	E	0	L1
NMTTP	74	192	6	E	0	L1
NMTTP	74	288	5	E	0	L1
NMTTP	75	0	4	E	0	L1
NMTTP	75	96	3	E	0	L1
NMTTP	75	192	2	E	0	L1
NMTTP	75	288	0	C	0	L1
NMTAP	76	96	6
NMTAP	76	192	6
NMTAP	76	288	6
NMTAP	77	0	6
NMTAP	77	0	7
NMTAP	77	96	5
NMTAP	77	192	5
NMTAP	77	288	5
NMTAP	78	0	4
NMTAP	78	0	5
NMTAP	78	96	3
NMTAP	78	192	3
NMTAP	78	288	3
NMTAP	79	0	2
NMTAP	79	0	3
NMTAP	79	96	0
NMTAP	79	96	1
NMTAP	79	192	0
NMTAP	79	192	1
NMTAP	79	288	0
NMTAP	79	288	1
NMTAP	80	96	1
NMTAP	80	192	1
NMTAP	80	288	1
NMTAP	81	0	0
NMTAP	81	0	1
NMTAP	81	96	2
NMTAP	81	192	2
NMTAP	81	288	2
NMTAP	82	0	2
NMTAP	82	0	3
NMTAP	82	96	4
NMTAP	82	192	4
NMTAP	82	288	4
NMTAP	83	0	4
NMTAP	83	0	5
NMTAP	83	96	6
NMTAP	83	96	7
NMTAP	83	192	6
NMTAP	83	192	7
NMTAP	83	288	6
NMTAP	83	288	7
NMTAP	84	96	7
NMTAP	84	192	6
NMTAP	84	288	5
NMTAP	85	0	4
NMTAP	85	96	3
NMTAP	85	192	2
NMTAP	85	288	0
NMTAP	85	288	1
NMTAP	86	96	0
NMTAP	86	192	1
NMTAP	86	288	2
NMTAP	87	0	3
NMTAP	87	96	4
NMTAP	87	192	5
NMTAP	87	288	6
NMTAP	87	288	7
BXTAP	88	96	0
BXTAP	88	96	7
NMTAP	88	192	0
NMTAP	88	192	7
NMTAP	88	288	1
NMTAP	88	288	6
NMTAP	89	0	1
NMTAP	89	0	6
NMHLD	89	96	2	192
NMHLD	89	96	5	192

T_REC_TAP	289
T_REC_BRK	2
T_REC_XTP	0
T_REC_BXX	2
T_REC_HLD	12
T_REC_XHO	0
T_REC_BHO	0
T_REC_BXH	0
T_REC_STR	7
T_REC_BST	0
T_REC_XST	0
T_REC_XBS	0
T_REC_TTP	27
T_REC_THO	0
T_REC_SLD	7
T_REC_BSL	0
T_REC_ALL	346
T_NUM_TAP	323
T_NUM_BRK	4
T_NUM_HLD	12
T_NUM_SLD	7
T_NUM_ALL	346
T_JUDGE_TAP	327
T_JUDGE_HLD	52
T_JUDGE_SLD	7
T_JUDGE_ALL	386
TTM_EACHPAIRS	71
TTM_SCR_TAP	161500
TTM_SCR_BRK	10400
TTM_SCR_HLD	12000
TTM_SCR_SLD	10500
TTM_SCR_ALL	194400
TTM_SCR_S	188200
TTM_SCR_SS	194000
TTM_RAT_ACV	10020

