VERSION	0.00.00	1.05.00
FES_MODE	0
BPM_DEF	150.000	150.000	150.000	150.000
MET_DEF	4	4
RESOLUTION	384
CLK_DEF	384
COMPATIBLE_CODE	MA2

BPM	0	0	150.000
MET	0	0	4	4
MET	47	0	4	5
MET	48	96	4	4

NMTAP	2	0	7
NMTAP	2	192	7
NMTAP	3	0	6
NMTAP	4	0	5
NMTAP	4	192	5
NMTAP	5	0	4
NMTAP	6	0	3
NMTAP	6	192	3
NMTAP	7	0	2
NMTAP	8	0	1
NMTAP	8	192	1
NMTAP	9	0	0
NMTAP	9	0	7
NMTAP	10	0	0
NMTAP	10	192	0
NMTAP	11	0	1
NMTAP	11	192	1
NMTAP	12	0	2
NMTAP	12	192	2
NMTAP	13	0	2
NMTAP	13	0	3
NMTAP	14	0	4
NMTAP	14	192	4
NMTAP	15	0	5
NMTAP	15	192	5
NMTAP	16	0	6
NMTAP	16	192	6
NMTAP	17	0	6
NMTAP	17	0	7
NMHLD	18	0	6	384
NMHLD	18	0	7	384
NMHLD	20	0	4	384
NMHLD	20	0	5	384
NMHLD	22	0	2	384
NMHLD	22	0	3	384
NMHLD	24	0	0	384
NMHLD	24	0	1	384
NMTTP	26	0	0	B	0	L1
NMTTP	27	0	7	B	0	L1
NMTTP	28	0	1	B	0	L1
NMTTP	29	0	6	B	0	L1
NMTTP	30	0	0	C	1	L1
BRTAP	31	0	0
NMTAP	31	96	0
NMTAP	31	192	0
NMTAP	32	0	1
NMTAP	32	192	1
NMTAP	33	0	2
NMTAP	33	96	2
NMTAP	33	192	2
NMTAP	34	0	2
NMTAP	34	0	3
NMTAP	35	0	4
NMTAP	35	96	4
NMTAP	35	192	4
NMTAP	36	0	5
NMTAP	36	192	5
NMTAP	37	0	6
NMTAP	37	96	6
NMTAP	37	192	6
NMTAP	38	0	6
NMTAP	38	0	7
NMTAP	39	0	7
NMTAP	39	96	7
NMTAP	39	192	7
NMTAP	40	0	6
NMTAP	40	192	6
NMTAP	41	0	5
NMTAP	41	96	5
NMTAP	41	192	5
NMTAP	42	0	3
NMTAP	42	0	4
NMTAP	43	0	3
NMTAP	43	96	3
NMTAP	43	192	3
NMTAP	44	0	2
NMTAP	44	192	2
NMTAP	45	0	1
NMTAP	45	96	1
NMTAP	45	192	1
EXHLD	46	0	0	384
EXHLD	46	0	7	384
BXTAP	48	96	0
EXTAP	48	192	0
EXTAP	48	288	0
NMTAP	49	96	1
NMTAP	49	192	1
NMTAP	49	288	1
NMTAP	50	96	2
NMTAP	50	192	2
NMTAP	50	288	2
NMTAP	51	96	2
NMTAP	51	96	3
NMTAP	51	288	2
NMTAP	51	288	3
NMTAP	52	96	4
NMTAP	52	192	4
NMTAP	52	288	4
NMTAP	53	96	5
NMTAP	53	192	5
NMTAP	53	288	5
NMTAP	54	96	6
NMTAP	54	192	6
NMTAP	54	288	6
NMTAP	55	96	6
NMTAP	55	96	7
NMTAP	55	288	6
NMTAP	55	288	7
NMTAP	56	96	7
NMTAP	56	192	7
NMTAP	56	288	7
NMTAP	57	96	6
NMTAP	57	192	6
NMTAP	57	288	6
NMTAP	58	96	5
NMTAP	58	192	5
NMTAP	58	288	5
NMTAP	59	96	4
NMTAP	59	192	4
NMTAP	59	288	3
NMTAP	59	288	4
NMTAP	60	96	3
NMTAP	60	192	3
NMTAP	60	288	3
NMTAP	61	96	2
NMTAP	61	192	2
NMTAP	61	288	2
NMTAP	62	96	1
NMTAP	62	192	1
NMTAP	62	288	1
NMTAP	63	96	0
NMTAP	63	192	0
NMTAP	63	288	0
NMTAP	63	288	7
NMTAP	64	96	6
NMTAP	64	192	6
NMTAP	64	288	6
NMTAP	64	288	7
NMTAP	65	96	1
NMTAP	65	192	1
NMTAP	65	288	0
NMTAP	65	288	1
NMTAP	66	96	7
NMTAP	66	192	7
NMTAP	66	288	0
NMTAP	66	288	7
BRTAP	67	96	0
BRTAP	67	96	7
NMSTR	68	96	7
NMSI_	68	96	7	96	288	3
NMSTR	70	96	2
NMSI_	70	96	2	96	288	7
NMSTR	72	96	6
NMSI_	72	96	6	96	288	2
NMSTR	74	96	1
NMSI_	74	96	1	96	288	5
NMTAP	76	96	6
NMTAP	76	192	6
NMTAP	76	288	6
NMTAP	77	96	6
NMTAP	77	96	7
NMTAP	77	192	6
NMTAP	77	192	7
NMTAP	77	288	6
NMTAP	77	288	7
NMTAP	78	96	5
NMTAP	78	192	5
NMTAP	78	288	5
NMTAP	79	96	3
NMTAP	79	96	4
NMTAP	79	192	3
NMTAP	79	192	4
NMTAP	79	288	3
NMTAP	79	288	4
NMTAP	80	96	2
NMTAP	80	192	2
NMTAP	80	288	2
NMTAP	81	96	2
NMTAP	81	96	3
NMTAP	81	192	2
NMTAP	81	192	3
NMTAP	81	288	2
NMTAP	81	288	3
NMTAP	82	96	1
NMTAP	82	192	1
NMTAP	82	288	1
BRTAP	83	96	0
BRTAP	83	96	7
NMTTP	84	96	0	B	0	L1
NMTTP	84	96	7	B	0	L1
NMTTP	85	96	1	B	0	L1
NMTTP	85	96	6	B	0	L1
NMTTP	86	96	2	B	0	L1
NMTTP	86	96	5	B	0	L1
NMTTP	87	96	3	B	0	L1
NMTTP	87	96	4	B	0	L1
NMTTP	88	96	2	B	0	L1
NMTTP	88	96	5	B	0	L1
NMTHO	89	96	0	240	C	0	L1

T_REC_TAP	157
T_REC_BRK	5
T_REC_XTP	2
T_REC_BXX	1
T_REC_HLD	8
T_REC_XHO	2
T_REC_BHO	0
T_REC_BXH	0
T_REC_STR	4
T_REC_BST	0
T_REC_XST	0
T_REC_XBS	0
T_REC_TTP	15
T_REC_THO	1
T_REC_SLD	4
T_REC_BSL	0
T_REC_ALL	199
T_NUM_TAP	178
T_NUM_BRK	6
T_NUM_HLD	11
T_NUM_SLD	4
T_NUM_ALL	199
T_JUDGE_TAP	184
T_JUDGE_HLD	85
T_JUDGE_SLD	4
T_JUDGE_ALL	273
TTM_EACHPAIRS	31
TTM_SCR_TAP	89000
TTM_SCR_BRK	15600
TTM_SCR_HLD	11000
TTM_SCR_SLD	6000
TTM_SCR_ALL	121600
TTM_SCR_S	117400
TTM_SCR_SS	121000
TTM_RAT_ACV	10049

