VERSION	0.00.00	1.04.00
FES_MODE	0
BPM_DEF	167.000	167.000	167.000	167.000
MET_DEF	4	4
RESOLUTION	384
CLK_DEF	384
COMPATIBLE_CODE	MA2

BPM	0	0	167.000
MET	0	0	4	4

NMTAP	1	288	0
NMTAP	1	312	7
NMTAP	1	336	0
NMTAP	1	360	7
BRTAP	2	0	0
NMTAP	2	96	1
NMHLD	2	192	2	96
NMTAP	2	288	3
NMHLD	2	336	3	96
NMTAP	3	48	2
NMTAP	3	96	1
NMTAP	3	144	0
NMTAP	3	192	7
NMSTR	3	240	6
NMSI_	3	240	6	96	48	4
NMTAP	3	336	3
NMTAP	4	0	3
NMTAP	4	96	4
NMHLD	4	192	6	96
NMTAP	4	288	4
NMSTR	4	336	4
NMSI_	4	336	4	96	48	0
NMTAP	5	48	5
NMTAP	5	96	5
NMTAP	5	192	1
NMHLD	5	240	1	96
NMTAP	5	336	4
BRTAP	6	0	2
BRTAP	6	0	3
NMTAP	6	96	3
NMTAP	6	96	4
NMHLD	6	192	5	96
NMTAP	6	288	4
NMHLD	6	336	4	96
NMTAP	7	48	6
NMHLD	7	96	6	96
NMTAP	7	192	3
NMSTR	7	240	3
NMSI_	7	240	3	96	48	1
NMTAP	7	336	5
NMTAP	8	0	5
NMHLD	8	96	0	96
NMTAP	8	96	4
NMHLD	8	192	3	96
NMTAP	8	288	1
NMTAP	8	336	1
NMTTP	9	48	4	E	0	M1
NMTTP	9	72	5	E	0	M1
NMTTP	9	96	6	E	0	M1
NMTAP	9	144	2
NMTAP	9	192	2
NMTAP	9	240	5
NMTAP	9	288	3
NMTAP	9	336	4
BRHLD	10	0	2	384
NMHLD	10	0	3	192
NMTAP	10	288	3
NMSTR	11	0	1
NMSCL	11	0	1	96	96	6
NMSTR	11	96	3
NMSLL	11	96	3	96	120	4
NMHLD	12	0	5	192
NMHLD	12	0	6	384
NMTAP	12	288	5
NMSTR	13	0	7
NMSCR	13	0	7	96	96	2
NMSTR	13	96	5
NMSLR	13	96	5	96	120	4
EXHLD	14	0	1	384
NMHLD	14	0	3	192
NMTAP	14	288	2
NMSTR	15	0	0
NMSCL	15	0	0	96	96	5
NMSTR	15	96	2
NMSLL	15	96	2	96	120	4
NMHLD	16	0	3	96
NMHLD	16	0	5	96
NMHLD	16	192	2	96
NMTAP	16	192	4
NMSTR	16	288	3
NMSCR	16	288	3	96	96	5
NMTAP	17	0	2
NMTAP	17	96	1
CNSI_	17	96	5	0	96	7
EXTAP	17	192	0
CNSUL	17	192	7	0	96	2
EXTAP	17	288	0
NMTAP	18	0	1
NMTAP	18	48	1
NMTAP	18	96	4
NMTAP	18	144	5
NMTAP	18	192	2
NMTAP	18	240	2
NMTAP	18	288	4
NMHLD	18	336	3	144
NMTAP	18	336	5
NMTAP	19	48	7
NMSTR	19	96	7
NMSV_	19	96	7	96	96	4
NMSTR	19	192	4
NMSCR	19	192	4	96	96	7
NMTAP	20	0	2
NMTAP	20	48	2
NMTAP	20	96	7
NMTAP	20	144	6
NMTAP	20	192	1
NMTAP	20	240	1
NMTAP	20	288	7
EXTAP	20	336	4
EXTAP	20	336	6
NMSTR	21	0	4
NMSI_	21	0	4	96	48	2
NMSTR	21	0	6
NMSI_	21	0	6	96	48	4
EXTAP	21	192	4
NMTTP	21	240	1	B	0	M1
NMTTP	21	240	1	E	0	M1
NMTTP	21	288	4	B	0	M1
NMTTP	21	288	4	E	0	M1
NMTAP	22	0	2
NMTAP	22	48	2
NMTAP	22	96	4
NMTAP	22	144	5
NMTAP	22	192	3
NMTAP	22	240	3
NMTAP	22	288	5
NMTAP	22	336	4
NMHLD	22	336	6	96
NMTAP	23	48	7
NMSTR	23	96	7
NMSI_	23	96	7	96	96	4
NMSTR	23	192	4
NMSI_	23	192	4	96	96	1
NMTAP	23	288	1
NMTAP	24	0	0
NMTAP	24	48	0
NMTAP	24	96	1
NMTAP	24	96	7
NMTAP	24	192	4
NMTAP	24	192	6
NMTAP	24	288	3
NMTAP	24	288	5
BRTAP	24	336	2
BRTAP	24	336	6
NMTAP	25	48	0
NMTAP	25	48	4
NMHLD	25	96	1	96
NMSTR	25	96	3
NMSI_	25	96	3	96	48	0
EXTAP	25	192	3
NMTAP	26	0	4
NMSTR	26	0	5
NMSCR	26	0	5	96	48	7
NMTAP	26	96	2
NMTAP	26	192	0
NMTAP	26	192	1
NMTAP	26	240	2
NMTAP	26	288	7
NMTAP	26	336	6
NMSTR	27	0	1
NMSCL	27	0	1	96	96	6
NMTAP	27	0	5
NMTAP	27	96	3
NMTAP	27	144	3
NMTAP	27	192	3
CNSUR	27	192	6	0	96	2
NMTAP	27	288	5
NMSTR	27	336	5
NMSV_	27	336	5	96	96	0
NMTAP	28	48	3
NMTAP	28	96	3
NMTAP	28	192	1
NMTAP	28	192	7
NMTAP	28	240	1
NMSTR	28	240	7
NMSCR	28	240	7	96	48	1
NMSTR	28	336	3
BRSUR	28	336	3	96	96	7
CNSV_	29	0	1	0	48	4
CNSCR	29	48	4	0	96	6
EXTAP	29	240	0
EXTAP	29	240	5
NMTAP	29	336	1
NMTAP	29	336	4
EXTAP	30	0	1
EXTAP	30	0	4
NMTAP	30	96	3
NMTAP	30	96	6
NMTAP	30	144	2
NMSTR	30	192	0
NMSCL	30	192	0	96	96	4
NMTAP	30	192	1
NMTAP	30	288	2
NMTAP	30	336	1
NMSTR	31	0	0
BRSLR	31	0	0	96	96	4
NMSTR	31	96	4
NMSUR	31	96	4	96	96	0
NMSUR	31	96	4	96	96	1
CNSUL	31	288	0	0	96	4
CNSUL	31	288	1	0	96	4
NMTAP	32	48	6
NMTAP	32	96	6
NMTAP	32	144	3
NMTAP	32	144	5
NMTAP	32	192	3
NMTAP	32	192	5
NMTAP	32	240	4
NMTAP	32	288	2
NMHLD	32	336	1	96
NMTAP	32	336	3
NMHLD	33	48	2	96
NMTAP	33	144	3
NMTAP	33	240	1
NMTAP	33	240	7
NMHLD	33	288	2	96
NMSTR	33	288	6
BRSI_	33	288	6	96	48	3
BXTAP	34	0	6
NMTAP	34	96	0
NMTAP	34	144	1
NMSTR	34	192	2
NMSI_	34	192	2	96	48	7
NMTAP	34	240	2
NMTAP	34	288	3
NMTAP	34	336	4
NMSTR	35	0	5
NMSI_	35	0	5	96	48	0
NMTAP	35	48	5
NMTAP	35	96	0
NMTAP	35	144	1
EXTAP	35	192	2
EXTAP	35	192	7
NMTAP	35	288	4
NMTAP	35	288	5
NMTAP	35	336	4
NMSTR	35	336	5
NMSLR	35	336	5	96	96	3
NMSTR	36	48	3
NMSLR	36	48	3	96	96	0
NMTAP	36	96	3
NMTAP	36	192	1
NMHLD	36	240	1	96
NMSTR	36	336	0
NMSLL	36	336	0	96	96	3
NMTAP	37	48	2
NMTAP	37	96	2
NMTAP	37	192	1
NMTAP	37	192	4
NMSTR	37	240	1
BRSI_	37	240	1	96	48	3
NMTAP	37	240	4
NMTAP	37	336	5
NMSTR	38	0	5
NMSI_	38	0	5	96	48	7
NMSTR	38	96	2
NMSI_	38	96	2	96	48	0
NMTAP	38	96	5
NMTAP	38	192	2
NMSTR	38	192	5
NMSCL	38	192	5	96	48	2
EXTAP	38	288	7
NMTAP	38	336	0
NMSTR	39	0	1
NMSI_	39	0	1	96	48	4
NMSTR	39	96	4
NMSXR	39	96	4	96	48	2
NMTAP	39	192	5
CNSXR	39	240	2	0	96	0
BXTAP	39	288	6
BXSTR	39	336	6
BRSCL	39	336	6	96	24	5
NMTAP	40	48	0
CNSI_	40	72	5	0	48	3
NMHLD	40	96	0	96
CNSCL	40	120	3	0	24	2
NMTTP	40	192	0	C	0	M1
NMTTP	40	192	2	B	0	M1
NMTTP	40	192	3	B	0	M1
NMTAP	40	288	0
NMSTR	40	336	1
NMSI_	40	336	1	96	48	5
NMTAP	40	336	7
NMSTR	41	48	6
NMSCR	41	48	6	96	48	1
NMSTR	41	144	4
BRSLL	41	144	4	96	96	7
EXTAP	41	240	0
NMSTR	41	288	6
NMSI_	41	288	6	96	48	3
BXHLD	42	0	0	192
BRTAP	42	0	6
NMTAP	42	192	3
NMTAP	42	240	4
NMTAP	42	288	3
NMTAP	42	288	5
NMTAP	42	336	6
NMSTR	43	0	7
NMSCR	43	0	7	96	48	2
NMSTR	43	96	3
NMSCR	43	96	3	96	72	6
NMSV_	43	96	3	96	48	0
NMTAP	44	0	6
NMTAP	44	48	6
NMTAP	44	96	4
NMTAP	44	144	4
NMTAP	44	192	3
NMTAP	44	192	5
NMTAP	44	240	2
NMTAP	44	288	1
NMTAP	44	288	4
NMTAP	44	336	5
NMSTR	45	0	0
NMSI_	45	0	0	96	48	6
NMSTR	45	96	4
NMSUR	45	96	4	96	96	1
NMTAP	45	192	3
NMTAP	45	240	3
NMTAP	45	288	3
BXHLD	46	0	2	768
NMTTP	47	48	3	E	0	M1
NMTTP	47	96	4	E	0	M1
NMTAP	47	192	3
NMTAP	47	240	3
NMHLD	48	0	5	720
NMTTP	49	48	5	E	0	M1
NMTTP	49	96	4	E	0	M1
NMTAP	49	192	4
NMHLD	49	240	4	96
NMTAP	50	0	4
NMTAP	50	0	5
NMTAP	50	48	6
NMTAP	50	144	6
NMTAP	50	192	4
NMTAP	50	192	5
NMTAP	50	240	3
NMTAP	50	336	3
NMTAP	51	0	4
NMSTR	51	0	5
NMSI_	51	0	5	96	96	3
NMHLD	51	192	2	192
CNSXR	51	192	3	0	96	1
NMTAP	52	0	3
NMTAP	52	48	4
NMTAP	52	144	4
NMTAP	52	192	2
NMTAP	52	192	3
NMTAP	52	240	1
NMTAP	52	336	1
NMTAP	53	0	2
NMHLD	53	0	3	192
NMTAP	53	192	2
NMTAP	53	216	4
NMTAP	53	240	2
NMTAP	53	264	4
BRTAP	53	288	0
NMSTR	54	0	6
NMSCR	54	0	6	96	96	1
NMSTR	54	96	1
NMSI_	54	96	1	96	96	5
NMTAP	54	192	5
NMTAP	54	288	3
NMHLD	54	336	3	96
NMTAP	55	48	4
NMSTR	55	96	4
NMSI_	55	96	4	96	48	0
NMTAP	55	192	1
NMSTR	55	240	1
NMSI_	55	240	1	96	48	3
NMTAP	55	336	0
NMSTR	56	0	0
NMSCL	56	0	0	96	96	5
NMTAP	56	96	5
NMTAP	56	192	3
NMTAP	56	288	2
NMTAP	56	288	4
NMHLD	56	336	2	96
NMHLD	56	336	4	48
NMHLD	57	48	5	96
NMHLD	57	96	3	48
NMTAP	57	192	4
NMTAP	57	192	6
NMTAP	57	240	4
NMTAP	57	240	6
NMTAP	57	336	7
NMSTR	58	0	7
NMSI_	58	0	7	96	72	1
NMSTR	58	96	2
NMSI_	58	96	2	96	72	4
CNSCR	58	168	1	0	24	2
NMTAP	58	192	4
CNSCR	58	264	4	0	24	5
NMTAP	58	288	1
NMHLD	58	336	1	96
NMTAP	59	48	0
NMTAP	59	96	7
NMTAP	59	144	6
NMTAP	59	192	3
NMTAP	59	240	4
NMTAP	59	288	6
NMTAP	59	336	5
NMHLD	60	0	6	24
NMTAP	60	0	7
NMTAP	60	96	4
NMHLD	60	96	5	24
NMTAP	60	192	2
NMHLD	60	192	3	24
NMTAP	60	288	0
NMTAP	60	288	1
NMTAP	60	336	0
BRHLD	60	336	1	240
NMHLD	62	0	3	96
NMHLD	62	0	6	192
NMSTR	62	192	4
NMSI_	62	192	4	96	96	7
NMSTR	62	288	7
NMSCL	62	288	7	96	144	3
NMTAP	63	0	0
NMHLD	63	96	0	96
NMTAP	63	192	2
NMTAP	63	240	1
NMTAP	63	288	0
NMTAP	63	288	2
NMHLD	64	0	1	192
NMHLD	64	0	4	96
EXSTR	64	192	3
NMSV_	64	192	3	96	96	1
NMSTR	64	288	1
NMSCR	64	288	1	96	96	4
NMTAP	65	0	0
NMHLD	65	96	7	96
NMTAP	65	192	5
NMTTP	65	240	6	B	0	M1
NMTTP	65	240	7	B	0	M1
NMTTP	65	288	6	B	0	M1
NMTTP	65	288	7	B	0	M1
NMTAP	66	0	0
NMTAP	66	48	1
NMHLD	66	96	2	96
NMTAP	66	192	3
NMTAP	66	240	4
NMHLD	66	288	5	96
NMTAP	67	0	4
NMTAP	67	48	4
NMSTR	67	96	5
NMSI_	67	96	5	96	96	2
NMSTR	67	192	2
NMSI_	67	192	2	96	96	5
NMTAP	67	288	1
NMTAP	68	0	0
NMTAP	68	48	0
NMTAP	68	96	7
NMTAP	68	144	1
NMTAP	68	192	2
NMTAP	68	240	3
NMTAP	68	288	4
BRTAP	68	336	3
BRHLD	68	336	5	96
NMTAP	69	48	4
NMSTR	69	96	4
NMSI_	69	96	4	96	48	0
NMSI_	69	96	4	96	48	6
EXTAP	69	192	4
NMSTR	70	0	1
NMSCR	70	0	1	96	48	3
NMTAP	70	0	7
NMHLD	70	96	5	96
NMSTR	70	192	4
NMSI_	70	192	4	96	48	0
NMTAP	70	240	4
NMTAP	70	288	7
NMTAP	70	336	7
NMSTR	71	0	6
NMSCR	71	0	6	96	96	1
NMTAP	71	96	3
NMTAP	71	144	3
CNSUL	71	192	1	0	96	5
NMTAP	71	192	3
NMTAP	71	288	2
NMSTR	71	336	2
NMSV_	71	336	2	96	96	7
NMTAP	72	48	4
NMTAP	72	96	4
NMTAP	72	192	0
NMTAP	72	192	6
NMSTR	72	240	0
NMSCL	72	240	0	96	96	6
NMTAP	72	240	6
NMSTR	72	336	4
BRSUR	72	336	4	96	96	0
CNSV_	73	48	6	0	48	3
CNSCL	73	96	3	0	48	1
NMTAP	73	240	7
NMTAP	73	288	7
NMTAP	73	336	0
NMTAP	73	336	6
NMSTR	74	0	1
NMSI_	74	0	1	96	48	5
NMHLD	74	0	5	96
NMSTR	74	192	7
NMSCR	74	192	7	96	96	2
NMTAP	74	240	6
NMTAP	74	288	5
NMTAP	74	336	4
NMSTR	75	0	3
NMSI_	75	0	3	96	48	5
NMSTR	75	96	2
NMSI_	75	96	2	96	48	0
NMSI_	75	96	2	96	48	7
CNSI_	75	240	0	0	48	4
CNSI_	75	240	7	0	48	5
NMTAP	76	0	4
NMTAP	76	0	5
NMTAP	76	48	6
NMTAP	76	96	6
NMTAP	76	144	1
NMTAP	76	144	7
NMTAP	76	192	1
NMTAP	76	192	7
NMTAP	76	240	2
NMTAP	76	288	4
NMTAP	76	336	3
NMHLD	76	336	5	96
NMHLD	77	48	4	96
NMTAP	77	144	3
NMTAP	77	240	0
NMTAP	77	240	6
NMSTR	77	288	1
NMSI_	77	288	1	96	48	4
NMSTR	77	288	5
NMSI_	77	288	5	96	48	0
EXTAP	78	0	1
EXTAP	78	0	5
BRTAP	78	96	2
BRTAP	78	96	6
NMSTR	78	192	5
NMSI_	78	192	5	96	48	0
NMTAP	78	240	5
NMTAP	78	288	4
NMTAP	78	336	3
NMSTR	79	0	2
NMSI_	79	0	2	96	48	7
NMTAP	79	48	2
NMTAP	79	96	7
NMTAP	79	144	6
EXTAP	79	192	0
EXTAP	79	192	5
NMTAP	79	288	2
NMTAP	79	288	3
NMSTR	79	336	2
NMSLL	79	336	2	96	96	4
NMTAP	79	336	3
NMSTR	80	48	4
NMSLL	80	48	4	96	96	7
NMTAP	80	96	4
NMTAP	80	192	6
NMHLD	80	240	6	96
NMSTR	80	336	7
NMSLR	80	336	7	96	96	4
NMTAP	81	48	5
NMTAP	81	96	5
NMTAP	81	192	6
NMSTR	81	240	6
BRSI_	81	240	6	96	48	4
NMTAP	81	288	4
NMTAP	81	336	3
NMSTR	82	0	2
NMSI_	82	0	2	96	48	0
NMTAP	82	96	2
NMSTR	82	96	5
NMSI_	82	96	5	96	48	7
NMSTR	82	192	2
NMSCR	82	192	2	96	48	5
NMTAP	82	192	5
EXTAP	82	288	0
NMTAP	82	336	7
NMSTR	83	0	6
NMSI_	83	0	6	96	48	2
NMTAP	83	96	2
NMTAP	83	144	1
CNSI_	83	144	2	0	48	5
NMTAP	83	192	0
CNSI_	83	192	5	0	48	3
BXTAP	83	288	1
BXSTR	83	336	1
BRSCR	83	336	1	96	24	2
NMTAP	84	48	7
CNSI_	84	72	2	0	48	4
NMHLD	84	96	7	96
CNSCR	84	120	4	0	24	5
NMTTP	84	192	0	C	0	M1
NMTTP	84	192	4	B	0	M1
NMTTP	84	192	5	B	0	M1
NMTAP	84	288	7
NMTAP	84	336	0
NMSTR	84	336	6
NMSCL	84	336	6	96	48	3
NMSTR	85	48	1
NMSCL	85	48	1	96	48	6
EXSTR	85	144	3
BRSLR	85	144	3	96	96	0
EXTAP	85	240	7
NMSTR	85	288	1
NMSI_	85	288	1	96	48	4
BRTAP	86	0	1
BRTAP	86	0	5
NMTAP	86	96	3
NMSTR	86	96	6
NMSCR	86	96	6	96	48	0
NMSTR	86	192	4
NMSCL	86	192	4	96	48	2
NMSTR	86	288	5
NMSI_	86	288	5	96	48	1
EXTAP	87	0	4
NMTAP	87	96	0
NMTAP	87	96	2
NMTAP	87	144	3
NMSTR	87	144	7
NMSLL	87	144	7	96	96	3
NMTAP	87	240	2
NMTAP	87	288	1
NMHLD	87	336	0	240
NMTTP	88	48	3	E	0	M1
NMTTP	88	96	0	C	0	M1
NMTTP	88	144	7	E	0	M1
EXSTR	88	192	7
NMSCR	88	192	7	96	48	2
NMTAP	88	288	3
NMSTR	88	336	3
NMSI_	88	336	3	96	48	7
NMTAP	89	48	4
NMHLD	89	96	4	144
CNSI_	89	96	7	0	48	5
EXTAP	89	240	6
EXSTR	89	288	7
NMSI_	89	288	7	96	48	3
BRTAP	90	0	0
EXTAP	90	0	7
NMSTR	90	96	1
NMSCL	90	96	1	96	48	7
NMTAP	90	96	4
NMSTR	90	192	3
NMSCR	90	192	3	96	48	5
NMSTR	90	288	2
NMSI_	90	288	2	96	48	6
EXTAP	91	0	3
NMTAP	91	96	5
NMTAP	91	96	7
NMSTR	91	144	0
NMSLR	91	144	0	96	96	4
NMTAP	91	144	4
NMTAP	91	240	5
NMTAP	91	288	6
NMHLD	91	336	7	240
NMTTP	92	48	5	E	0	M1
NMTTP	92	96	0	C	0	M1
NMTTP	92	144	1	E	0	M1
EXSTR	92	192	0
NMSCL	92	192	0	96	48	5
NMTAP	92	288	4
NMSTR	92	336	4
BRSI_	92	336	4	96	48	0
NMTAP	93	48	3
CNSCR	93	96	0	0	48	2
BRTAP	93	96	3
NMTAP	93	240	4
NMTAP	93	240	6
NMSTR	93	288	7
NMSI_	93	288	7	96	48	5
NMTAP	94	0	0
NMSTR	94	0	7
NMSI_	94	0	7	96	48	3
NMTAP	94	96	1
NMTAP	94	96	7
NMTAP	94	192	2
NMTAP	94	240	1
NMSTR	94	288	0
NMSCR	94	288	0	96	48	3
NMTAP	94	336	7
NMSTR	95	0	6
NMSLR	95	0	6	96	96	4
NMTAP	95	96	4
NMTAP	95	144	3
NMSTR	95	192	2
NMSI_	95	192	2	96	48	6
NMTAP	95	288	4
NMTAP	95	336	4
CNSCR	95	336	6	0	48	0
EXTAP	96	48	1
EXTAP	96	48	7
NMTAP	96	96	2
NMTAP	96	144	3
EXTAP	96	192	4
EXTAP	96	192	5
NMTAP	96	240	6
NMTAP	96	288	7
NMTAP	96	336	0
NMSTR	96	336	1
NMSI_	96	336	1	96	48	4
NMSTR	97	0	7
NMSI_	97	0	7	96	48	4
EXTAP	97	48	1
EXTAP	97	96	7
NMTAP	97	192	3
NMTAP	97	192	5
NMTAP	97	240	6
NMSTR	97	288	0
NMSI_	97	288	0	96	48	6
NMTAP	97	336	4
BRTAP	98	0	0
NMSTR	98	0	5
NMSI_	98	0	5	96	48	1
NMSTR	98	96	2
NMSI_	98	96	2	96	48	4
NMTAP	98	96	5
NMTAP	98	192	2
NMTAP	98	192	7
NMTAP	98	288	6
NMTAP	98	336	5
NMTAP	99	0	2
NMSTR	99	0	4
NMSLR	99	0	4	96	96	0
NMSTR	99	96	0
NMSCR	99	96	0	96	96	4
BXTAP	99	192	4
NMTAP	99	288	0
NMHLD	99	336	0	96
NMTAP	100	48	4
NMSTR	100	96	5
NMSCR	100	96	5	96	48	0
NMSTR	100	144	1
NMSCR	100	144	1	96	48	4
NMTAP	100	192	5
NMTAP	100	240	1
EXTAP	100	288	7
EXSTR	100	336	3
NMSI_	100	336	3	96	48	1
NMTAP	101	48	3
NMSTR	101	48	4
BRSI_	101	48	4	96	48	6
NMSTR	101	144	0
NMSI_	101	144	0	96	48	3
NMTAP	101	144	4
NMTAP	101	240	7
CNSI_	101	288	3	0	48	5
NMSTR	101	288	6
BRSF_	101	288	6	96	48	2
BXTAP	102	0	6

T_REC_TAP	340
T_REC_BRK	15
T_REC_XTP	32
T_REC_BXX	5
T_REC_HLD	55
T_REC_XHO	1
T_REC_BHO	3
T_REC_BXH	2
T_REC_STR	111
T_REC_BST	0
T_REC_XST	6
T_REC_XBS	2
T_REC_TTP	27
T_REC_THO	0
T_REC_SLD	110
T_REC_BSL	13
T_REC_ALL	722
T_NUM_TAP	516
T_NUM_BRK	40
T_NUM_HLD	56
T_NUM_SLD	110
T_NUM_ALL	722
T_JUDGE_TAP	538
T_JUDGE_HLD	189
T_JUDGE_SLD	123
T_JUDGE_ALL	850
TTM_EACHPAIRS	103
TTM_SCR_TAP	258000
TTM_SCR_BRK	104000
TTM_SCR_HLD	56000
TTM_SCR_SLD	165000
TTM_SCR_ALL	583000
TTM_SCR_S	561650
TTM_SCR_SS	579000
TTM_RAT_ACV	10069

