VERSION	0.00.00	1.04.00
FES_MODE	0
BPM_DEF	167.000	167.000	167.000	167.000
MET_DEF	4	4
RESOLUTION	384
CLK_DEF	384
COMPATIBLE_CODE	MA2

BPM	0	0	167.000
MET	0	0	4	4

NMTAP	2	0	2
NMTAP	2	96	0
NMTAP	2	96	1
NMTAP	2	192	6
NMTAP	2	240	6
NMTAP	2	288	7
NMTAP	3	0	5
NMTAP	3	96	6
NMTAP	3	96	7
NMTAP	3	192	1
NMTAP	3	240	1
NMTAP	3	288	0
NMTAP	4	0	2
NMTAP	4	48	2
NMTAP	4	96	3
NMTAP	4	192	5
NMTAP	4	240	5
NMTAP	4	288	4
NMTAP	5	0	3
NMTAP	5	0	5
NMTAP	5	96	3
NMTAP	5	96	5
NMTAP	5	192	2
NMTAP	5	192	4
NMTAP	5	288	2
NMTAP	5	288	4
NMTAP	6	0	1
NMTAP	6	96	2
NMTAP	6	96	3
NMTAP	6	192	5
NMTAP	6	240	5
NMTAP	6	288	4
NMTAP	7	0	6
NMTAP	7	96	4
NMTAP	7	96	5
NMTAP	7	192	2
NMTAP	7	240	2
NMTAP	7	288	3
NMSTR	8	0	4
NMSI_	8	0	4	96	96	0
NMSTR	8	192	3
NMSI_	8	192	3	96	96	7
NMTAP	9	0	6
NMTAP	9	96	6
NMTAP	9	192	3
NMTAP	9	192	5
NMHLD	10	0	2	96
NMHLD	10	96	4	96
NMHLD	10	192	1	96
NMTAP	10	288	3
NMSTR	10	336	3
NMSCL	10	336	3	96	144	0
NMTAP	11	288	0
NMTAP	11	288	6
NMHLD	12	0	1	96
NMHLD	12	96	7	96
NMHLD	12	192	2	96
NMTAP	12	288	0
NMSTR	12	336	0
NMSCR	12	336	0	96	144	3
NMTAP	13	288	2
NMTAP	13	288	4
NMHLD	14	0	5	96
NMHLD	14	96	3	96
NMHLD	14	192	6	96
NMTAP	14	288	4
NMSTR	14	336	4
BRSCR	14	336	4	96	144	7
NMTAP	15	288	1
NMTAP	15	288	7
NMHLD	16	0	6	96
NMHLD	16	96	0	96
NMHLD	16	192	5	96
NMTAP	16	288	7
NMTAP	16	336	7
NMTAP	17	48	0
NMTAP	17	48	6
NMTAP	17	96	0
NMTAP	17	96	6
NMTAP	17	192	1
NMTAP	17	192	5
NMTAP	17	288	2
NMTAP	17	288	4
NMSTR	18	0	1
NMSXL	18	0	1	96	192	4
NMTAP	18	288	6
NMHLD	18	336	6	96
NMTAP	19	48	4
NMHLD	19	96	4	96
NMHLD	19	192	3	96
NMTAP	19	288	1
NMSTR	20	0	2
NMSXR	20	0	2	96	192	7
NMTAP	20	288	5
NMHLD	20	336	5	96
NMTAP	21	48	4
NMTAP	21	96	4
NMTAP	21	192	3
NMTAP	21	192	6
EXTAP	21	240	7
EXTAP	21	288	7
NMSTR	22	0	6
NMSXR	22	0	6	96	192	3
NMTAP	22	288	1
NMHLD	22	336	1	96
NMTAP	23	48	3
NMHLD	23	96	3	96
NMHLD	23	192	4	96
NMTAP	23	288	6
NMTAP	23	336	6
NMTAP	24	48	4
NMTAP	24	48	5
NMTAP	24	96	4
NMTAP	24	96	5
NMTAP	24	192	2
NMTAP	24	192	3
NMTAP	24	288	0
NMTAP	24	288	7
NMSTR	24	336	0
NMSI_	24	336	0	96	96	3
NMSTR	24	336	7
NMSI_	24	336	7	96	96	4
BRTAP	25	192	2
BRTAP	25	192	5
NMTAP	26	0	6
NMTAP	26	48	6
NMTAP	26	96	7
NMTAP	26	192	4
NMTAP	26	192	5
NMTAP	26	288	2
NMTAP	26	288	3
NMTAP	27	0	1
NMTAP	27	48	1
NMTAP	27	96	0
NMTAP	27	192	2
NMTAP	27	192	3
NMTAP	27	288	4
NMTAP	27	288	5
NMHLD	28	0	6	96
NMHLD	28	96	4	96
NMHLD	28	192	2	96
NMTAP	28	288	0
NMSTR	28	336	0
NMSCR	28	336	0	96	96	5
NMSUR	28	336	0	96	96	5
NMTAP	29	240	4
NMTAP	29	240	5
NMTAP	29	288	4
NMTAP	29	288	5
NMTAP	30	0	6
NMTAP	30	48	6
NMTAP	30	96	7
NMTAP	30	192	4
NMTAP	30	192	5
NMTAP	30	288	2
NMTAP	30	288	3
NMTAP	31	0	1
NMTAP	31	48	1
NMTAP	31	96	0
NMTAP	31	192	2
NMTAP	31	192	3
NMTAP	31	288	0
NMTAP	31	288	4
NMTAP	31	336	0
NMTAP	31	336	4
NMTAP	32	48	2
NMTAP	32	48	6
NMSTR	32	96	2
NMSXL	32	96	2	96	240	2
NMSTR	32	96	6
NMSXL	32	96	6	96	240	6
NMTAP	33	240	1
NMTAP	33	240	5
NMTAP	33	288	1
NMTAP	33	288	5
BRSTR	34	0	6
NMSI_	34	0	6	96	48	3
BRSTR	34	0	7
NMSI_	34	0	7	96	48	3
NMTAP	34	192	2
NMTAP	34	240	2
NMTAP	34	288	2
NMTAP	34	288	3
NMSTR	35	0	0
NMSI_	35	0	0	96	48	4
NMSTR	35	0	1
NMSI_	35	0	1	96	48	4
NMTAP	35	192	5
NMTAP	35	240	5
NMTAP	35	288	4
NMTAP	35	288	5
NMTAP	36	0	2
NMTAP	36	0	3
NMTAP	36	96	0
NMTAP	36	96	1
NMTAP	36	192	6
NMTAP	36	192	7
NMTAP	36	288	0
NMTAP	36	288	5
NMSTR	36	336	0
NMSI_	36	336	0	96	48	3
NMHLD	36	336	5	144
CNSI_	37	96	3	0	72	6
EXTAP	37	240	0
EXTAP	37	240	7
EXTAP	37	288	0
EXTAP	37	288	7
NMSTR	38	0	0
NMSI_	38	0	0	96	48	4
NMSTR	38	0	1
NMSI_	38	0	1	96	48	4
NMTAP	38	192	5
NMTAP	38	240	5
NMTAP	38	288	4
NMTAP	38	288	5
NMSTR	39	0	6
NMSI_	39	0	6	96	48	3
NMSTR	39	0	7
NMSI_	39	0	7	96	48	3
NMTAP	39	192	2
NMTAP	39	288	0
NMTAP	39	288	4
NMTAP	39	336	0
NMTAP	39	336	4
EXTAP	40	48	1
EXSTR	40	48	5
NMSI_	40	48	5	96	144	2
EXSTR	40	96	1
BRSI_	40	96	1	96	96	6
EXTAP	40	96	5
CNSCR	40	288	2	0	144	4
CNSCR	40	288	6	0	144	0
BXTAP	41	240	1
BXTAP	41	240	5
BXTAP	41	288	1
BXTAP	41	288	5
NMTAP	42	0	2
NMTAP	42	96	2
NMTAP	42	96	3
NMTAP	42	192	5
NMTAP	42	288	4
NMTAP	42	288	5
NMTAP	42	336	4
NMHLD	42	336	5	432
NMTTP	43	96	5	E	0	M1
NMTTP	43	96	5	D	0	M1
NMTTP	43	288	3	E	0	M1
NMTTP	43	288	3	D	0	M1
NMTAP	44	0	2
NMTAP	44	96	2
NMTAP	44	96	3
NMTAP	44	192	5
NMTAP	44	288	4
NMTAP	44	288	5
NMTAP	44	336	4
NMHLD	44	336	5	432
NMTTP	45	96	5	E	0	M1
NMTTP	45	96	5	D	0	M1
NMTTP	45	288	3	E	0	M1
NMTTP	45	288	3	D	0	M1
NMSTR	46	0	2
NMSV_	46	0	2	96	192	4
CNSCL	46	288	4	0	72	3
CNSUL	46	360	3	0	216	7
NMSTR	48	0	5
NMSXR	48	0	5	96	240	4
CNSV_	48	336	4	0	168	7
CNSCR	49	120	7	0	72	0
NMSTR	50	0	1
NMSUR	50	0	1	96	240	7
CNSI_	50	336	7	0	144	2
CNSI_	51	96	2	0	96	4
NMSTR	52	0	6
NMSUL	52	0	6	96	168	1
CNSCL	52	264	1	0	96	7
CNSV_	52	360	7	0	120	5
CNSI_	53	96	5	0	96	3
EXTAP	53	288	2
EXTAP	53	288	3
NMHLD	54	0	0	2880
NMTAP	54	0	1
NMTAP	54	96	1
NMTAP	54	192	1
NMTAP	54	288	2
NMTAP	54	336	2
NMTTP	55	96	2	E	0	M1
NMTTP	55	288	3	E	0	M1
NMTAP	56	0	3
NMTAP	56	96	3
NMTAP	56	192	3
NMTAP	56	288	4
NMTAP	56	336	4
NMTTP	57	96	5	E	0	M1
NMTTP	57	288	4	E	0	M1
NMTAP	58	0	4
NMTAP	58	96	4
NMTAP	58	192	4
NMTAP	58	288	5
NMTAP	58	336	5
NMTTP	59	96	5	E	0	M1
NMTTP	59	288	6	E	0	M1
NMTAP	60	0	6
NMTAP	60	96	6
NMTAP	60	192	6
NMTAP	60	288	7
NMHLD	60	336	7	240
EXTAP	61	288	0
EXTAP	61	288	7
NMSTR	62	0	1
NMSXR	62	0	1	96	192	5
NMTAP	62	288	6
NMHLD	62	336	6	96
NMTAP	63	48	7
NMTAP	63	96	7
NMTAP	63	192	6
NMTAP	63	192	7
NMTAP	63	288	0
NMTAP	63	288	5
NMSTR	64	0	4
NMSXL	64	0	4	96	192	2
NMTAP	64	288	1
NMHLD	64	336	1	96
NMTAP	65	48	0
NMTAP	65	96	0
NMTAP	65	192	2
NMTAP	65	192	7
EXTAP	65	240	0
EXTAP	65	288	0
NMSTR	66	0	3
NMSXR	66	0	3	96	192	5
NMTAP	66	288	6
NMHLD	66	336	6	96
NMTAP	67	48	7
NMTAP	67	96	7
NMTAP	67	192	6
NMTAP	67	192	7
NMTAP	67	288	1
NMTAP	67	288	4
NMTAP	67	336	1
NMTAP	67	336	4
NMTAP	68	48	2
NMTAP	68	96	3
NMTAP	68	144	4
NMTAP	68	192	5
NMTAP	68	288	6
NMTAP	68	288	7
NMSTR	68	336	6
NMSCL	68	336	6	96	96	3
NMSTR	68	336	7
NMSCR	68	336	7	96	96	2
NMTTP	69	192	0	E	1	M1
NMTTP	69	192	1	E	0	M1
NMTTP	69	192	7	E	0	M1
NMTAP	70	0	5
NMTAP	70	48	5
NMTAP	70	96	4
NMTAP	70	192	6
NMTAP	70	192	7
NMTAP	70	288	0
NMTAP	70	288	1
NMTAP	71	0	2
NMTAP	71	48	2
NMTAP	71	96	3
NMTAP	71	192	0
NMTAP	71	192	1
NMHLD	71	288	6	96
NMTAP	71	288	7
NMHLD	72	0	4	96
NMHLD	72	96	3	96
NMTAP	72	192	1
NMTAP	72	288	2
NMTAP	72	288	3
NMSTR	72	336	2
NMSI_	72	336	2	96	96	6
NMSTR	72	336	3
NMSI_	72	336	3	96	96	7
NMTAP	73	240	0
NMTAP	73	240	5
NMTAP	73	288	0
NMTAP	73	288	5
NMTAP	74	0	2
NMTAP	74	48	2
NMTAP	74	96	3
NMTAP	74	192	0
NMTAP	74	192	1
NMTAP	74	288	6
NMTAP	74	288	7
NMTAP	75	0	5
NMTAP	75	48	5
NMTAP	75	96	4
NMTAP	75	192	6
NMTAP	75	192	7
NMTAP	75	288	0
NMTAP	75	288	4
NMTAP	75	336	0
NMTAP	75	336	4
NMTAP	76	48	1
NMTAP	76	48	3
NMTAP	76	96	1
NMTAP	76	96	3
NMTAP	76	192	4
NMTAP	76	192	6
NMTAP	76	288	0
NMTAP	76	288	7
NMSTR	76	336	0
NMSCR	76	336	0	96	96	3
NMSTR	76	336	7
NMSCL	76	336	7	96	96	4
NMTAP	77	240	3
NMTAP	77	240	4
NMTAP	77	288	3
NMTAP	77	288	4
NMTAP	78	0	2
NMTAP	78	0	5
BRTAP	78	96	0
BRTAP	78	96	7
NMTAP	78	192	1
NMTAP	78	240	0
NMTAP	78	288	2
NMTAP	78	288	7
NMTAP	79	0	6
NMTAP	79	48	7
NMTAP	79	96	0
NMTAP	79	96	5
NMTAP	79	192	2
NMTAP	79	240	3
NMTAP	79	288	1
NMTAP	79	288	4
NMTAP	80	0	0
NMTAP	80	0	5
NMTAP	80	96	2
NMTAP	80	96	3
NMTAP	80	192	4
NMTAP	80	192	5
NMTAP	80	288	2
NMTAP	80	288	7
NMHLD	80	336	2	144
NMSTR	80	336	7
NMSI_	80	336	7	96	48	4
CNSI_	81	96	4	0	72	1
EXTAP	81	240	0
EXTAP	81	240	7
EXTAP	81	288	0
EXTAP	81	288	7
NMSTR	82	0	6
NMSI_	82	0	6	96	48	3
NMTAP	82	96	7
NMTAP	82	192	2
NMTAP	82	240	2
NMTAP	82	288	2
NMTAP	82	288	3
NMSTR	83	0	1
NMSI_	83	0	1	96	48	4
NMTAP	83	96	0
NMTAP	83	192	5
NMTAP	83	288	3
NMTAP	83	288	7
NMTAP	83	336	3
NMHLD	83	336	7	96
NMTAP	84	48	5
NMHLD	84	96	5	96
NMTAP	84	192	3
NMHLD	84	240	3	96
NMTTP	84	336	0	C	1	M1
EXTAP	85	240	0
EXTAP	85	240	7
EXTAP	85	288	0
EXTAP	85	288	7
NMTAP	86	0	1
NMTAP	86	96	0
NMTAP	86	96	1
NMTAP	86	192	2
NMTAP	86	288	1
NMTAP	86	288	3
NMTAP	87	0	4
NMTAP	87	96	4
NMTAP	87	96	5
NMTAP	87	192	6
NMTAP	87	288	5
NMTAP	87	288	7
NMHLD	88	0	6	96
NMTAP	88	96	7
NMHLD	88	192	1	96
NMTAP	88	288	0
NMSTR	88	336	0
NMSCR	88	336	0	96	192	6
EXTAP	89	240	7
EXTAP	89	288	7
NMTAP	90	0	6
NMTAP	90	96	6
NMTAP	90	96	7
NMTAP	90	192	5
NMTAP	90	288	4
NMTAP	90	288	6
NMTAP	91	0	3
NMTAP	91	96	2
NMTAP	91	96	3
NMTAP	91	192	1
NMTAP	91	288	0
NMTAP	91	288	2
NMSTR	92	0	7
NMSCL	92	0	7	96	96	4
NMSTR	92	192	2
NMSCL	92	192	2	96	96	7
NMSTR	93	0	5
NMSCL	93	0	5	96	96	2
NMTAP	93	192	1
BXTAP	93	240	0
BXTAP	93	288	0
NMSTR	94	0	0
NMSI_	94	0	0	96	48	5
NMSTR	94	0	1
NMSI_	94	0	1	96	48	4
NMTAP	94	192	6
NMTAP	94	240	6
NMTAP	94	288	6
NMTAP	94	288	7
NMSTR	95	0	6
NMSI_	95	0	6	96	48	3
NMSTR	95	0	7
NMSI_	95	0	7	96	48	2
NMTAP	95	192	1
NMTAP	95	240	1
NMTAP	95	288	0
NMTAP	95	288	1
NMTAP	96	0	2
NMTAP	96	0	3
NMTAP	96	96	0
NMTAP	96	96	1
NMTAP	96	192	6
NMTAP	96	192	7
NMTAP	96	288	4
NMTAP	96	288	5
NMTAP	96	336	4
NMSTR	96	336	5
NMSCL	96	336	5	96	144	0
NMSUL	96	336	5	96	144	0
EXTAP	97	240	7
EXTAP	97	288	7
NMSTR	98	0	6
NMSI_	98	0	6	96	48	3
NMSTR	98	0	7
NMSI_	98	0	7	96	48	2
NMTAP	98	192	1
NMTAP	98	240	1
NMTAP	98	288	0
NMTAP	98	288	1
NMSTR	99	0	0
NMSI_	99	0	0	96	48	5
NMSTR	99	0	1
NMSI_	99	0	1	96	48	4
NMTAP	99	192	6
NMTAP	99	192	7
NMTAP	99	288	0
NMTAP	99	288	4
NMTAP	99	336	0
NMTAP	99	336	4
EXSTR	100	48	2
NMSI_	100	48	2	96	144	5
EXTAP	100	48	6
EXTAP	100	96	2
EXSTR	100	96	6
BRSI_	100	96	6	96	96	1
CNSCL	100	288	1	0	144	7
CNSCL	100	288	5	0	144	3
NMTAP	101	240	2
NMTAP	101	240	6
NMTAP	101	288	2
NMTAP	101	288	6
NMTTP	102	0	0	B	0	M1
NMTTP	102	0	0	C	1	M1
NMTTP	102	0	0	A	0	M1
NMTTP	102	0	4	B	0	M1
NMTTP	102	0	4	A	0	M1

T_REC_TAP	347
T_REC_BRK	4
T_REC_XTP	28
T_REC_BXX	6
T_REC_HLD	39
T_REC_XHO	0
T_REC_BHO	0
T_REC_BXH	0
T_REC_STR	49
T_REC_BST	2
T_REC_XST	4
T_REC_XBS	0
T_REC_TTP	23
T_REC_THO	0
T_REC_SLD	54
T_REC_BSL	3
T_REC_ALL	559
T_NUM_TAP	451
T_NUM_BRK	15
T_NUM_HLD	39
T_NUM_SLD	54
T_NUM_ALL	559
T_JUDGE_TAP	463
T_JUDGE_HLD	155
T_JUDGE_SLD	57
T_JUDGE_ALL	675
TTM_EACHPAIRS	139
TTM_SCR_TAP	225500
TTM_SCR_BRK	39000
TTM_SCR_HLD	39000
TTM_SCR_SLD	81000
TTM_SCR_ALL	384500
TTM_SCR_S	371550
TTM_SCR_SS	383000
TTM_RAT_ACV	10039

