VERSION	0.00.00	1.04.00
FES_MODE	0
BPM_DEF	167.000	167.000	167.000	167.000
MET_DEF	4	4
RESOLUTION	384
CLK_DEF	384
COMPATIBLE_CODE	MA2

BPM	0	0	167.000
MET	0	0	4	4

NMTAP	2	0	6
NMTAP	2	96	6
NMTAP	2	192	6
NMTAP	3	0	5
NMTAP	3	96	5
NMTAP	3	192	5
NMTAP	4	0	4
NMTAP	4	96	4
NMTAP	4	192	4
NMTAP	5	0	2
NMTAP	5	0	3
NMTAP	6	0	1
NMTAP	6	96	1
NMTAP	6	192	1
NMTAP	7	0	2
NMTAP	7	96	2
NMTAP	7	192	2
NMTAP	8	0	3
NMTAP	8	96	3
NMTAP	8	192	3
NMTAP	9	0	4
NMTAP	9	0	5
NMTAP	10	0	6
NMTAP	10	96	6
NMTAP	10	192	6
NMTAP	10	192	7
NMTAP	11	0	5
NMTAP	11	96	5
NMTAP	11	192	4
NMTAP	11	192	5
NMTAP	12	0	3
NMTAP	12	96	3
NMTAP	12	192	2
NMTAP	12	192	3
NMTAP	13	0	0
NMTAP	13	0	1
NMTAP	13	96	0
NMTAP	13	96	1
NMTAP	13	192	0
NMTAP	13	192	1
NMTAP	14	0	1
NMTAP	14	96	1
NMTAP	14	192	0
NMTAP	14	192	1
NMTAP	15	0	2
NMTAP	15	96	2
NMTAP	15	192	2
NMTAP	15	192	3
NMTAP	16	0	4
NMTAP	16	96	4
NMTAP	16	192	4
NMTAP	16	192	5
NMTAP	17	0	6
NMTAP	17	0	7
NMTAP	17	96	6
NMTAP	17	96	7
NMTAP	17	192	6
NMTAP	17	192	7
NMHLD	18	0	5	192
NMHLD	18	192	4	192
NMHLD	19	0	3	192
NMTAP	19	192	2
NMHLD	20	0	2	192
NMHLD	20	192	3	192
NMHLD	21	0	4	192
NMTAP	21	192	5
NMHLD	22	0	6	192
NMHLD	22	192	5	192
NMHLD	23	0	4	192
NMTAP	23	192	3
NMHLD	24	0	1	192
NMHLD	24	192	2	192
NMHLD	25	0	3	192
NMTAP	25	192	4
NMTAP	26	0	2
NMTAP	26	96	2
NMTAP	26	192	1
NMTAP	26	288	1
NMTAP	27	0	0
NMTAP	27	96	0
NMTAP	27	192	6
NMTAP	27	192	7
NMTAP	28	0	5
NMTAP	28	96	5
NMTAP	28	192	6
NMTAP	28	288	6
NMTAP	29	0	7
NMTAP	29	96	7
NMTAP	29	192	0
NMTAP	29	192	1
NMTAP	30	0	1
NMTAP	30	96	1
NMTAP	30	192	2
NMTAP	30	288	2
NMTAP	31	0	3
NMTAP	31	96	3
NMTAP	31	192	4
NMTAP	31	192	5
NMTAP	32	0	6
NMTAP	32	96	6
NMTAP	32	192	5
NMTAP	32	288	5
NMTAP	33	0	4
NMTAP	33	96	4
NMTAP	33	192	2
NMTAP	33	192	3
NMTAP	34	0	2
NMTAP	34	96	2
NMTAP	34	192	1
NMTAP	34	288	1
NMTAP	35	0	0
NMTAP	35	96	0
NMTAP	35	192	6
NMTAP	35	192	7
NMTAP	36	0	5
NMTAP	36	96	5
NMTAP	36	192	6
NMTAP	36	288	6
NMTAP	37	0	7
NMTAP	37	96	7
NMTAP	37	192	0
NMTAP	37	192	1
NMTAP	38	0	1
NMTAP	38	96	1
NMTAP	38	192	2
NMTAP	38	288	2
NMTAP	39	0	3
NMTAP	39	96	3
NMTAP	39	192	4
NMTAP	39	192	5
NMTAP	40	0	6
NMTAP	40	96	6
NMTAP	40	192	5
NMTAP	40	288	5
NMTAP	41	0	4
NMTAP	41	96	4
NMTAP	41	192	2
NMTAP	41	192	3
NMHLD	42	0	2	192
NMTAP	42	192	3
NMHLD	43	0	1	192
NMTAP	43	192	0
NMHLD	44	0	6	192
NMTAP	44	192	7
NMHLD	45	0	5	192
NMTAP	45	192	4
NMSTR	46	0	5
NMSI_	46	0	5	96	192	2
NMSTR	47	0	1
NMSI_	47	0	1	96	192	4
NMSTR	48	0	6
NMSI_	48	0	6	96	192	3
NMSTR	49	0	1
NMSI_	49	0	1	96	192	5
NMSTR	50	0	7
NMSI_	50	0	7	96	192	3
NMSTR	51	0	2
NMSI_	51	0	2	96	192	7
NMSTR	52	0	6
NMSI_	52	0	6	96	192	3
NMSTR	53	0	2
NMSI_	53	0	2	96	192	5
NMTAP	54	0	6
NMTAP	54	96	6
NMTAP	54	192	6
NMTAP	54	192	7
NMTAP	55	0	5
NMTAP	55	96	5
NMTAP	55	192	4
NMTAP	55	192	5
NMTAP	56	0	3
NMTAP	56	96	3
NMTAP	56	192	2
NMTAP	56	192	3
NMTAP	57	0	0
NMTAP	57	0	1
NMTAP	57	96	0
NMTAP	57	96	1
NMTAP	57	192	0
NMTAP	57	192	1
NMTAP	58	0	1
NMTAP	58	96	1
NMTAP	58	192	0
NMTAP	58	192	1
NMTAP	59	0	2
NMTAP	59	96	2
NMTAP	59	192	2
NMTAP	59	192	3
NMTAP	60	0	4
NMTAP	60	96	4
NMTAP	60	192	4
NMTAP	60	192	5
NMTAP	61	0	6
NMTAP	61	0	7
NMTAP	61	96	6
NMTAP	61	96	7
NMTAP	61	192	6
NMTAP	61	192	7
NMTTP	62	0	6	B	0	L1
NMTTP	62	96	5	B	0	L1
NMTTP	62	192	4	B	0	L1
NMTTP	63	0	1	B	0	L1
NMTTP	63	96	2	B	0	L1
NMTTP	63	192	3	B	0	L1
NMTTP	64	0	6	B	0	L1
NMTTP	64	96	5	B	0	L1
NMTTP	64	192	4	B	0	L1
NMTTP	64	288	3	B	0	L1
NMTTP	65	0	2	B	0	L1
NMTTP	65	96	1	B	0	L1
NMTTP	65	192	0	C	0	L1
NMTTP	66	0	0	B	0	L1
NMTTP	66	96	1	B	0	L1
NMTTP	66	192	2	B	0	L1
NMTTP	66	192	3	B	0	L1
NMTTP	67	0	7	B	0	L1
NMTTP	67	96	6	B	0	L1
NMTTP	67	192	4	B	0	L1
NMTTP	67	192	5	B	0	L1
NMTTP	68	0	1	B	0	L1
NMTTP	68	96	2	B	0	L1
NMTTP	68	192	3	B	0	L1
NMTTP	68	288	4	B	0	L1
NMTTP	69	0	0	C	0	L1
NMTAP	70	0	1
NMTAP	70	96	1
NMTAP	70	192	0
NMTAP	70	192	1
NMTAP	70	288	0
NMTAP	70	288	1
NMTAP	71	0	7
NMTAP	71	96	7
NMTAP	71	192	6
NMTAP	71	192	7
NMTAP	72	0	5
NMTAP	72	96	5
NMTAP	72	192	6
NMTAP	72	192	7
NMTAP	72	288	6
NMTAP	72	288	7
NMTAP	73	0	0
NMTAP	73	96	0
NMTAP	73	192	0
NMTAP	73	192	1
NMTAP	74	0	1
NMTAP	74	96	1
NMTAP	74	192	2
NMTAP	74	192	3
NMTAP	74	288	2
NMTAP	74	288	3
NMTAP	75	0	4
NMTAP	75	96	4
NMTAP	75	192	4
NMTAP	75	192	5
NMTAP	76	0	6
NMTAP	76	96	6
NMTAP	76	192	4
NMTAP	76	192	5
NMTAP	76	288	4
NMTAP	76	288	5
NMTAP	77	0	3
NMTAP	77	96	3
NMTAP	77	192	2
NMTAP	77	192	3
NMTAP	78	0	2
BXTAP	78	96	2
NMTAP	78	192	0
NMTAP	78	192	1
NMTAP	78	288	0
NMTAP	78	288	1
NMTAP	79	0	7
NMTAP	79	96	7
NMTAP	79	192	6
NMTAP	79	192	7
NMTAP	79	288	6
NMTAP	79	288	7
NMTAP	80	0	5
NMTAP	80	96	5
NMTAP	80	192	6
NMTAP	80	192	7
NMTAP	80	288	6
NMTAP	80	288	7
NMTAP	81	0	0
NMTAP	81	96	0
NMTAP	81	192	0
NMTAP	81	192	1
NMTAP	82	0	1
NMTAP	82	96	1
NMTAP	82	192	2
NMTAP	82	192	3
NMTAP	82	288	2
NMTAP	82	288	3
NMTAP	83	0	4
NMTAP	83	96	4
NMTAP	83	192	4
NMTAP	83	192	5
NMTAP	83	288	4
NMTAP	83	288	5
NMTAP	84	0	6
NMTAP	84	96	6
NMTAP	84	192	4
NMTAP	84	192	5
NMTAP	84	288	4
NMTAP	84	288	5
NMTAP	85	0	3
NMTAP	85	96	3
BRTAP	85	192	2
BRTAP	85	192	3
NMTAP	86	0	1
NMTAP	86	96	1
NMTAP	86	192	1
NMTAP	86	288	0
NMTAP	86	288	1
NMTAP	87	0	2
NMTAP	87	96	2
NMTAP	87	192	2
NMTAP	87	288	2
NMTAP	87	288	3
NMTAP	88	0	4
NMTAP	88	96	4
NMTAP	88	192	4
NMTAP	88	288	4
NMTAP	88	288	5
NMTAP	89	0	6
NMTAP	89	0	7
NMTAP	89	96	6
NMTAP	89	96	7
NMTAP	89	192	6
NMTAP	89	192	7
NMTAP	90	0	6
NMTAP	90	96	6
NMTAP	90	192	6
NMTAP	90	288	6
NMTAP	90	288	7
NMTAP	91	0	5
NMTAP	91	96	5
NMTAP	91	192	5
NMTAP	91	288	4
NMTAP	91	288	5
NMTAP	92	0	3
NMTAP	92	96	3
NMTAP	92	192	3
NMTAP	92	288	2
NMTAP	92	288	3
NMTAP	93	0	0
NMTAP	93	0	1
NMTAP	93	96	0
NMTAP	93	96	1
NMTAP	93	192	0
NMTAP	93	192	1
NMTAP	94	0	2
NMTAP	94	0	3
NMTAP	94	96	2
NMTAP	94	96	3
NMTAP	94	192	1
NMTAP	94	192	4
NMTAP	95	0	0
NMTAP	95	0	1
NMTAP	95	96	0
NMTAP	95	96	1
NMTAP	95	192	2
NMTAP	95	192	7
NMTAP	96	0	6
NMTAP	96	0	7
NMTAP	96	96	6
NMTAP	96	96	7
NMTAP	96	192	0
NMTAP	96	192	5
NMTAP	97	0	4
NMTAP	97	0	5
NMTAP	97	96	4
NMTAP	97	96	5
NMTAP	97	192	3
NMTAP	97	192	6
NMTAP	98	0	4
NMTAP	98	0	5
NMTAP	98	96	4
NMTAP	98	96	5
NMTAP	98	192	3
NMTAP	98	192	6
NMTAP	99	0	6
NMTAP	99	0	7
NMTAP	99	96	6
NMTAP	99	96	7
NMTAP	99	192	0
NMTAP	99	192	5
NMTAP	100	0	0
NMTAP	100	0	1
NMTAP	100	96	0
NMTAP	100	96	1
NMTAP	100	192	2
NMTAP	100	192	7
NMTAP	101	0	2
NMTAP	101	0	3
NMTAP	101	96	2
NMTAP	101	96	3
NMTAP	101	192	1
NMTAP	101	192	4
BXTAP	102	0	0
BXTAP	102	0	7

T_REC_TAP	337
T_REC_BRK	2
T_REC_XTP	0
T_REC_BXX	3
T_REC_HLD	16
T_REC_XHO	0
T_REC_BHO	0
T_REC_BXH	0
T_REC_STR	8
T_REC_BST	0
T_REC_XST	0
T_REC_XBS	0
T_REC_TTP	26
T_REC_THO	0
T_REC_SLD	8
T_REC_BSL	0
T_REC_ALL	400
T_NUM_TAP	371
T_NUM_BRK	5
T_NUM_HLD	16
T_NUM_SLD	8
T_NUM_ALL	400
T_JUDGE_TAP	376
T_JUDGE_HLD	64
T_JUDGE_SLD	8
T_JUDGE_ALL	448
TTM_EACHPAIRS	97
TTM_SCR_TAP	185500
TTM_SCR_BRK	13000
TTM_SCR_HLD	16000
TTM_SCR_SLD	12000
TTM_SCR_ALL	226500
TTM_SCR_S	219250
TTM_SCR_SS	226000
TTM_RAT_ACV	10022

