VERSION	0.00.00	1.04.00
FES_MODE	0
BPM_DEF	167.000	167.000	167.000	167.000
MET_DEF	4	4
RESOLUTION	384
CLK_DEF	384
COMPATIBLE_CODE	MA2

BPM	0	0	167.000
MET	0	0	4	4

NMTAP	2	0	7
NMTAP	3	0	6
NMTAP	4	0	5
NMTAP	5	0	4
NMTAP	6	0	3
NMTAP	7	0	2
NMTAP	8	0	1
NMTAP	9	0	0
NMTAP	9	0	7
NMTAP	10	0	0
NMTAP	10	192	0
NMTAP	11	0	1
NMTAP	12	0	2
NMTAP	12	192	2
NMTAP	13	0	2
NMTAP	13	0	3
NMTAP	14	0	4
NMTAP	14	192	4
NMTAP	15	0	5
NMTAP	16	0	6
NMTAP	16	192	6
NMTAP	17	0	6
NMTAP	17	0	7
NMTAP	18	0	7
NMTAP	18	192	7
NMTAP	19	0	6
NMTAP	19	192	6
NMTAP	20	0	5
NMTAP	20	192	5
NMTAP	21	0	3
NMTAP	21	0	4
NMTAP	22	0	3
NMTAP	22	192	3
NMTAP	23	0	2
NMTAP	23	192	2
NMTAP	24	0	1
NMTAP	24	192	1
EXTAP	25	0	0
EXTAP	25	0	7
NMTAP	26	0	0
NMTAP	26	96	0
NMTAP	26	192	0
NMTAP	27	0	1
NMTAP	27	192	1
NMTAP	28	0	2
NMTAP	28	192	2
EXTAP	29	0	2
EXTAP	29	0	3
NMTAP	30	0	4
NMTAP	30	96	4
NMTAP	30	192	4
NMTAP	31	0	5
NMTAP	31	192	5
NMTAP	32	0	6
NMTAP	32	192	6
EXTAP	33	0	6
EXTAP	33	0	7
BRTAP	34	0	7
NMTAP	34	96	7
NMTAP	34	192	7
NMTAP	35	0	6
NMTAP	35	192	6
NMTAP	36	0	5
NMTAP	36	96	5
NMTAP	36	192	5
NMTAP	37	0	4
NMTAP	37	192	3
NMTAP	37	192	4
NMTAP	38	0	3
NMTAP	38	96	3
NMTAP	38	192	3
NMTAP	39	0	2
NMTAP	39	192	2
NMTAP	40	0	1
NMTAP	40	96	1
NMTAP	40	192	1
BXTAP	41	0	0
BXTAP	41	0	7
NMTAP	42	0	6
NMTAP	42	192	6
NMTAP	43	0	0
NMTAP	43	0	7
NMTAP	44	0	1
NMTAP	44	192	1
NMTAP	45	0	0
NMTAP	45	0	7
NMHLD	46	0	0	336
NMHLD	46	0	1	336
NMHLD	48	0	2	336
NMHLD	48	0	3	336
NMHLD	50	0	4	336
NMHLD	50	0	5	336
NMHLD	52	0	6	336
NMHLD	52	0	7	336
NMTTP	54	0	7	B	0	L1
NMTTP	55	0	0	B	0	L1
NMTTP	56	0	6	B	0	L1
NMTTP	57	0	1	B	0	L1
NMTTP	58	0	5	B	0	L1
NMTTP	59	0	2	B	0	L1
NMTHO	60	0	0	336	C	0	L1
NMTAP	62	0	7
NMTAP	62	192	7
NMTAP	63	0	6
NMTAP	63	0	7
NMTAP	63	192	6
NMTAP	63	192	7
NMTAP	64	0	5
NMTAP	64	192	5
NMTAP	65	0	3
NMTAP	65	0	4
NMTAP	65	192	3
NMTAP	65	192	4
NMTAP	66	0	2
NMTAP	66	192	2
NMTAP	67	0	2
NMTAP	67	0	3
NMTAP	67	192	2
NMTAP	67	192	3
NMTAP	68	0	1
NMTAP	68	192	1
EXTAP	69	0	0
EXTAP	69	0	7
NMTAP	70	0	0
NMTAP	70	96	0
NMTAP	70	192	0
NMTAP	71	0	1
NMTAP	71	192	1
NMTAP	72	0	2
NMTAP	72	96	2
NMTAP	72	192	2
EXTAP	73	0	2
EXTAP	73	0	3
NMTAP	74	0	4
NMTAP	74	96	4
NMTAP	74	192	4
NMTAP	75	0	5
NMTAP	75	192	5
NMTAP	76	0	6
NMTAP	76	96	6
NMTAP	76	192	6
EXTAP	77	0	6
EXTAP	77	0	7
NMTAP	78	0	7
BRTAP	78	96	7
NMTAP	78	192	7
NMTAP	79	0	6
NMTAP	79	96	6
NMTAP	79	192	6
NMTAP	80	0	5
NMTAP	80	96	5
NMTAP	80	192	5
NMTAP	81	0	4
NMTAP	81	96	4
NMTAP	81	192	3
NMTAP	81	192	4
NMTAP	82	0	3
NMTAP	82	96	3
NMTAP	82	192	3
NMTAP	83	0	2
NMTAP	83	96	2
NMTAP	83	192	2
NMTAP	84	0	1
NMTAP	84	96	1
NMTAP	84	192	1
BXTAP	85	0	0
BXTAP	85	0	7
NMSTR	86	0	0
NMSI_	86	0	0	96	288	4
NMSTR	88	0	7
NMSI_	88	0	7	96	288	3
NMSTR	90	0	1
NMSI_	90	0	1	96	288	5
NMSTR	92	0	6
NMSI_	92	0	6	96	288	2
BRTAP	94	0	0
NMTAP	94	96	0
NMTAP	94	192	0
NMTAP	95	0	0
NMTAP	95	0	1
NMTAP	95	96	0
NMTAP	95	96	1
NMTAP	95	192	0
NMTAP	95	192	1
NMTAP	96	0	2
NMTAP	96	96	2
NMTAP	96	192	2
NMTAP	97	0	3
NMTAP	97	0	4
NMTAP	97	96	3
NMTAP	97	96	4
NMTAP	97	192	3
NMTAP	97	192	4
NMTAP	98	0	5
NMTAP	98	96	5
NMTAP	98	192	5
NMTAP	99	0	4
NMTAP	99	0	5
NMTAP	99	96	4
NMTAP	99	96	5
NMTAP	99	192	4
NMTAP	99	192	5
NMTAP	100	0	6
NMTAP	100	96	6
NMTAP	100	192	6
NMTAP	101	0	0
NMTAP	101	0	7
NMTAP	101	96	0
NMTAP	101	96	7
NMTAP	101	192	0
NMTAP	101	192	7
BRTAP	102	0	0
BRTAP	102	0	7

T_REC_TAP	169
T_REC_BRK	5
T_REC_XTP	12
T_REC_BXX	4
T_REC_HLD	8
T_REC_XHO	0
T_REC_BHO	0
T_REC_BXH	0
T_REC_STR	4
T_REC_BST	0
T_REC_XST	0
T_REC_XBS	0
T_REC_TTP	6
T_REC_THO	1
T_REC_SLD	4
T_REC_BSL	0
T_REC_ALL	213
T_NUM_TAP	191
T_NUM_BRK	9
T_NUM_HLD	9
T_NUM_SLD	4
T_NUM_ALL	213
T_JUDGE_TAP	200
T_JUDGE_HLD	63
T_JUDGE_SLD	4
T_JUDGE_ALL	267
TTM_EACHPAIRS	39
TTM_SCR_TAP	95500
TTM_SCR_BRK	23400
TTM_SCR_HLD	9000
TTM_SCR_SLD	6000
TTM_SCR_ALL	133900
TTM_SCR_S	129050
TTM_SCR_SS	133000
TTM_RAT_ACV	10067

