VERSION	0.00.00	1.04.00
FES_MODE	0
BPM_DEF	135.000	135.000	135.000	135.000
MET_DEF	4	4
RESOLUTION	384
CLK_DEF	384
COMPATIBLE_CODE	MA2

BPM	0	0	135.000
MET	0	0	4	4

NMHLD	1	0	2	120
NMHLD	1	0	5	120
NMTAP	1	336	6
NMTAP	1	360	6
NMTAP	2	0	4
NMTAP	2	48	3
NMTAP	2	96	2
NMTAP	2	96	4
NMTAP	2	144	1
NMTAP	2	168	1
NMTAP	2	192	3
NMTAP	2	240	4
NMTAP	2	288	3
NMTAP	2	288	5
NMTAP	2	336	2
NMTAP	2	360	2
NMTAP	3	0	4
NMTAP	3	48	5
NMTAP	3	72	5
NMTAP	3	96	3
NMTAP	3	144	2
NMTAP	3	192	4
NMTAP	3	240	5
NMTAP	3	288	3
NMTAP	3	288	5
NMTAP	3	336	1
NMTAP	3	360	1
NMTAP	4	0	3
NMTAP	4	48	4
NMTAP	4	96	3
NMTAP	4	96	5
NMTAP	4	144	6
NMTAP	4	168	6
NMTAP	4	192	4
NMTAP	4	240	3
NMTAP	4	288	2
NMTAP	4	288	4
NMTAP	4	336	1
NMTAP	4	360	1
NMTAP	5	0	7
NMTAP	5	48	6
NMTAP	5	72	6
NMTAP	5	96	0
NMTAP	5	144	2
NMTAP	5	168	2
NMTAP	5	192	4
NMTAP	5	240	5
NMTAP	5	264	5
NMTAP	5	288	3
NMTAP	5	336	1
NMTAP	5	360	1
NMTAP	6	0	3
NMTAP	6	48	4
NMTAP	6	96	3
NMTAP	6	96	5
NMTAP	6	144	6
NMTAP	6	168	6
NMTAP	6	192	4
NMTAP	6	240	3
NMTAP	6	288	2
NMTAP	6	288	4
NMTAP	6	336	5
NMTAP	6	360	5
NMTAP	7	0	3
NMTAP	7	48	2
NMTAP	7	72	2
NMTAP	7	96	4
NMTAP	7	144	5
NMTAP	7	192	3
NMTAP	7	240	2
NMTAP	7	288	2
NMTAP	7	288	4
NMTAP	7	336	6
NMTAP	7	360	6
NMTAP	8	0	4
NMTAP	8	48	3
NMTAP	8	96	2
NMTAP	8	96	4
NMTAP	8	144	1
NMTAP	8	168	1
NMTAP	8	192	3
NMTAP	8	240	4
NMTAP	8	288	3
NMTAP	8	288	5
NMTAP	8	336	6
NMTAP	8	360	6
NMSTR	9	0	0
NMSCR	9	0	0	96	144	7
NMTTP	9	96	0	C	1	M1
EXSTR	10	0	6
NMSI_	10	0	6	96	48	2
EXSTR	10	0	7
NMSI_	10	0	7	96	48	3
BRTAP	10	96	6
BRTAP	10	96	7
NMTAP	10	192	1
NMTAP	10	192	4
NMTAP	10	288	3
NMTAP	10	288	6
NMTAP	10	336	7
NMTAP	10	360	7
NMHLD	11	0	7	144
NMTAP	11	48	4
NMTAP	11	72	4
NMHLD	11	96	4	96
NMTAP	11	192	5
NMTAP	11	240	3
NMTAP	11	288	2
NMTAP	11	336	1
NMTAP	11	360	1
NMTAP	12	0	3
NMTAP	12	48	4
NMTAP	12	96	3
NMTAP	12	96	5
NMTAP	12	144	6
NMTAP	12	168	6
NMTAP	12	192	4
NMTAP	12	240	3
NMTAP	12	240	5
NMTAP	12	288	2
NMTAP	12	288	4
NMTAP	12	336	0
NMTAP	12	360	0
NMHLD	13	0	0	144
NMTAP	13	48	3
NMTAP	13	72	3
NMHLD	13	96	3	96
NMTAP	13	192	2
NMTAP	13	240	4
NMTAP	13	288	5
NMTAP	13	336	6
NMTAP	13	360	6
NMSTR	14	0	4
NMSI_	14	0	4	96	48	0
NMTAP	14	48	3
NMTAP	14	96	2
BRTAP	14	96	4
NMTAP	14	144	1
NMTAP	14	168	1
NMTAP	14	192	7
NMTAP	14	240	3
NMTAP	14	240	5
NMTAP	14	288	2
NMTAP	14	288	6
NMTAP	14	336	7
NMTAP	14	360	7
NMHLD	15	0	7	144
NMTAP	15	48	4
NMTAP	15	72	4
NMHLD	15	96	4	96
NMTAP	15	192	5
NMTAP	15	240	3
NMTAP	15	288	2
NMTAP	15	336	1
NMTAP	15	360	1
NMTAP	16	0	3
NMTAP	16	48	4
NMTAP	16	96	3
NMTAP	16	96	5
NMTAP	16	144	6
NMTAP	16	168	6
NMTAP	16	192	4
NMTAP	16	240	3
NMTAP	16	240	5
NMSTR	16	288	2
NMSCR	16	288	2	96	72	5
NMTAP	16	288	4
NMTAP	16	336	1
NMHLD	17	0	0	96
CNSUL	17	72	5	0	72	1
NMTAP	17	192	0
NMTAP	17	192	3
NMTAP	17	240	2
NMTAP	17	240	5
BRTAP	17	288	4
BRSTR	17	288	7
NMSCL	17	288	7	96	288	2
NMHLD	18	0	2	192
NMTAP	18	288	1
CNSCR	18	288	2	0	288	7
NMHLD	19	0	1	192
NMSTR	19	288	0
NMSI_	19	288	0	96	96	4
NMHLD	20	0	5	192
CNSI_	20	96	4	0	96	1
CNSI_	20	192	1	0	96	5
CNSI_	20	288	5	0	96	3
NMTAP	20	288	6
CNSI_	21	0	3	0	192	0
NMHLD	21	0	6	192
NMTAP	21	288	6
NMSTR	21	288	7
NMSI_	21	288	7	96	96	2
NMHLD	22	0	5	192
CNSI_	22	96	2	0	96	4
CNSI_	22	192	4	0	96	7
NMTAP	22	288	6
CNSI_	22	288	7	0	96	4
CNSI_	23	0	4	0	96	2
NMHLD	23	0	6	192
CNSI_	23	96	2	0	96	7
NMTAP	23	288	0
NMSTR	23	288	4
NMSI_	23	288	4	96	48	6
NMSTR	24	0	3
NMSI_	24	0	3	96	48	1
NMTAP	24	48	2
NMSTR	24	96	4
NMSCR	24	96	4	96	48	7
NMTAP	24	144	5
NMSTR	24	192	3
NMSCL	24	192	3	96	48	0
NMTAP	24	240	2
NMTAP	24	288	4
NMTAP	24	336	5
NMTAP	25	0	2
NMTAP	25	48	2
NMSTR	25	96	0
NMSV_	25	96	0	96	48	5
NMSTR	25	96	1
NMSCR	25	96	1	96	48	4
NMTAP	25	144	7
NMTTP	25	192	0	A	0	M1
NMTTP	25	192	1	A	0	M1
NMTTP	25	192	1	D	1	M1
NMSTR	25	288	5
NMSI_	25	288	5	96	48	2
NMSTR	25	288	6
NMSI_	25	288	6	96	48	1
NMTAP	25	336	7
EXTAP	26	0	5
EXTAP	26	0	6
NMHLD	26	96	0	72
NMTAP	26	168	2
NMTAP	26	192	2
NMTAP	26	240	1
NMTAP	26	240	3
NMSTR	26	288	3
NMSCL	26	288	3	96	48	0
NMTAP	26	288	4
NMTAP	26	336	4
NMTAP	26	336	6
NMSTR	27	0	3
NMSXL	27	0	3	96	96	0
NMSXL	27	0	3	96	96	1
NMTAP	27	48	4
NMSTR	27	288	1
NMSI_	27	288	1	96	48	6
NMSTR	27	288	2
NMSI_	27	288	2	96	48	5
NMTAP	27	336	0
EXTAP	28	0	1
EXTAP	28	0	2
NMHLD	28	96	7	72
NMTAP	28	168	5
NMTAP	28	192	5
NMTAP	28	240	4
NMTAP	28	240	6
NMTAP	28	288	1
NMTAP	28	288	3
NMTAP	28	336	2
NMTAP	28	336	4
NMTAP	29	0	1
NMTAP	29	24	3
NMTAP	29	48	2
NMTAP	29	72	6
NMTAP	29	96	4
NMTAP	29	120	5
NMTAP	29	144	0
NMTAP	29	168	7
NMTAP	29	192	1
NMTAP	29	240	3
NMTAP	29	240	5
NMSTR	29	288	5
NMSI_	29	288	5	96	48	2
NMSTR	29	288	6
NMSI_	29	288	6	96	48	1
NMTAP	29	336	7
EXTAP	30	0	5
EXTAP	30	0	6
NMHLD	30	96	0	72
NMTAP	30	168	3
NMTAP	30	192	3
NMTAP	30	240	1
NMTAP	30	240	2
NMTAP	30	288	0
NMTAP	30	288	3
NMTAP	30	336	4
NMTAP	30	336	7
NMHLD	31	0	5	48
NMHLD	31	0	6	48
NMHLD	31	96	1	48
NMHLD	31	96	2	48
NMTAP	31	192	0
NMTAP	31	192	3
NMTAP	31	240	0
NMTAP	31	240	3
NMSTR	31	288	1
NMSI_	31	288	1	96	48	6
NMSTR	31	288	2
NMSI_	31	288	2	96	48	5
NMTAP	31	336	0
EXTAP	32	0	1
EXTAP	32	0	2
NMSTR	32	96	7
NMSCL	32	96	7	96	48	4
NMTAP	32	168	3
NMTAP	32	192	3
NMTAP	32	240	2
NMTAP	32	288	1
NMHLD	32	288	3	336
NMTAP	32	336	2
BRTAP	33	0	1
BRTAP	33	48	0
BRTAP	33	96	7
BRTAP	33	144	6
BRTAP	33	192	5
EXTAP	33	240	7
EXTAP	33	288	7
NMTAP	34	0	6
NMHLD	34	48	6	96
NMTAP	34	96	4
NMHLD	34	144	4	96
NMTAP	34	192	3
NMHLD	34	240	3	96
NMTAP	34	288	1
NMHLD	34	336	1	96
NMTAP	35	0	0
NMTAP	35	48	0
NMTAP	35	96	0
NMTAP	35	96	7
NMTAP	35	144	6
NMTAP	35	144	7
NMTAP	35	192	5
NMTAP	35	216	4
NMTAP	35	264	4
NMTAP	35	288	3
NMTAP	35	336	2
NMTAP	35	336	3
NMTAP	36	0	1
NMHLD	36	48	1	96
NMTAP	36	96	3
NMHLD	36	144	3	96
NMTAP	36	192	4
NMHLD	36	240	4	96
NMTAP	36	288	6
NMHLD	36	336	6	96
NMTAP	37	0	7
NMTAP	37	48	7
NMTAP	37	96	0
NMTAP	37	96	7
NMTAP	37	144	0
NMTAP	37	144	1
NMTAP	37	192	2
NMTAP	37	216	3
NMTAP	37	264	3
NMTAP	37	288	4
NMTAP	37	336	4
NMTAP	37	336	5
NMTAP	38	0	6
NMHLD	38	48	6	96
NMTAP	38	96	4
NMHLD	38	144	4	96
NMTAP	38	192	3
NMHLD	38	240	3	96
NMTAP	38	288	1
NMHLD	38	336	1	96
NMTAP	39	0	0
NMTAP	39	48	0
NMTAP	39	96	0
NMTAP	39	96	7
NMTAP	39	144	6
NMTAP	39	144	7
NMTAP	39	192	5
NMTAP	39	216	4
NMTAP	39	264	4
NMSTR	39	288	5
NMSI_	39	288	5	96	48	1
NMTAP	39	336	3
NMTAP	40	0	2
NMTAP	40	0	5
NMSTR	40	96	3
NMSI_	40	96	3	96	48	0
NMTAP	40	144	6
NMTAP	40	192	3
NMTAP	40	192	7
NMSTR	40	288	6
NMSI_	40	288	6	96	48	2
NMTAP	40	336	1
NMSTR	41	0	0
NMSF_	41	0	0	96	48	4
NMTAP	41	0	6
NMTAP	41	192	5
NMTAP	41	216	3
NMTAP	41	240	6
NMTAP	41	264	4
BRSTR	41	288	7
NMSI_	41	288	7	96	48	4
BRTAP	42	0	2
CNSV_	42	48	4	0	48	3
NMTAP	42	96	1
CNSCL	42	96	3	0	48	1
NMTAP	42	144	0
NMTAP	42	192	0
NMTAP	42	240	4
NMTAP	42	240	6
NMTAP	42	288	0
NMTAP	42	288	7
NMTAP	42	336	1
NMTAP	42	336	3
NMTAP	43	0	5
EXTAP	43	32	5
NMTAP	43	48	7
EXTAP	43	80	7
NMTAP	43	96	0
EXTAP	43	128	0
NMTAP	43	144	2
EXTAP	43	176	2
NMSTR	43	192	4
NMSI_	43	192	4	96	48	7
NMTAP	43	240	3
NMTAP	43	240	5
NMTAP	43	288	2
NMHLD	43	336	1	96
CNSI_	43	336	7	0	48	3
NMTAP	44	48	2
NMTAP	44	64	1
NMTAP	44	80	2
NMTAP	44	96	1
NMTAP	44	144	6
NMTAP	44	160	5
NMTAP	44	176	6
NMTAP	44	192	5
NMTAP	44	240	2
NMTAP	44	256	4
NMTAP	44	272	0
BRSTR	44	288	6
NMSCR	44	288	6	96	48	1
NMTAP	45	0	3
NMTAP	45	48	4
NMTAP	45	96	6
NMTAP	45	144	3
NMTAP	45	144	7
NMSTR	45	192	0
NMSI_	45	192	0	96	48	4
NMTAP	45	204	1
NMTAP	45	216	2
NMTAP	45	228	3
NMTAP	45	240	4
NMTAP	45	252	5
NMTAP	45	264	6
NMTAP	45	276	7
EXTAP	46	0	3
EXTAP	46	0	6
EXTAP	46	24	3
EXTAP	46	24	6
EXTAP	46	48	3
EXTAP	46	48	6
EXTAP	46	72	3
EXTAP	46	72	6
EXHLD	46	96	3	96
EXHLD	46	96	6	96
NMTTP	46	240	4	A	0	M1
NMTTP	46	240	5	A	0	M1
NMTTP	46	240	5	D	1	M1
NMTTP	46	240	6	D	0	M1
NMTTP	46	336	2	A	0	M1
NMTTP	46	336	2	D	0	M1
NMTTP	46	336	3	A	0	M1
NMTTP	46	336	3	D	1	M1
BXSTR	47	0	0
NMSI_	47	0	0	96	48	4
BXSTR	47	0	1
NMSI_	47	0	1	96	48	5
BXTAP	47	48	2
BXTAP	47	48	7
NMTTP	47	96	0	A	0	M1
NMTTP	47	96	1	A	0	M1
NMTTP	47	96	1	D	1	M1
BXSTR	47	264	6
NMSI_	47	264	6	96	48	2
BXSTR	47	264	7
NMSI_	47	264	7	96	48	3
BXTAP	47	312	4
BXTAP	47	312	5
NMTTP	47	360	6	A	0	M1
NMTTP	47	360	7	A	0	M1
NMTTP	47	360	7	D	1	M1
BXSTR	48	72	0
NMSI_	48	72	0	96	48	4
BXSTR	48	72	1
NMSI_	48	72	1	96	48	5
BXTAP	48	120	2
BXTAP	48	120	3
NMTTP	48	168	0	A	0	M1
NMTTP	48	168	1	A	0	M1
NMTTP	48	168	1	D	1	M1
NMSTR	48	288	0
NMSI_	48	288	0	96	48	4
NMSTR	48	288	7
NMSI_	48	288	7	96	48	3
NMTAP	48	336	2
NMTAP	48	336	5
NMSTR	49	0	0
NMSI_	49	0	0	96	48	5
NMSTR	49	0	7
NMSI_	49	0	7	96	48	2
NMSTR	49	96	0
NMSI_	49	96	0	96	48	4
NMSTR	49	96	7
NMSI_	49	96	7	96	48	3
NMTAP	49	192	0
NMTAP	49	192	7
EXTAP	49	288	5
EXTAP	49	304	4
EXTAP	49	320	3
EXTAP	49	336	2
BXTAP	50	0	0
BXTAP	50	0	3
EXTAP	50	24	0
EXTAP	50	24	3
EXTAP	50	48	0
EXTAP	50	48	3
EXTAP	50	72	0
EXTAP	50	72	3
EXTAP	50	96	0
EXTAP	50	96	3
EXHLD	50	168	1	72
EXHLD	50	168	2	72
BXTAP	50	288	5
BXTAP	50	288	7
BXTAP	50	336	5
BXTAP	50	336	7
BXTAP	51	0	5
BXTAP	51	0	7
EXTAP	51	48	4
EXTAP	51	48	5
EXTAP	51	80	4
EXTAP	51	80	5
EXTAP	51	112	4
EXTAP	51	112	5
EXHLD	51	144	4	96
EXHLD	51	144	5	96
BRTAP	51	288	6
NMTAP	51	312	3
NMTAP	51	336	5
NMTAP	51	360	2
NMTAP	52	0	4
NMTAP	52	24	1
NMTAP	52	48	3
NMTAP	52	72	0
NMTAP	52	96	2
NMTAP	52	120	2
BRTAP	52	216	1
NMTAP	52	240	4
NMTAP	52	264	2
NMTAP	52	288	5
NMTAP	52	312	3
NMTAP	52	336	6
NMTAP	52	360	4
NMTAP	53	0	7
NMTAP	53	24	5
NMTAP	53	48	0
NMTAP	53	72	0
EXTAP	53	192	1
EXTAP	53	192	7
EXTAP	53	216	1
EXTAP	53	216	7
EXTAP	53	264	2
EXTAP	53	264	6
EXTAP	53	288	2
EXTAP	53	288	6
EXTAP	53	312	2
EXTAP	53	312	6
EXTAP	53	360	3
EXTAP	53	360	5
EXSTR	54	0	3
NMSCL	54	0	3	96	48	0
EXSTR	54	0	5
NMSCR	54	0	5	96	48	0
EXTAP	54	24	3
EXTAP	54	24	5
BRTAP	54	192	2
BRTAP	54	192	6
NMSTR	54	288	3
NMSCL	54	288	3	96	48	0
NMSTR	54	288	4
NMSCR	54	288	4	96	48	7
BRTAP	55	0	3
BRTAP	55	0	4
NMTAP	56	288	4
NMHLD	57	0	3	288
NMHLD	57	0	5	288
NMTAP	57	336	2
NMTAP	57	336	4
NMHLD	58	0	2	288
NMHLD	58	0	4	288
NMHLD	59	0	1	288
NMHLD	59	0	5	288
NMTAP	59	336	2
NMTAP	59	336	6
NMHLD	60	0	2	288
NMHLD	60	0	6	288
NMSTR	61	0	4
NMSI_	61	0	4	96	48	6
NMSTR	61	96	4
NMSI_	61	96	4	96	48	2
NMSTR	61	192	4
NMSI_	61	192	4	96	48	7
NMSTR	61	288	4
NMSCL	61	288	4	96	48	2
CNSLL	62	48	2	0	96	6
CNSI_	62	144	6	0	48	3
CNSLL	62	192	3	0	48	7
CNSCL	62	240	7	0	48	5
EXTAP	63	0	1
EXTAP	63	0	6
EXTAP	63	24	1
EXTAP	63	24	6
EXTAP	63	48	1
EXTAP	63	48	6
BXSTR	63	96	0
NMSCR	63	96	0	96	48	3
BXSTR	63	96	7
NMSCL	63	96	7	96	48	4
BXTAP	63	120	0
BXTAP	63	120	7
BXTAP	63	144	0
BXTAP	63	144	7
BXSTR	63	192	0
NMSI_	63	192	0	96	48	4
BXSTR	63	192	7
NMSI_	63	192	7	96	48	3
BRTAP	63	288	0
BRTAP	63	288	7
BRTAP	64	0	1
BRTAP	64	0	6
NMTAP	64	96	0
NMTAP	64	96	1
NMTAP	64	144	4
NMTAP	64	144	6
NMTAP	64	192	6
NMTAP	64	192	7
NMTAP	64	240	2
NMTAP	64	240	3
NMTAP	64	288	0
NMTAP	64	288	2
NMTAP	64	336	4
NMTAP	64	336	5
BRTAP	65	0	0
BRTAP	65	0	7
BRTAP	65	48	6
BRTAP	65	72	2
BRSTR	65	96	4
BRSF_	65	96	4	96	48	0
BRTAP	65	120	1
BRTAP	65	144	3
EXTAP	65	288	1
EXTAP	65	288	7
NMTAP	65	336	3
NMTAP	65	336	5
NMSTR	66	0	2
NMSCR	66	0	2	96	48	5
NMTAP	66	0	6
NMSTR	66	96	6
NMSUL	66	96	6	96	48	2
NMTAP	66	144	7
NMSTR	66	192	0
NMSUL	66	192	0	96	48	4
NMTAP	66	240	7
NMSTR	66	288	5
NMSI_	66	288	5	96	48	7
NMTAP	66	336	6
NMTAP	67	0	3
NMTAP	67	48	2
CNSI_	67	48	7	0	48	4
NMTAP	67	96	1
CNSI_	67	96	4	0	48	0
CNSI_	67	144	0	0	48	3
NMTAP	67	144	2
NMTAP	67	192	2
NMSTR	67	288	4
NMSI_	67	288	4	96	48	1
NMSTR	67	288	5
NMSI_	67	288	5	96	48	0
NMTAP	67	336	3
NMTAP	67	336	6
BRTAP	68	0	4
BRTAP	68	0	5
NMTAP	68	96	1
NMTAP	68	96	3
NMTAP	68	144	5
NMTAP	68	168	5
NMTAP	68	192	4
NMTAP	68	192	6
NMTAP	68	240	1
NMTAP	68	264	1
NMTAP	68	288	0
NMTAP	68	288	2
NMTAP	68	336	2
NMTAP	68	336	4
NMTAP	69	0	3
NMTAP	69	0	5
NMTAP	69	48	6
NMTAP	69	72	6
NMSTR	69	96	4
NMSCL	69	96	4	96	48	1
NMSTR	69	96	5
NMSV_	69	96	5	96	48	0
NMTAP	69	144	3
NMTAP	69	144	6
BXTAP	69	288	6
BXTAP	69	288	7
BXTAP	69	336	2
BXTAP	69	336	3
BXSTR	70	0	1
NMSXR	70	0	1	96	144	4
BXTAP	70	0	4
NMHLD	70	96	7	96
NMSTR	70	288	5
NMSI_	70	288	5	96	48	7
NMSTR	70	336	4
NMSI_	70	336	4	96	48	2
NMSTR	71	0	5
NMSI_	71	0	5	96	48	0
NMSTR	71	48	4
NMSI_	71	48	4	96	48	1
NMTAP	71	96	5
NMTAP	71	144	4
NMSTR	71	192	5
BRSI_	71	192	5	96	48	7
NMTAP	71	240	3
NMTTP	71	288	4	E	1	M1
NMSTR	71	288	5
NMSXL	71	288	5	96	480	0
NMTAP	72	0	3
NMTAP	72	48	3
NMTAP	72	96	4
NMTAP	72	144	4
NMTAP	72	192	3
NMTAP	72	240	3
NMTAP	72	288	2
NMTAP	72	336	2
NMTAP	73	0	3
NMTAP	73	48	4
EXTAP	73	96	5
NMTAP	73	192	4
NMTAP	73	216	4
NMTAP	73	264	2
NMSTR	73	288	2
NMSXR	73	288	2	96	576	7
NMTAP	73	336	3
NMTAP	74	0	4
NMTAP	74	48	4
NMTAP	74	96	3
NMTAP	74	144	3
NMTAP	74	192	4
NMTAP	74	240	4
NMTAP	74	288	5
NMTAP	74	336	5
NMTAP	75	0	4
NMTAP	75	48	3
EXTAP	75	96	2
NMTAP	75	192	3
NMTAP	75	216	3
NMTAP	75	264	5
NMSTR	75	288	5
NMSXL	75	288	5	96	480	0
NMTAP	75	336	4
NMTAP	76	0	3
NMTAP	76	48	3
NMTAP	76	96	4
NMTAP	76	144	4
NMTAP	76	192	3
NMTAP	76	240	3
NMTAP	76	288	2
NMTAP	76	336	2
NMTAP	77	0	3
NMTAP	77	48	4
EXTAP	77	96	5
EXTAP	77	144	5
NMTAP	77	192	4
EXTAP	77	288	0
EXTAP	77	288	7
NMTTP	78	0	2	B	0	M1
NMTTP	78	0	2	E	0	M1
NMTTP	78	0	5	B	0	M1
NMTTP	78	0	6	E	0	M1
NMTAP	78	96	0
NMTAP	78	96	7
NMTTP	78	192	3	B	0	M1
NMTTP	78	192	4	B	0	M1
NMTTP	78	192	4	E	0	M1
NMTAP	78	288	0
NMTAP	78	288	7
NMSTR	79	0	1
NMSCR	79	0	1	96	48	4
NMSTR	79	0	5
NMSCR	79	0	5	96	48	0
BRTAP	79	96	1
BRTAP	79	96	5
NMTAP	79	192	3
NMTAP	79	192	7
EXSTR	79	288	4
NMSUR	79	288	4	96	48	3
EXSTR	79	288	5
NMSCR	79	288	5	96	48	3
NMTTP	80	0	4	A	0	M1
NMTTP	80	0	5	A	0	M1
NMTTP	80	0	5	D	1	M1
EXSTR	80	96	4
NMSUR	80	96	4	96	48	3
EXSTR	80	96	5
NMSCR	80	96	5	96	48	3
NMTTP	80	192	4	A	0	M1
NMTTP	80	192	5	A	0	M1
NMTTP	80	192	5	D	1	M1
EXSTR	80	288	4
NMSUR	80	288	4	96	48	3
EXSTR	80	288	5
NMSCR	80	288	5	96	48	3
NMTTP	81	0	4	A	0	M1
NMTTP	81	0	5	A	0	M1
NMTTP	81	0	5	D	1	M1
EXSTR	81	96	4
NMSI_	81	96	4	96	48	0
EXSTR	81	96	5
NMSI_	81	96	5	96	48	0
NMTTP	81	192	4	A	0	M1
NMTTP	81	192	5	A	0	M1
NMTTP	81	192	5	D	1	M1
NMSTR	81	288	0
NMSCR	81	288	0	96	48	2
NMSTR	81	288	7
NMSUR	81	288	7	96	48	3
BXSTR	82	0	0
NMSUL	82	0	0	96	48	4
BXSTR	82	0	7
NMSCL	82	0	7	96	48	5
NMSTR	82	96	0
NMSCR	82	96	0	96	48	2
NMSTR	82	96	7
NMSUR	82	96	7	96	48	3
BXSTR	82	192	0
NMSUL	82	192	0	96	48	4
BXSTR	82	192	7
NMSCL	82	192	7	96	48	5
NMSTR	82	288	0
NMSCR	82	288	0	96	48	2
NMSTR	82	288	7
NMSUR	82	288	7	96	48	3
BXTAP	83	0	0
BXTAP	83	0	7
EXTAP	83	96	2
EXTAP	83	96	4
BRTAP	83	192	1
BRTAP	83	192	5
EXSTR	83	288	2
NMSCL	83	288	2	96	48	4
EXSTR	83	288	3
NMSUL	83	288	3	96	48	4
NMTTP	84	0	2	A	0	M1
NMTTP	84	0	3	A	0	M1
NMTTP	84	0	3	D	1	M1
EXSTR	84	96	2
NMSCL	84	96	2	96	48	4
EXSTR	84	96	3
NMSUL	84	96	3	96	48	4
NMTTP	84	192	2	A	0	M1
NMTTP	84	192	3	A	0	M1
NMTTP	84	192	3	D	1	M1
EXSTR	84	288	2
NMSCL	84	288	2	96	48	4
EXSTR	84	288	3
NMSUL	84	288	3	96	48	4
NMTTP	85	0	2	A	0	M1
NMTTP	85	0	3	A	0	M1
NMTTP	85	0	3	D	1	M1
EXSTR	85	96	2
NMSI_	85	96	2	96	48	7
EXSTR	85	96	3
NMSI_	85	96	3	96	48	7
NMTTP	85	192	2	A	0	M1
NMTTP	85	192	3	A	0	M1
NMTTP	85	192	3	D	1	M1
NMSTR	85	288	3
NMSUR	85	288	3	96	48	7
NMSTR	85	288	4
NMSCR	85	288	4	96	48	6
BXSTR	86	0	3
NMSCL	86	0	3	96	48	1
BXSTR	86	0	4
NMSUL	86	0	4	96	48	0
NMSTR	86	96	3
NMSUR	86	96	3	96	48	7
NMSTR	86	96	4
NMSCR	86	96	4	96	48	6
BXSTR	86	192	3
NMSCL	86	192	3	96	48	1
BXSTR	86	192	4
NMSUL	86	192	4	96	48	0
NMSTR	86	288	3
NMSUR	86	288	3	96	48	7
NMSTR	86	288	4
NMSCR	86	288	4	96	48	6
BXTAP	87	0	3
BXTAP	87	0	4
NMTAP	87	96	3
NMTAP	87	96	4
BRTAP	87	192	1
BRTAP	87	192	6
NMHLD	87	288	5	96
NMTAP	88	0	4
NMTAP	88	48	3
NMSTR	88	96	2
NMSI_	88	96	2	96	48	5
NMHLD	88	144	2	144
CNSI_	88	240	5	0	48	7
NMTAP	88	336	1
NMTAP	88	360	1
NMTAP	89	0	7
NMTAP	89	48	2
NMTAP	89	96	3
NMTAP	89	96	5
NMTAP	89	144	6
NMTAP	89	168	6
NMTAP	89	192	4
NMTAP	89	240	3
NMTAP	89	288	2
NMTAP	89	288	4
NMTAP	89	336	5
NMTAP	89	360	5
NMTAP	90	0	3
NMTAP	90	48	2
NMTAP	90	72	2
NMTAP	90	96	4
NMTAP	90	144	5
NMTAP	90	168	5
NMTAP	90	192	3
NMTAP	90	216	4
NMHLD	90	240	2	48
NMTAP	90	288	4
NMTAP	90	336	6
NMTAP	90	360	6
NMTAP	91	0	4
NMTAP	91	48	3
NMTAP	91	96	2
NMTAP	91	96	4
NMTAP	91	144	1
NMTAP	91	168	1
NMTAP	91	192	3
NMTAP	91	240	4
NMTAP	91	288	3
NMTAP	91	288	5
NMTAP	91	336	6
NMTAP	91	360	6
NMTAP	92	0	0
NMTAP	92	48	1
NMTAP	92	72	1
NMTAP	92	96	7
NMTAP	92	144	5
NMTAP	92	168	5
NMTAP	92	192	3
NMTAP	92	216	4
NMTAP	92	240	2
NMTAP	92	264	2
NMTAP	92	288	4
NMTAP	92	336	6
NMTAP	92	360	6
NMTAP	93	0	4
NMTAP	93	48	3
NMTAP	93	96	2
NMTAP	93	96	4
NMTAP	93	144	1
NMTAP	93	168	1
NMTAP	93	192	3
NMTAP	93	240	4
NMTAP	93	288	3
NMTAP	93	288	5
NMTAP	93	336	2
NMTAP	93	360	2
NMTAP	94	0	4
NMTAP	94	48	5
NMTAP	94	72	5
NMTAP	94	96	3
NMTAP	94	144	2
NMTAP	94	168	2
NMTAP	94	192	4
NMTAP	94	216	3
NMHLD	94	240	5	48
NMTAP	94	288	3
NMTAP	94	336	1
NMHLD	94	360	1	120
NMHLD	95	0	3	96
NMTAP	95	144	6
NMHLD	95	168	6	120
NMHLD	95	192	4	96
NMTTP	95	336	5	E	0	M1
NMTTP	95	360	4	E	0	M1
NMTTP	96	0	3	E	0	M1

T_REC_TAP	503
T_REC_BRK	34
T_REC_XTP	70
T_REC_BXX	27
T_REC_HLD	53
T_REC_XHO	6
T_REC_BHO	0
T_REC_BXH	0
T_REC_STR	71
T_REC_BST	4
T_REC_XST	20
T_REC_XBS	19
T_REC_TTP	56
T_REC_THO	0
T_REC_SLD	113
T_REC_BSL	2
T_REC_ALL	978
T_NUM_TAP	720
T_NUM_BRK	86
T_NUM_HLD	59
T_NUM_SLD	113
T_NUM_ALL	978
T_JUDGE_TAP	804
T_JUDGE_HLD	169
T_JUDGE_SLD	115
T_JUDGE_ALL	1088
TTM_EACHPAIRS	183
TTM_SCR_TAP	360000
TTM_SCR_BRK	223600
TTM_SCR_HLD	59000
TTM_SCR_SLD	169500
TTM_SCR_ALL	812100
TTM_SCR_S	779400
TTM_SCR_SS	803500
TTM_RAT_ACV	10107

