VERSION	0.00.00	1.04.00
FES_MODE	0
BPM_DEF	135.000	135.000	135.000	135.000
MET_DEF	4	4
RESOLUTION	384
CLK_DEF	384
COMPATIBLE_CODE	MA2

BPM	0	0	135.000
MET	0	0	4	4

NMTHO	1	0	0	120	C	0	M1
EXHLD	2	0	6	192
NMHLD	2	192	4	192
NMTAP	3	0	5
NMHLD	3	96	3	192
NMTAP	3	96	4
EXHLD	4	0	2	192
NMTAP	4	0	4
NMHLD	4	192	3	192
NMTAP	5	0	1
NMTAP	5	96	2
NMHLD	5	96	4	192
NMTAP	6	0	3
NMHLD	6	0	5	192
NMHLD	6	192	4	192
NMTAP	7	0	6
NMHLD	7	96	3	192
NMTAP	7	96	5
NMTAP	8	0	2
EXHLD	8	0	4	192
NMHLD	8	192	2	192
NMSTR	9	0	3
BRSI_	9	0	3	96	144	0
BRSI_	9	0	3	96	144	6
NMTAP	10	0	7
BRTAP	10	96	1
BRTAP	10	96	5
NMTAP	10	192	2
NMTAP	10	240	2
NMTAP	10	288	3
NMTAP	11	0	5
NMTAP	11	48	5
NMTAP	11	96	4
NMTAP	11	192	3
NMTAP	11	192	6
NMTAP	11	288	3
NMTAP	11	288	6
NMTAP	12	0	4
NMTAP	12	0	5
NMTAP	12	96	2
NMTAP	12	96	3
NMTAP	12	192	1
NMTAP	12	240	1
NMTAP	12	288	0
NMTAP	13	0	6
NMTAP	13	48	6
NMTAP	13	96	7
NMTAP	13	192	0
NMTAP	13	192	5
NMTAP	13	288	0
NMTAP	13	288	5
NMTAP	14	0	4
BRTAP	14	96	2
BRTAP	14	96	6
NMTAP	14	192	1
NMTAP	14	240	1
NMTAP	14	288	0
NMTAP	15	0	6
NMTAP	15	48	6
NMTAP	15	96	7
NMTAP	15	192	0
NMTAP	15	192	5
NMTAP	15	288	0
NMTAP	15	288	5
NMHLD	16	0	1	96
NMTAP	16	96	0
NMHLD	16	192	6	96
NMTAP	16	288	7
NMTAP	17	0	0
NMTAP	17	48	0
NMTAP	17	96	6
NMTAP	17	144	6
NMTAP	17	192	0
EXTAP	17	288	1
EXTAP	17	288	5
NMSTR	18	0	2
NMSCL	18	0	2	96	288	5
NMHLD	18	0	4	1440
NMTAP	19	288	5
NMSTR	20	0	5
NMSCR	20	0	5	96	288	2
EXTAP	21	288	2
NMHLD	22	0	1	384
NMTAP	22	192	2
NMHLD	23	0	2	192
NMTAP	23	192	3
NMTAP	23	288	4
NMTAP	24	0	3
NMTAP	24	0	5
NMTAP	24	96	3
NMTAP	24	96	5
NMTAP	24	192	4
NMTAP	24	192	6
NMTAP	24	288	5
NMSTR	24	288	7
NMSI_	24	288	7	96	96	5
CNSV_	25	96	5	0	96	2
EXTAP	25	288	0
EXTAP	25	288	6
EXTAP	25	336	0
EXTAP	25	336	6
BXTAP	26	0	0
BXTAP	26	0	6
NMTAP	26	96	1
NMTAP	26	96	3
NMTAP	26	192	4
NMTAP	26	192	5
NMTAP	26	288	0
NMTAP	26	288	2
NMTAP	27	0	6
NMTAP	27	0	7
NMTAP	27	96	0
NMTAP	27	96	1
NMTAP	27	192	5
NMTAP	27	192	7
EXTAP	27	288	0
EXTAP	27	288	4
EXTAP	27	336	0
EXTAP	27	336	4
BXTAP	28	0	0
BXTAP	28	0	4
NMTAP	28	96	1
NMTAP	28	96	3
NMTAP	28	192	5
NMTAP	28	192	7
NMTAP	28	288	0
NMTAP	28	288	1
NMTAP	29	0	6
NMTAP	29	0	7
NMTAP	29	96	0
NMTAP	29	96	2
NMTAP	29	192	4
NMTAP	29	192	6
EXTAP	29	288	3
EXTAP	29	288	7
EXTAP	29	336	3
EXTAP	29	336	7
BXTAP	30	0	3
BXTAP	30	0	7
NMTAP	30	96	0
NMTAP	30	96	2
NMTAP	30	192	6
NMTAP	30	192	7
NMTAP	30	288	1
NMTAP	30	288	3
NMTAP	31	0	4
NMTAP	31	0	6
NMTAP	31	96	0
NMTAP	31	96	1
EXTAP	31	192	5
EXTAP	31	192	7
EXTAP	31	288	0
EXTAP	31	288	4
EXTAP	31	336	0
EXTAP	31	336	4
BXTAP	32	0	0
BXTAP	32	0	4
NMTAP	32	96	1
NMTAP	32	96	3
NMTAP	32	192	4
NMTAP	32	192	6
EXTAP	32	288	0
EXTAP	32	288	1
EXTAP	32	336	0
EXTAP	32	336	1
EXTAP	33	0	2
BXTAP	33	0	7
EXTAP	33	48	2
BXTAP	33	48	7
EXTAP	33	96	3
BXTAP	33	96	6
EXTAP	33	144	3
BXTAP	33	144	6
EXTAP	33	192	3
BXTAP	33	192	6
EXTAP	33	240	5
EXHLD	33	288	5	144
NMTAP	34	48	3
NMTAP	34	96	3
NMTAP	34	144	3
NMTAP	34	192	2
NMTAP	34	240	1
NMTAP	34	288	0
NMTAP	34	336	7
NMTAP	35	0	6
NMTAP	35	48	6
NMTAP	35	96	4
NMTAP	35	144	4
NMTAP	35	192	3
NMTAP	35	192	5
NMHLD	35	288	2	96
NMHLD	35	288	4	96
NMTAP	36	48	4
NMTAP	36	96	4
NMTAP	36	144	4
NMTAP	36	192	5
NMTAP	36	240	6
NMTAP	36	288	7
NMTAP	36	336	0
NMTAP	37	0	1
NMTAP	37	48	1
NMTAP	37	96	3
NMTAP	37	144	3
NMTAP	37	192	2
NMTAP	37	192	4
NMHLD	37	288	3	144
NMTAP	37	288	5
NMTAP	38	48	4
NMTAP	38	96	4
NMTAP	38	144	4
NMTAP	38	192	3
NMTAP	38	240	2
NMTAP	38	288	1
NMTAP	38	336	0
NMTAP	39	0	6
NMTAP	39	0	7
NMTAP	39	48	6
NMTAP	39	48	7
NMTAP	39	96	6
NMTAP	39	96	7
BRTAP	39	192	0
BRTAP	39	192	5
NMTAP	39	288	2
NMTAP	39	336	3
NMTAP	40	0	2
NMTAP	40	0	4
NMTAP	40	96	5
NMTAP	40	144	4
NMTAP	40	192	3
NMTAP	40	192	5
NMTAP	40	288	1
NMTAP	40	336	0
NMTAP	41	0	1
NMSTR	41	0	7
NMSSR	41	0	7	96	192	3
BRHLD	42	0	2	96
BRTAP	42	0	4
NMHLD	42	96	0	96
NMTAP	42	192	7
NMTAP	42	240	7
NMTAP	42	288	0
NMTAP	42	288	6
NMTAP	43	0	2
NMTAP	43	48	2
NMTAP	43	96	1
NMTAP	43	96	3
NMTAP	43	192	5
NMTAP	43	240	5
NMTAP	43	288	4
NMTAP	43	288	6
NMTAP	44	0	6
NMTAP	44	48	6
NMTAP	44	96	7
NMTAP	44	144	7
NMTAP	44	192	0
NMTAP	44	240	0
NMSTR	44	288	1
NMSI_	44	288	1	96	96	4
NMSTR	44	288	7
NMSI_	44	288	7	96	96	4
BRTAP	45	192	3
BRTAP	45	192	5
NMTAP	46	0	6
NMTAP	46	48	6
NMTAP	46	96	4
EXTAP	46	192	3
EXSTR	46	192	7
NMSI_	46	192	7	96	96	3
NMSTR	47	0	1
NMSI_	47	0	1	96	96	5
EXTAP	47	192	7
NMSTR	47	288	6
NMSI_	47	288	6	96	96	2
NMSTR	48	96	0
NMSI_	48	96	0	96	96	4
NMTAP	48	288	5
NMTAP	49	0	6
NMSTR	49	96	6
NMSI_	49	96	6	96	96	2
NMSTR	49	96	7
NMSI_	49	96	7	96	96	3
NMTAP	50	0	1
NMTAP	50	48	1
NMTAP	50	96	0
NMTAP	50	192	2
NMTAP	50	192	7
NMTAP	50	288	4
NMTAP	50	288	5
NMTAP	51	0	6
NMTAP	51	48	6
NMTAP	51	96	7
NMTAP	51	192	0
NMTAP	51	192	5
NMSTR	51	288	2
NMSCL	51	288	2	96	96	7
EXSTR	52	96	6
NMSCL	52	96	6	96	96	3
NMHLD	52	288	1	96
NMHLD	53	0	2	96
NMHLD	53	96	3	96
NMHLD	53	192	4	96
NMTAP	53	288	5
NMTAP	54	0	6
NMTAP	54	0	7
NMTAP	54	48	6
NMTAP	54	48	7
NMTAP	54	96	6
NMTAP	54	96	7
NMTAP	54	192	0
NMTAP	54	192	1
NMTAP	54	240	0
NMTAP	54	240	1
NMTAP	54	288	0
NMTAP	54	288	1
BXHLD	55	0	2	384
BXHLD	55	0	7	2688
NMSTR	57	0	1
NMSCL	57	0	1	96	288	5
NMTHO	59	0	0	384	C	0	M1
NMSTR	61	0	0
NMSCR	61	0	0	96	288	6
CNSSL	62	0	6	0	192	2
NMTAP	63	0	3
NMTAP	63	48	3
NMTAP	63	96	4
NMTAP	63	144	4
NMTAP	63	192	3
NMTAP	63	192	5
NMTAP	63	288	2
NMTAP	63	288	4
BXTAP	64	0	0
BXTAP	64	0	7
NMHLD	64	96	4	48
NMHLD	64	96	6	48
NMHLD	64	192	2	48
NMHLD	64	192	3	48
NMHLD	64	288	5	48
NMHLD	64	288	7	48
BRHLD	65	0	0	48
BRHLD	65	0	1	48
BRHLD	65	96	5	48
BRHLD	65	96	6	48
BRTAP	65	192	2
BRTAP	65	192	3
NMTAP	65	288	0
NMTAP	65	288	1
NMTAP	65	336	2
NMTAP	65	336	7
BRTAP	66	0	3
BRTAP	66	0	6
NMHLD	66	96	0	48
NMHLD	66	96	5	48
NMHLD	66	192	2	48
NMHLD	66	192	7	48
NMHLD	66	288	0	48
NMHLD	66	288	6	48
NMHLD	67	0	1	48
NMHLD	67	0	7	48
NMHLD	67	96	0	48
NMHLD	67	96	5	48
NMHLD	67	192	2	48
NMHLD	67	192	7	48
NMTAP	67	288	0
NMTAP	67	288	1
NMTAP	67	336	2
NMTAP	67	336	7
BRTAP	68	0	3
BRTAP	68	0	6
NMHLD	68	96	4	48
NMHLD	68	96	5	48
NMHLD	68	192	1	48
NMHLD	68	192	2	48
NMHLD	68	288	6	48
NMHLD	68	288	7	48
NMHLD	69	0	1	48
NMHLD	69	0	3	48
NMHLD	69	96	4	48
NMHLD	69	96	6	48
NMHLD	69	192	0	48
NMHLD	69	192	2	48
NMTAP	69	288	3
NMTAP	69	288	7
NMTAP	69	336	3
NMTAP	69	336	7
BRTAP	70	0	2
BRTAP	70	0	6
NMHLD	70	96	1	48
NMHLD	70	96	3	48
NMHLD	70	192	4	48
NMHLD	70	192	6	48
NMTAP	70	288	3
NMTAP	70	336	3
EXTAP	71	0	4
EXTAP	71	48	4
EXTAP	71	96	3
EXTAP	71	96	5
EXTAP	71	144	2
EXTAP	71	144	6
EXTAP	71	192	1
EXTAP	71	192	7
BXTAP	71	240	0
BXTAP	71	240	6
BXTAP	71	288	0
BXTAP	71	288	6
NMTAP	72	0	1
NMTAP	72	48	1
NMTAP	72	96	2
NMTAP	72	144	3
NMTAP	72	192	4
NMTAP	72	240	5
NMTAP	72	288	6
NMTAP	72	336	7
NMTAP	73	0	1
NMTAP	73	48	1
NMTAP	73	96	0
NMTAP	73	144	0
NMTAP	73	192	2
NMTAP	73	192	7
NMHLD	73	288	4	96
NMHLD	73	288	5	96
NMTAP	74	48	6
NMTAP	74	96	5
NMTAP	74	144	4
NMTAP	74	192	3
NMTAP	74	240	2
NMTAP	74	288	1
NMTAP	74	336	0
NMTAP	75	0	6
NMTAP	75	48	6
NMTAP	75	96	7
NMTAP	75	144	7
NMTAP	75	192	0
NMTAP	75	192	5
NMHLD	75	288	2	96
NMHLD	75	288	3	96
NMTAP	76	48	1
NMTAP	76	96	2
NMTAP	76	144	3
NMTAP	76	192	4
NMTAP	76	240	5
NMTAP	76	288	6
NMTAP	76	336	7
NMTAP	77	0	1
NMTAP	77	48	1
NMTAP	77	96	0
NMTAP	77	144	0
NMTAP	77	192	2
NMTAP	77	192	7
NMHLD	77	288	6	96
NMTAP	78	0	7
NMHLD	78	96	1	96
NMTAP	78	192	0
NMTAP	78	288	7
NMTAP	78	336	7
NMTAP	79	0	0
NMTAP	79	96	1
NMTAP	79	96	6
NMTAP	79	192	2
NMTAP	79	192	5
NMTAP	79	288	3
NMTAP	79	288	4
NMSTR	80	0	2
NMSCL	80	0	2	96	192	6
NMSTR	80	0	3
NMSUL	80	0	3	96	192	5
NMSTR	81	0	4
NMSUR	81	0	4	96	192	2
NMSTR	81	0	5
NMSCR	81	0	5	96	192	1
NMHLD	82	0	1	96
NMTAP	82	96	3
NMTAP	82	192	3
NMTAP	82	192	5
NMSTR	82	288	1
NMSI_	82	288	1	96	96	5
NMSTR	82	288	7
NMSI_	82	288	7	96	96	3
BRTAP	83	192	2
BRTAP	83	192	6
NMSTR	84	0	6
NMSCL	84	0	6	96	192	2
NMSTR	84	0	7
NMSUL	84	0	7	96	192	1
NMSTR	85	0	0
NMSUR	85	0	0	96	192	6
NMSTR	85	0	1
NMSCR	85	0	1	96	192	5
NMHLD	86	0	6	96
NMTAP	86	96	4
NMTAP	86	192	2
NMTAP	86	192	4
NMSTR	86	288	0
NMSI_	86	288	0	96	96	4
NMSTR	86	288	6
NMSI_	86	288	6	96	96	2
BRTAP	87	192	1
BRTAP	87	192	5
EXTAP	88	0	3
EXTAP	88	48	3
EXHLD	88	96	3	96
NMTAP	88	192	4
NMTAP	88	288	2
NMTAP	88	288	3
EXTAP	88	336	1
EXHLD	89	0	1	144
NMTAP	89	144	3
NMHLD	89	192	3	144
NMTAP	89	336	2
NMTAP	90	0	2
NMTAP	90	96	1
NMTAP	90	96	3
NMTAP	90	192	2
NMTAP	90	192	4
NMTAP	90	288	3
NMTAP	90	288	5
EXTAP	90	336	6
EXHLD	91	0	6	144
NMTAP	91	144	4
NMHLD	91	192	4	144
NMTAP	91	336	5
NMTAP	92	0	5
NMTAP	92	96	4
NMTAP	92	96	6
NMTAP	92	192	3
NMTAP	92	192	5
NMTAP	92	288	2
NMTAP	92	288	4
EXTAP	92	336	1
EXHLD	93	0	1	144
NMTAP	93	144	3
NMHLD	93	192	3	144
NMTAP	93	336	4
NMTAP	94	0	4
NMTAP	94	96	3
NMTAP	94	96	5
NMTAP	94	192	4
NMTAP	94	192	6
NMTAP	94	288	3
NMTAP	94	288	7
NMTAP	94	336	2
NMHLD	95	0	2	192
NMTAP	95	144	0
NMHLD	95	192	0	144
NMTAP	95	336	3
NMTAP	96	0	4
NMTAP	96	0	7

T_REC_TAP	314
T_REC_BRK	21
T_REC_XTP	46
T_REC_BXX	19
T_REC_HLD	68
T_REC_XHO	8
T_REC_BHO	5
T_REC_BXH	2
T_REC_STR	27
T_REC_BST	0
T_REC_XST	2
T_REC_XBS	0
T_REC_TTP	0
T_REC_THO	2
T_REC_SLD	28
T_REC_BSL	2
T_REC_ALL	544
T_NUM_TAP	389
T_NUM_BRK	49
T_NUM_HLD	78
T_NUM_SLD	28
T_NUM_ALL	544
T_JUDGE_TAP	429
T_JUDGE_HLD	268
T_JUDGE_SLD	30
T_JUDGE_ALL	727
TTM_EACHPAIRS	156
TTM_SCR_TAP	194500
TTM_SCR_BRK	127400
TTM_SCR_HLD	78000
TTM_SCR_SLD	42000
TTM_SCR_ALL	441900
TTM_SCR_S	423900
TTM_SCR_SS	437000
TTM_RAT_ACV	10112

