VERSION	0.00.00	1.04.00
FES_MODE	0
BPM_DEF	135.000	135.000	135.000	135.000
MET_DEF	4	4
RESOLUTION	384
CLK_DEF	384
COMPATIBLE_CODE	MA2

BPM	0	0	135.000
MET	0	0	4	4

NMTAP	2	0	4
NMTAP	2	96	4
NMTAP	2	192	4
NMTAP	3	0	5
NMTAP	3	96	5
NMTAP	3	192	5
NMTAP	4	0	6
NMTAP	4	96	6
NMTAP	4	192	6
EXTAP	5	0	0
EXTAP	5	0	7
EXTAP	5	96	0
EXTAP	5	96	7
NMTAP	6	0	0
NMTAP	6	96	0
NMTAP	6	192	0
NMTAP	7	0	1
NMTAP	7	96	1
NMTAP	7	192	1
NMTAP	8	0	2
NMTAP	8	96	2
NMTAP	8	192	2
NMTAP	9	0	3
NMTAP	9	0	4
BXTAP	9	96	3
BXTAP	9	96	4
NMTAP	10	0	2
EXTAP	10	96	2
NMTAP	10	192	2
NMTAP	10	192	3
NMTAP	11	0	1
NMTAP	11	96	1
NMTAP	11	192	0
NMTAP	11	192	1
NMTAP	12	0	7
NMTAP	12	96	7
NMTAP	12	192	6
NMTAP	12	192	7
NMTAP	13	0	4
NMTAP	13	0	5
NMTAP	13	96	4
NMTAP	13	96	5
NMTAP	13	192	4
NMTAP	13	192	5
NMTAP	14	0	5
NMTAP	14	96	5
NMTAP	14	192	4
NMTAP	14	192	5
NMTAP	15	0	6
NMTAP	15	96	6
NMTAP	15	192	6
NMTAP	15	192	7
NMTAP	16	0	0
NMTAP	16	96	0
NMTAP	16	192	0
NMTAP	16	192	1
NMTAP	17	0	2
NMTAP	17	0	3
NMTAP	17	96	2
NMTAP	17	96	3
NMTAP	17	192	2
NMTAP	17	192	3
NMSTR	18	0	1
NMSI_	18	0	1	96	192	4
NMSTR	19	0	6
NMSI_	19	0	6	96	192	3
NMSTR	20	0	2
NMSI_	20	0	2	96	192	7
NMSTR	21	0	6
NMSI_	21	0	6	96	192	2
NMSTR	22	0	0
NMSI_	22	0	0	96	192	4
NMSTR	23	0	5
NMSI_	23	0	5	96	192	0
NMSTR	24	0	1
NMSI_	24	0	1	96	192	4
NMTAP	25	0	5
EXTAP	25	192	3
EXTAP	25	192	4
NMTAP	26	0	5
NMTAP	26	96	5
NMTAP	26	192	6
NMTAP	26	288	6
NMTAP	27	0	7
NMTAP	27	96	7
NMTAP	27	192	0
NMTAP	27	192	1
NMTAP	28	0	2
NMTAP	28	96	2
NMTAP	28	192	1
NMTAP	28	288	1
NMTAP	29	0	0
NMTAP	29	96	0
NMTAP	29	192	6
NMTAP	29	192	7
NMTAP	30	0	6
NMTAP	30	96	6
NMTAP	30	192	5
NMTAP	30	288	5
NMTAP	31	0	4
NMTAP	31	96	4
NMTAP	31	192	2
NMTAP	31	192	3
NMTAP	32	0	1
NMTAP	32	96	1
NMTAP	32	192	2
NMTAP	32	288	2
NMTAP	33	0	3
NMTAP	33	96	3
BXTAP	33	192	4
BXTAP	33	192	5
NMTAP	34	0	5
NMTAP	34	96	5
NMTAP	34	192	6
NMTAP	34	192	7
NMTAP	34	288	6
NMTAP	34	288	7
NMTAP	35	0	0
NMTAP	35	96	0
NMTAP	35	192	0
NMTAP	35	192	1
NMTAP	36	0	2
NMTAP	36	96	2
NMTAP	36	192	0
NMTAP	36	192	1
NMTAP	36	288	0
NMTAP	36	288	1
NMTAP	37	0	7
NMTAP	37	96	7
NMTAP	37	192	6
NMTAP	37	192	7
NMTAP	38	0	6
NMTAP	38	96	6
NMTAP	38	192	4
NMTAP	38	192	5
NMTAP	38	288	4
NMTAP	38	288	5
NMTAP	39	0	3
NMTAP	39	96	3
NMTAP	39	192	2
NMTAP	39	192	3
NMTAP	40	0	1
NMTAP	40	96	1
NMTAP	40	192	2
NMTAP	40	192	3
NMTAP	40	288	2
NMTAP	40	288	3
NMTAP	41	0	4
NMTAP	41	96	4
NMTAP	41	192	4
NMTAP	41	192	5
NMTTP	42	0	6	B	0	L1
NMTTP	42	96	5	B	0	L1
NMTTP	42	192	4	B	0	L1
NMTTP	43	0	1	B	0	L1
NMTTP	43	96	2	B	0	L1
NMTTP	43	192	3	B	0	L1
NMTTP	44	0	5	B	0	L1
NMTTP	44	96	4	B	0	L1
NMTTP	44	192	3	B	0	L1
NMTTP	44	288	2	B	0	L1
NMTTP	45	0	0	C	1	L1
EXTAP	46	0	1
NMTAP	46	96	1
NMTAP	46	192	1
NMTAP	46	288	1
NMTAP	47	0	0
NMTAP	47	96	0
NMTAP	47	192	0
NMTAP	47	288	0
NMTAP	48	0	7
NMTAP	48	96	7
NMTAP	48	192	7
NMTAP	48	288	7
EXTAP	49	0	6
EXTAP	49	0	7
EXTAP	50	0	5
NMTAP	50	96	5
NMTAP	50	192	5
NMTAP	50	288	5
NMTAP	51	0	6
NMTAP	51	96	6
NMTAP	51	192	6
NMTAP	51	288	6
NMTAP	52	0	7
NMTAP	52	96	7
NMTAP	52	192	7
NMTAP	52	288	7
EXTAP	53	0	0
EXTAP	53	0	1
NMTAP	54	0	0
NMTAP	54	0	7
BXTAP	54	192	0
BXTAP	54	192	7
NMHLD	55	0	1	192
NMHLD	55	192	0	192
NMHLD	56	0	7	192
NMTAP	56	192	6
NMHLD	57	0	6	192
NMHLD	57	192	7	192
NMHLD	58	0	0	192
NMTAP	58	192	1
NMHLD	59	0	2	192
NMHLD	59	192	3	192
NMHLD	60	0	4	192
NMTAP	60	192	5
NMHLD	61	0	5	192
NMHLD	61	192	4	192
NMHLD	62	0	3	192
NMTAP	62	192	2
NMTAP	63	0	3
NMTAP	63	0	4
NMTAP	63	192	3
NMTAP	63	192	4
NMTAP	64	0	5
NMTAP	64	96	5
NMTAP	64	192	5
NMTAP	64	288	4
NMTAP	64	288	5
NMTAP	65	0	6
NMTAP	65	96	6
NMTAP	65	192	6
NMTAP	65	288	6
NMTAP	65	288	7
NMTAP	66	0	0
NMTAP	66	96	0
NMTAP	66	192	0
NMTAP	66	288	0
NMTAP	66	288	1
NMTAP	67	0	2
NMTAP	67	0	3
NMTAP	67	96	2
NMTAP	67	96	3
NMTAP	67	192	2
NMTAP	67	192	3
NMTAP	68	0	2
NMTAP	68	96	2
NMTAP	68	192	2
NMTAP	68	288	2
NMTAP	68	288	3
NMTAP	69	0	1
NMTAP	69	96	1
NMTAP	69	192	1
NMTAP	69	288	0
NMTAP	69	288	1
NMTAP	70	0	7
NMTAP	70	96	7
NMTAP	70	192	7
NMTAP	70	288	6
NMTAP	70	288	7
NMTAP	71	0	4
NMTAP	71	0	5
NMTAP	71	96	4
NMTAP	71	96	5
BRTAP	71	192	4
BRTAP	71	192	5
NMTAP	72	0	5
NMTAP	72	96	5
NMTAP	72	192	6
NMTAP	72	192	7
NMTAP	72	288	6
NMTAP	72	288	7
NMTAP	73	0	0
NMTAP	73	96	0
NMTAP	73	192	0
NMTAP	73	192	1
NMTAP	73	288	0
NMTAP	73	288	1
NMTAP	74	0	2
NMTAP	74	96	2
NMTAP	74	192	0
NMTAP	74	192	1
NMTAP	74	288	0
NMTAP	74	288	1
NMTAP	75	0	7
NMTAP	75	96	7
NMTAP	75	192	6
NMTAP	75	192	7
NMTAP	76	0	6
NMTAP	76	96	6
NMTAP	76	192	4
NMTAP	76	192	5
NMTAP	76	288	4
NMTAP	76	288	5
NMTAP	77	0	3
NMTAP	77	96	3
NMTAP	77	192	2
NMTAP	77	192	3
NMTAP	77	288	2
NMTAP	77	288	3
NMTAP	78	0	1
NMTAP	78	96	1
NMTAP	78	192	2
NMTAP	78	192	3
NMTAP	78	288	2
NMTAP	78	288	3
NMTAP	79	0	4
NMTAP	79	96	4
NMTAP	79	192	4
NMTAP	79	192	5
NMTAP	80	0	6
NMTAP	80	0	7
NMTAP	80	96	6
NMTAP	80	96	7
NMTAP	80	192	0
NMTAP	80	192	5
NMTAP	81	0	4
NMTAP	81	0	5
NMTAP	81	96	4
NMTAP	81	96	5
NMTAP	81	192	3
NMTAP	81	192	6
NMTAP	82	0	2
NMTAP	82	0	3
NMTAP	82	96	2
NMTAP	82	96	3
NMTAP	82	192	1
NMTAP	82	192	4
NMTAP	83	0	0
NMTAP	83	0	1
NMTAP	83	96	0
NMTAP	83	96	1
NMTAP	83	192	2
NMTAP	83	192	7
NMTAP	84	0	0
NMTAP	84	0	1
NMTAP	84	96	0
NMTAP	84	96	1
NMTAP	84	192	2
NMTAP	84	192	7
NMTAP	85	0	2
NMTAP	85	0	3
NMTAP	85	96	2
NMTAP	85	96	3
NMTAP	85	192	1
NMTAP	85	192	4
NMTAP	86	0	4
NMTAP	86	0	5
NMTAP	86	96	4
NMTAP	86	96	5
NMTAP	86	192	3
NMTAP	86	192	6
NMTAP	87	0	6
NMTAP	87	0	7
NMTAP	87	96	6
NMTAP	87	96	7
NMTAP	87	192	0
NMTAP	87	192	5
EXHLD	88	0	0	192
EXHLD	88	0	7	192
NMTAP	89	0	0
NMTAP	89	96	1
NMTAP	89	192	2
NMTAP	89	288	3
NMTAP	90	0	4
NMTAP	90	96	5
NMTAP	90	192	6
NMTAP	90	192	7
NMTAP	91	0	7
NMTAP	91	96	6
NMTAP	91	192	5
NMTAP	91	288	4
NMTAP	92	0	3
NMTAP	92	96	2
NMTAP	92	192	0
NMTAP	92	192	1
NMTAP	93	0	1
NMTAP	93	96	2
NMTAP	93	192	3
NMTAP	93	288	4
NMTAP	94	0	5
NMTAP	94	96	6
NMTAP	94	192	0
NMTAP	94	192	7
EXTAP	95	0	0
EXTAP	95	0	7
EXTAP	95	192	1
EXTAP	95	192	6
BXTAP	96	0	2
BXTAP	96	0	5

T_REC_TAP	314
T_REC_BRK	2
T_REC_XTP	17
T_REC_BXX	8
T_REC_HLD	12
T_REC_XHO	2
T_REC_BHO	0
T_REC_BXH	0
T_REC_STR	7
T_REC_BST	0
T_REC_XST	0
T_REC_XBS	0
T_REC_TTP	11
T_REC_THO	0
T_REC_SLD	7
T_REC_BSL	0
T_REC_ALL	380
T_NUM_TAP	349
T_NUM_BRK	10
T_NUM_HLD	14
T_NUM_SLD	7
T_NUM_ALL	380
T_JUDGE_TAP	359
T_JUDGE_HLD	56
T_JUDGE_SLD	7
T_JUDGE_ALL	422
TTM_EACHPAIRS	96
TTM_SCR_TAP	174500
TTM_SCR_BRK	26000
TTM_SCR_HLD	14000
TTM_SCR_SLD	10500
TTM_SCR_ALL	225000
TTM_SCR_S	217300
TTM_SCR_SS	224000
TTM_RAT_ACV	10044

