VERSION	0.00.00	1.04.00
FES_MODE	0
BPM_DEF	135.000	135.000	135.000	135.000
MET_DEF	4	4
RESOLUTION	384
CLK_DEF	384
COMPATIBLE_CODE	MA2

BPM	0	0	135.000
MET	0	0	4	4

NMTAP	2	0	3
NMTAP	2	192	3
NMTAP	3	0	3
NMTAP	4	0	4
NMTAP	4	192	4
NMTAP	5	0	4
NMTAP	6	0	3
NMTAP	6	192	3
NMTAP	7	0	3
NMTAP	8	0	4
NMTAP	8	192	4
NMTAP	9	0	3
NMTAP	9	0	4
NMTAP	10	0	4
NMTAP	10	192	4
NMTAP	11	0	5
NMTAP	11	192	5
NMTAP	12	0	6
NMTAP	12	192	6
NMTAP	13	0	0
NMTAP	13	0	7
NMTAP	14	0	0
NMTAP	14	192	0
NMTAP	15	0	1
NMTAP	15	192	1
NMTAP	16	0	2
NMTAP	16	192	2
NMTAP	17	0	3
NMTAP	17	0	4
NMSTR	18	0	3
NMSI_	18	0	3	96	288	0
NMSTR	20	0	7
NMSI_	20	0	7	96	288	4
NMSTR	22	0	3
NMSI_	22	0	3	96	288	7
NMSTR	24	0	6
NMSI_	24	0	6	96	288	2
BRTAP	26	0	0
NMTAP	26	96	0
NMTAP	26	192	0
NMTAP	27	0	1
NMTAP	27	192	1
NMTAP	28	0	2
NMTAP	28	96	2
NMTAP	28	192	2
NMTAP	29	0	2
NMTAP	29	0	3
NMTAP	30	0	4
NMTAP	30	96	4
NMTAP	30	192	4
NMTAP	31	0	5
NMTAP	31	192	5
NMTAP	32	0	6
NMTAP	32	96	6
NMTAP	32	192	6
BXTAP	33	0	6
BXTAP	33	0	7
NMTAP	34	0	7
NMTAP	34	96	7
NMTAP	34	192	7
NMTAP	35	0	6
NMTAP	35	192	6
NMTAP	36	0	5
NMTAP	36	96	5
NMTAP	36	192	5
NMTAP	37	0	3
NMTAP	37	0	4
NMTAP	38	0	3
NMTAP	38	96	3
NMTAP	38	192	3
NMTAP	39	0	2
NMTAP	39	192	2
NMTAP	40	0	1
NMTAP	40	96	1
NMTAP	40	192	1
NMTAP	41	0	0
NMTAP	41	0	7
NMTAP	42	0	6
NMTAP	42	192	6
NMTAP	43	0	0
NMTAP	43	0	7
NMTAP	44	0	1
NMTAP	44	192	1
NMTAP	45	0	0
NMTAP	45	0	7
NMTAP	46	0	0
NMTAP	46	192	0
NMTAP	47	0	0
NMTAP	47	0	1
NMTAP	47	192	0
NMTAP	47	192	1
NMTAP	48	0	2
NMTAP	48	192	2
NMTAP	49	0	3
NMTAP	49	0	4
NMTAP	49	192	3
NMTAP	49	192	4
NMTAP	50	0	4
NMTAP	50	192	4
NMTAP	51	0	4
NMTAP	51	0	5
NMTAP	51	192	4
NMTAP	51	192	5
NMTAP	52	0	6
NMTAP	52	192	6
NMTAP	53	0	0
NMTAP	53	0	7
NMTAP	53	192	0
NMTAP	53	192	7
BXTAP	54	0	0
BXTAP	54	0	7
NMHLD	55	0	6	384
NMHLD	55	0	7	384
NMHLD	57	0	4	384
NMHLD	57	0	5	384
NMHLD	59	0	2	384
NMHLD	59	0	3	384
NMHLD	61	0	0	384
NMHLD	61	0	1	384
EXTAP	63	0	0
EXTAP	63	0	7
EXTAP	63	192	0
EXTAP	63	192	7
BRTAP	64	0	0
NMTAP	64	96	0
NMTAP	64	192	0
NMTAP	65	0	0
NMTAP	65	0	1
NMTAP	65	192	0
NMTAP	65	192	1
NMTAP	66	0	2
NMTAP	66	96	2
NMTAP	66	192	2
NMTAP	67	0	2
NMTAP	67	0	3
NMTAP	67	192	2
NMTAP	67	192	3
NMTAP	68	0	4
NMTAP	68	96	4
NMTAP	68	192	4
NMTAP	69	0	4
NMTAP	69	0	5
NMTAP	69	192	4
NMTAP	69	192	5
NMTAP	70	0	6
NMTAP	70	96	6
NMTAP	70	192	6
BXTAP	71	0	6
BXTAP	71	0	7
BXTAP	71	192	6
BXTAP	71	192	7
NMTAP	72	0	7
NMTAP	72	96	7
NMTAP	72	192	7
NMTAP	73	0	6
NMTAP	73	96	6
NMTAP	73	192	6
NMTAP	73	192	7
NMTAP	74	0	5
NMTAP	74	96	5
NMTAP	74	192	5
NMTAP	75	0	4
NMTAP	75	96	4
NMTAP	75	192	3
NMTAP	75	192	4
NMTAP	76	0	3
NMTAP	76	96	3
NMTAP	76	192	3
NMTAP	77	0	2
NMTAP	77	96	2
NMTAP	77	192	2
NMTAP	77	192	3
NMTAP	78	0	1
NMTAP	78	96	1
NMTAP	78	192	1
NMTAP	79	0	0
NMTAP	79	0	7
BRTAP	80	0	0
NMTAP	80	96	0
NMTAP	80	192	0
NMTAP	80	288	0
NMTAP	81	0	1
NMTAP	81	96	1
NMTAP	81	192	0
NMTAP	81	192	1
NMTAP	82	0	2
NMTAP	82	96	2
NMTAP	82	192	2
NMTAP	82	288	2
NMTAP	83	0	3
NMTAP	83	96	3
NMTAP	83	192	3
NMTAP	83	192	4
NMTAP	84	0	4
NMTAP	84	96	4
NMTAP	84	192	4
NMTAP	84	288	4
NMTAP	85	0	5
NMTAP	85	96	5
NMTAP	85	192	4
NMTAP	85	192	5
NMTAP	86	0	6
NMTAP	86	96	6
NMTAP	86	192	6
NMTAP	86	288	6
NMTAP	87	0	7
NMTAP	87	96	7
NMTAP	87	192	0
NMTAP	87	192	7
BRTAP	88	0	0
BRTAP	88	0	7
NMTTP	89	0	0	B	0	L1
NMTTP	89	0	7	B	0	L1
NMTTP	90	0	1	B	0	L1
NMTTP	90	0	6	B	0	L1
NMTTP	91	0	2	B	0	L1
NMTTP	91	0	5	B	0	L1
NMTTP	92	0	3	B	0	L1
NMTTP	92	0	4	B	0	L1
NMTTP	93	0	2	B	0	L1
NMTTP	93	0	5	B	0	L1
NMTTP	94	0	1	B	0	L1
NMTTP	94	0	6	B	0	L1
NMTTP	95	0	0	B	0	L1
NMTTP	95	0	7	B	0	L1
NMTTP	96	0	0	C	0	L1

T_REC_TAP	178
T_REC_BRK	5
T_REC_XTP	4
T_REC_BXX	8
T_REC_HLD	8
T_REC_XHO	0
T_REC_BHO	0
T_REC_BXH	0
T_REC_STR	4
T_REC_BST	0
T_REC_XST	0
T_REC_XBS	0
T_REC_TTP	15
T_REC_THO	0
T_REC_SLD	4
T_REC_BSL	0
T_REC_ALL	226
T_NUM_TAP	201
T_NUM_BRK	13
T_NUM_HLD	8
T_NUM_SLD	4
T_NUM_ALL	226
T_JUDGE_TAP	214
T_JUDGE_HLD	64
T_JUDGE_SLD	4
T_JUDGE_ALL	282
TTM_EACHPAIRS	41
TTM_SCR_TAP	100500
TTM_SCR_BRK	33800
TTM_SCR_HLD	8000
TTM_SCR_SLD	6000
TTM_SCR_ALL	148300
TTM_SCR_S	142600
TTM_SCR_SS	147000
TTM_RAT_ACV	10088

