VERSION	0.00.00	1.05.00
FES_MODE	0
BPM_DEF	245.000	245.000	245.000	245.000
MET_DEF	4	4
RESOLUTION	384
CLK_DEF	384
COMPATIBLE_CODE	MA2

BPM	0	0	245.000
MET	0	0	4	4
MET	12	0	4	5
MET	32	0	4	2
MET	32	192	4	3
MET	44	192	4	2
MET	45	0	4	4
MET	107	0	4	2
MET	107	192	4	4
MET	115	192	4	6

NMHLD	2	0	3	3840
NMTHO	4	192	0	960	C	0	M1
NMTTP	7	0	0	B	0	M1
NMTTP	7	0	1	B	0	M1
NMHLD	9	192	7	768
NMHLD	12	0	5	768
NMTAP	12	240	3
NMTAP	12	336	2
NMTAP	13	0	2
NMSTR	13	96	1
NMSLL	13	96	1	96	288	3
NMTAP	14	96	5
NMHLD	14	192	6	768
NMTAP	15	48	4
NMTAP	15	144	3
NMTAP	15	192	3
NMSTR	15	288	2
NMSLL	15	288	2	96	288	4
NMTAP	16	288	6
NMHLD	17	0	7	768
NMTAP	17	240	5
NMTAP	17	336	4
NMTAP	18	0	4
NMSTR	18	96	3
NMSLL	18	96	3	96	288	5
NMTAP	19	96	7
NMHLD	19	192	6	480
NMTAP	20	48	4
NMTAP	20	144	3
NMTAP	20	192	3
NMHLD	20	288	2	288
NMTAP	21	0	7
NMTAP	21	48	7
NMSTR	21	96	7
NMSSL	21	96	7	96	192	3
BXHLD	22	0	0	96
NMHLD	22	144	0	336
NMTAP	22	144	3
NMTAP	23	48	2
NMTAP	23	96	2
NMTAP	23	240	1
NMTAP	23	240	3
NMTAP	23	288	1
NMTAP	23	288	3
NMHLD	24	0	2	72
NMTAP	24	72	4
NMTAP	24	144	4
NMTAP	24	168	3
NMHLD	24	192	5	96
NMTAP	24	336	3
NMHLD	24	336	6	336
NMTAP	25	240	4
NMTAP	25	288	4
NMTAP	26	48	3
NMTAP	26	48	6
NMTAP	26	96	3
NMTAP	26	96	6
NMTAP	26	192	5
NMTAP	26	240	5
NMTAP	26	288	5
NMTAP	26	336	3
NMTAP	26	360	4
NMHLD	27	0	2	96
NMHLD	27	144	1	336
NMTAP	27	144	4
NMTAP	28	48	3
NMTAP	28	96	3
NMTAP	28	240	2
NMTAP	28	240	4
NMHLD	28	288	2	192
NMTAP	28	288	4
NMTAP	29	0	3
NMTAP	29	48	3
NMTTP	29	96	4	E	0	M1
NMTTP	29	120	5	E	0	M1
NMTTP	29	144	6	E	0	M1
NMTTP	29	168	7	E	0	M1
BXTAP	29	192	0
NMTAP	29	288	2
NMTAP	29	336	1
NMTAP	29	336	3
NMTAP	30	48	5
NMTAP	30	96	4
NMTAP	30	96	6
NMTAP	30	192	0
NMTAP	30	192	7
NMTAP	30	240	1
NMTAP	30	240	6
NMTAP	30	336	4
NMTAP	30	336	5
NMTAP	31	48	2
NMTAP	31	48	3
NMTAP	31	144	0
NMTAP	31	144	4
NMTAP	31	192	0
NMTAP	31	192	4
NMTAP	31	240	0
NMTAP	31	240	4
NMSTR	31	288	0
NMSCR	31	288	0	96	24	1
NMSTR	31	288	4
NMSCR	31	288	4	96	24	5
CNSI_	32	24	1	0	48	3
CNSI_	32	24	5	0	72	7
CNSCR	32	72	3	0	24	4
NMTHO	32	192	0	2304	C	1	M1
NMTTP	32	192	5	A	0	M1
NMTTP	32	192	6	E	1	M1
NMTTP	32	192	6	A	0	M1
NMTTP	32	192	6	D	0	M1
NMTTP	34	0	7	E	0	M1
NMTTP	35	192	0	E	0	M1
NMTTP	36	96	0	B	0	M1
NMTTP	37	0	1	B	0	M1
NMTTP	37	288	0	B	0	M1
NMSTR	38	192	7
NMSCL	38	192	7	96	480	4
NMTAP	39	144	1
NMTAP	39	240	2
NMTAP	39	288	2
NMSTR	40	0	3
NMSCL	40	0	3	96	480	0
NMTAP	40	336	4
NMTAP	41	48	5
NMTAP	41	96	5
NMSTR	41	192	6
NMSCL	41	192	6	96	480	3
BRTAP	42	96	0
NMHLD	43	0	1	96
NMHLD	43	144	1	96
NMTAP	43	144	3
NMHLD	43	288	0	96
NMTAP	43	288	3
NMHLD	44	48	4	96
NMHLD	44	48	7	96
BXHLD	44	192	5	96
BXSTR	44	192	6
NMSI_	44	192	6	96	48	2
NMTAP	45	0	0
NMTAP	45	48	0
NMTAP	45	144	1
NMTAP	45	144	7
NMTAP	45	192	2
NMTAP	45	240	2
NMTAP	45	288	4
NMHLD	45	336	5	96
NMTAP	46	48	4
NMTAP	46	96	3
NMTAP	46	96	6
NMTAP	46	192	2
NMTAP	46	240	2
NMTAP	46	288	3
NMSTR	46	336	0
NMSI_	46	336	0	96	48	4
NMTAP	47	48	0
NMSTR	47	96	6
NMSCL	47	96	6	96	48	3
NMTAP	47	192	6
NMSTR	47	240	2
BRSI_	47	240	2	96	48	7
NMTAP	47	336	2
NMTTP	48	48	7	E	0	M1
NMTTP	48	48	7	D	0	M1
NMTTP	48	72	6	E	0	M1
NMTTP	48	96	5	E	0	M1
NMTTP	48	120	4	E	0	M1
NMTTP	48	144	3	E	0	M1
NMTTP	48	192	0	E	0	M1
NMTTP	48	192	0	D	0	M1
NMTTP	48	216	1	D	0	M1
NMTTP	48	240	2	D	0	M1
NMTTP	48	264	3	D	0	M1
NMTTP	48	288	4	D	0	M1
NMTTP	48	336	7	E	0	M1
NMTTP	48	336	7	D	0	M1
NMTTP	48	360	6	D	0	M1
NMTTP	49	0	5	D	0	M1
NMTTP	49	24	4	D	0	M1
NMTTP	49	48	3	D	0	M1
BRTAP	49	96	0
NMTTP	49	96	0	C	1	M1
NMTAP	49	240	6
NMTAP	49	264	7
NMSTR	49	288	6
NMSCL	49	288	6	96	144	2
NMTAP	50	192	0
NMTAP	50	216	1
NMTAP	50	240	2
NMTAP	50	264	3
NMHLD	50	288	4	48
NMTAP	50	336	1
NMTAP	50	360	2
NMTAP	51	0	3
NMTAP	51	24	4
NMHLD	51	48	5	48
NMTAP	51	96	7
NMTAP	51	120	6
NMTAP	51	144	5
NMTAP	51	168	4
NMHLD	51	192	3	48
NMTAP	51	240	0
NMTAP	51	264	7
NMTAP	51	288	6
NMTAP	51	312	5
NMHLD	51	336	4	48
NMTAP	52	0	2
NMTAP	52	48	2
NMTAP	52	96	3
NMTAP	52	144	1
NMTAP	52	192	1
NMHLD	52	240	7	48
NMTAP	52	288	0
NMTAP	52	312	6
NMTAP	52	336	0
NMTAP	52	360	6
BRSTR	53	0	0
NMSI_	53	0	0	96	48	4
NMTAP	53	96	4
BRSTR	53	144	5
NMSCR	53	144	5	96	48	0
NMTAP	53	240	3
BRSTR	53	288	2
NMSCR	53	288	2	96	48	5
NMTAP	54	0	0
BRHLD	54	48	7	96
NMTAP	54	144	4
NMTAP	54	192	3
NMTAP	54	192	6
NMTAP	54	264	2
NMTAP	54	264	5
NMTAP	54	336	1
NMTAP	54	336	4
BRSTR	55	0	1
NMSLL	55	0	1	96	192	4
BRHLD	55	0	4	768
CNSCR	55	288	4	0	288	0
BRSTR	57	0	2
NMSLL	57	0	2	96	192	5
NMTAP	57	144	3
NMTAP	57	192	3
CNSCR	57	288	5	0	288	1
NMTAP	57	336	4
NMTAP	58	48	3
NMTAP	58	144	4
NMTAP	58	192	4
NMSTR	58	288	1
NMSI_	58	288	1	96	48	5
NMTAP	58	288	3
BRSTR	59	0	0
NMSLL	59	0	0	96	192	4
NMTAP	59	144	3
NMTAP	59	192	3
CNSCR	59	288	4	0	288	7
NMTAP	59	336	2
NMTAP	60	48	1
NMTAP	60	144	0
NMSTR	60	192	0
NMSI_	60	192	0	96	48	4
NMTAP	60	288	6
NMHLD	61	0	5	96
NMTAP	61	144	4
NMTAP	61	192	4
NMHLD	61	192	6	96
NMTAP	61	336	4
NMTAP	62	0	4
NMHLD	62	0	7	96
NMTAP	62	144	4
NMTAP	62	192	4
NMTAP	62	192	6
NMTAP	62	288	3
NMTAP	62	288	5
NMHLD	63	0	2	96
NMTAP	63	0	3
NMTAP	63	96	3
NMTAP	63	144	1
NMTAP	63	192	3
NMTAP	63	240	0
NMTAP	63	288	3
NMTAP	63	336	1
NMTAP	64	0	3
NMTAP	64	48	4
NMTAP	64	96	3
NMTAP	64	96	5
NMTAP	64	144	6
NMTAP	64	192	3
NMTAP	64	240	4
NMTAP	64	288	3
NMTAP	64	288	5
NMTAP	64	336	6
NMTAP	65	0	4
NMHLD	65	0	7	96
NMTAP	65	96	4
NMTAP	65	144	6
NMTAP	65	192	4
NMTAP	65	240	5
NMTAP	65	288	4
NMTAP	65	336	6
NMTAP	66	0	4
NMTAP	66	48	3
NMTAP	66	96	2
NMTAP	66	96	4
NMTAP	66	144	1
NMTAP	66	192	4
NMTAP	66	240	3
NMTAP	66	288	2
NMTAP	66	288	4
NMTAP	66	336	1
NMTAP	67	0	0
BRSTR	67	0	3
NMSI_	67	0	3	96	96	5
CNSI_	67	192	5	0	96	2
CNSI_	67	288	2	0	192	7
NMSTR	68	0	7
NMSI_	68	0	7	96	96	1
CNSI_	68	192	1	0	96	6
CNSI_	68	288	6	0	192	3
NMSTR	69	0	3
NMSI_	69	0	3	96	96	1
CNSI_	69	192	1	0	96	4
CNSI_	69	288	4	0	192	0
NMSTR	70	0	0
NMSI_	70	0	0	96	96	2
CNSI_	70	192	2	0	96	4
BRTAP	71	0	2
BRTAP	71	0	7
NMTAP	71	48	6
NMHLD	71	96	5	672
NMTAP	71	192	3
NMTAP	71	240	3
NMTAP	71	336	4
NMTAP	72	48	4
NMTAP	72	144	4
NMTAP	72	192	3
NMTAP	72	256	3
NMTAP	72	320	3
NMHLD	73	0	3	768
NMSTR	79	0	0
NMSCL	79	0	0	96	768	0
NMSTR	81	0	0
NMSCL	81	0	0	96	768	0
NMSV_	81	0	0	96	192	6
NMSTR	83	0	0
NMSCL	83	0	0	96	768	0
NMSV_	83	0	0	96	288	5
NMSTR	85	0	0
NMSI_	85	0	0	96	288	4
NMSCL	85	0	0	96	288	4
NMTAP	87	0	3
NMHLD	87	0	5	96
NMTAP	87	96	4
NMTAP	87	144	4
NMHLD	87	192	6	96
NMTAP	87	240	3
NMTAP	87	288	3
NMHLD	88	0	7	96
NMTAP	88	96	2
NMTAP	88	144	2
NMHLD	88	192	0	96
NMTAP	88	240	1
NMTAP	88	288	1
NMHLD	89	0	1	96
NMTAP	89	96	0
NMTAP	89	144	0
NMHLD	89	192	2	96
NMTAP	89	240	7
NMTAP	89	288	7
NMHLD	90	0	3	96
NMTAP	90	96	6
NMTAP	90	144	6
NMHLD	90	192	4	96
NMTAP	90	240	5
NMTAP	90	288	5
NMTAP	91	0	2
NMTAP	91	48	3
NMTAP	91	96	1
NMTAP	91	144	5
NMTAP	91	192	4
NMTAP	91	240	6
NMTHO	91	288	0	192	C	1	M1
NMHLD	92	96	7	144
NMTAP	92	240	0
NMTAP	92	264	7
NMTAP	92	288	0
NMTAP	92	312	7
NMTAP	92	336	0
NMTAP	92	360	7
BRSTR	93	0	1
NMSI_	93	0	1	96	48	4
NMSTR	93	48	6
NMSI_	93	48	6	96	48	3
NMTAP	93	96	1
NMTAP	93	144	6
NMTAP	93	240	0
NMTAP	93	288	1
NMTAP	93	288	3
NMTAP	93	336	2
NMTAP	94	0	4
NMSTR	94	48	3
NMSCR	94	48	3	96	48	6
NMTAP	94	96	7
NMTAP	94	144	3
NMSTR	94	240	0
NMSI_	94	240	0	96	48	4
NMTAP	94	288	2
NMSTR	94	336	0
NMSI_	94	336	0	96	48	5
NMTAP	95	0	1
NMSTR	95	48	0
NMSCR	95	48	0	96	48	3
NMSTR	95	144	0
NMSCL	95	144	0	96	48	5
NMSTR	95	240	0
NMSI_	95	240	0	96	48	4
NMTAP	95	336	0
NMSTR	95	336	4
BRSLL	95	336	4	96	96	7
NMTAP	96	48	7
NMTAP	96	96	6
NMHLD	96	144	5	96
EXTAP	96	240	7
NMTAP	96	288	0
NMTAP	96	288	6
NMSTR	97	0	1
NMSCR	97	0	1	96	48	4
NMTAP	97	96	1
NMSTR	97	144	7
NMSCR	97	144	7	96	48	2
NMTAP	97	240	7
NMTAP	97	288	3
NMSTR	98	0	4
NMSI_	98	0	4	96	48	1
NMSTR	98	48	5
NMSI_	98	48	5	96	48	0
NMTAP	98	96	4
NMTAP	98	144	5
NMTAP	98	240	3
EXSTR	98	240	7
NMSCL	98	240	7	96	48	4
NMSCR	98	240	7	96	48	2
NMTAP	98	336	7
EXTAP	99	48	3
NMTAP	99	96	4
NMHLD	99	144	5	96
NMHLD	99	240	4	96
NMSTR	99	336	3
BRSLR	99	336	3	96	96	0
NMTAP	100	48	0
NMTAP	100	96	1
NMHLD	100	144	2	96
EXTAP	100	240	0
NMTAP	100	288	1
NMTAP	100	288	7
NMTAP	101	0	0
NMTAP	101	24	1
NMTAP	101	48	2
NMTAP	101	72	3
NMTAP	101	96	4
NMTAP	101	120	5
NMTAP	101	144	0
NMTAP	101	168	1
NMTAP	101	192	2
NMTAP	101	216	3
NMTAP	101	240	4
NMTAP	101	264	5
NMHLD	101	288	0	96
NMTAP	102	0	6
NMTAP	102	24	5
NMTAP	102	48	4
NMTAP	102	72	3
NMTAP	102	96	2
NMTAP	102	120	1
NMTAP	102	144	6
NMTAP	102	168	5
NMTAP	102	192	4
NMTAP	102	216	3
NMTAP	102	240	2
NMTAP	102	264	1
NMHLD	102	288	6	96
NMTAP	103	0	2
NMTAP	103	24	3
NMTAP	103	48	4
NMTAP	103	72	5
NMTAP	103	96	6
NMTAP	103	120	7
NMTAP	103	144	0
NMTAP	103	144	4
NMTAP	103	168	3
NMTAP	103	192	2
NMTAP	103	216	1
NMTAP	103	240	0
NMTAP	103	264	7
NMTAP	103	288	6
NMTAP	103	312	5
NMTAP	103	336	4
NMTAP	103	360	3
NMTAP	104	0	7
NMTAP	104	24	6
NMTAP	104	48	5
NMTAP	104	72	4
NMTAP	104	96	3
NMTAP	104	96	7
NMTAP	104	120	0
NMTAP	104	144	1
NMTAP	104	168	2
NMTAP	104	192	3
NMTAP	104	192	7
NMTAP	104	216	6
NMTAP	104	240	5
NMTAP	104	264	4
BRTAP	104	288	3
BRTAP	104	288	7
NMTAP	105	0	6
NMTAP	105	24	4
NMTAP	105	48	5
NMTAP	105	72	4
NMTAP	105	144	1
NMTAP	105	168	3
NMTAP	105	192	2
NMTAP	105	216	3
NMTAP	105	288	0
NMTTP	105	288	0	C	1	M1
NMTAP	106	96	0
NMTAP	106	96	7
NMTAP	106	192	0
NMTAP	106	216	7
NMTAP	106	240	0
NMTAP	106	264	7
NMSTR	106	288	1
NMSLR	106	288	1	96	96	5
NMTAP	106	312	6
NMTAP	106	336	1
NMTAP	106	360	6
NMHLD	107	192	4	96
BRSTR	107	192	7
NMSXL	107	192	7	96	480	2
NMHLD	108	0	4	96
NMHLD	108	192	4	96
NMTAP	109	0	3
NMTAP	109	48	3
NMTAP	109	96	4
NMHLD	109	192	3	96
NMSTR	109	192	5
NMSXR	109	192	5	96	480	7
NMHLD	110	0	2	96
NMHLD	110	192	1	96
NMTAP	111	0	1
NMTAP	111	48	1
NMTAP	111	96	0
NMTAP	111	192	1
NMTAP	111	192	6
NMTAP	111	240	5
NMTAP	111	288	4
NMTAP	111	336	3
NMTAP	112	0	6
NMTAP	112	48	5
NMTAP	112	96	4
NMTAP	112	144	3
NMTAP	112	192	5
NMTAP	112	240	5
NMTAP	112	288	4
NMTAP	112	336	3
NMTAP	113	0	2
NMTAP	113	0	4
NMTAP	113	48	2
NMTAP	113	96	3
NMTAP	113	144	4
NMTAP	113	192	1
NMTAP	113	240	2
NMTAP	113	288	3
NMTAP	113	336	4
NMTAP	114	0	1
NMTAP	114	48	2
NMTAP	114	96	3
NMTAP	114	144	4
NMTAP	114	192	3
NMTAP	114	192	5
NMTAP	114	288	1
NMHLD	114	288	7	96
NMTTP	115	0	0	E	0	M1
NMTTP	115	24	7	E	0	M1
NMTTP	115	48	6	E	0	M1
NMTTP	115	72	5	E	0	M1
NMTTP	115	96	4	E	0	M1
NMTTP	115	120	3	E	0	M1
NMTTP	115	144	2	E	0	M1
NMTTP	115	168	1	E	0	M1
NMTTP	115	192	0	E	1	M1
EXHLD	115	192	6	96
NMHLD	115	336	6	96
NMTAP	116	48	4
NMTAP	116	96	4
NMTAP	116	144	7
NMTAP	116	192	2
NMTAP	116	240	2
NMTAP	116	288	0
NMTAP	116	312	1
NMTAP	116	336	0
NMTAP	116	360	1
NMHLD	117	0	7	96
NMTAP	117	96	2
NMHLD	117	144	1	96
NMTAP	117	240	3
NMTAP	117	288	3
NMTAP	117	336	0
NMTAP	118	0	5
NMTAP	118	48	5
NMTAP	118	96	7
NMTAP	118	120	6
NMTAP	118	144	7
NMTAP	118	168	6
BRTAP	118	192	0
NMTAP	118	240	4
NMTAP	118	288	4
NMTAP	118	336	7
NMTAP	119	0	3
NMTAP	119	48	3
NMTAP	119	96	2
NMTAP	119	96	4
NMTAP	119	144	1
NMTAP	119	192	0
NMTAP	119	192	7
NMTAP	119	240	6
NMTAP	119	288	5
NMTAP	119	312	4
NMTAP	119	336	5
NMTAP	119	360	4
BRSTR	120	0	6
NMSI_	120	0	6	96	48	3
NMTAP	120	48	0
NMTAP	120	96	6
BRSTR	120	144	1
NMSI_	120	144	1	96	48	4
NMTAP	120	192	7
NMTAP	120	240	1
BRSTR	120	288	6
NMSCL	120	288	6	96	48	3
NMTAP	120	336	7
NMTAP	121	0	6
BRTAP	121	48	1
NMTAP	121	96	0
NMTAP	121	96	2
NMTAP	121	192	3
NMTAP	121	192	7
NMTAP	121	240	3
NMTAP	121	240	7
NMTAP	121	288	2
NMTAP	121	288	6
NMTAP	121	336	2
NMTAP	121	336	6
NMTAP	122	0	1
NMTAP	122	0	5
NMTAP	122	48	1
NMTAP	122	48	5
NMTAP	122	96	0
NMTAP	122	96	4
NMTAP	122	120	1
NMTAP	122	144	2
NMTAP	122	168	3
NMTAP	122	192	0
NMTAP	122	192	4
NMTAP	122	216	5
NMTAP	122	240	6
NMTAP	122	264	7
NMTAP	122	288	0
NMTAP	122	288	4
NMTAP	122	312	1
NMTAP	122	312	5
NMTAP	122	336	2
NMTAP	122	336	6
NMTAP	122	360	3
NMTAP	122	360	7
NMTAP	123	0	0
NMSTR	123	0	4
NMSI_	123	0	4	96	48	1
NMSI_	123	0	4	96	48	7
NMTTP	123	96	0	C	1	M1
NMTTP	123	96	2	B	0	M1
NMTTP	123	96	2	A	0	M1
BXSTR	123	96	4
NMSCL	123	96	4	96	768	4
NMSCR	123	96	4	96	768	4
NMTTP	123	96	6	B	0	M1
NMTTP	123	96	6	A	0	M1

T_REC_TAP	432
T_REC_BRK	8
T_REC_XTP	3
T_REC_BXX	1
T_REC_HLD	57
T_REC_XHO	1
T_REC_BHO	2
T_REC_BXH	2
T_REC_STR	38
T_REC_BST	12
T_REC_XST	1
T_REC_XBS	2
T_REC_TTP	49
T_REC_THO	3
T_REC_SLD	56
T_REC_BSL	3
T_REC_ALL	670
T_NUM_TAP	523
T_NUM_BRK	30
T_NUM_HLD	61
T_NUM_SLD	56
T_NUM_ALL	670
T_JUDGE_TAP	546
T_JUDGE_HLD	202
T_JUDGE_SLD	59
T_JUDGE_ALL	807
TTM_EACHPAIRS	75
TTM_SCR_TAP	261500
TTM_SCR_BRK	78000
TTM_SCR_HLD	61000
TTM_SCR_SLD	84000
TTM_SCR_ALL	484500
TTM_SCR_S	467100
TTM_SCR_SS	481500
TTM_RAT_ACV	10062

