VERSION	0.00.00	1.05.00
FES_MODE	0
BPM_DEF	245.000	245.000	245.000	245.000
MET_DEF	4	4
RESOLUTION	384
CLK_DEF	384
COMPATIBLE_CODE	MA2

BPM	0	0	245.000
MET	0	0	4	4
MET	12	0	4	5
MET	32	0	4	2
MET	32	192	4	3
MET	44	192	4	2
MET	45	0	4	4
MET	107	0	4	2
MET	107	192	4	4
MET	115	192	4	6

NMHLD	2	0	2	1728
NMHLD	4	192	3	1728
NMHLD	7	0	4	1536
NMHLD	9	192	5	768
NMTTP	11	192	4	E	0	M1
NMTAP	12	0	3
NMTAP	12	96	1
NMTAP	12	192	0
NMTAP	12	288	5
NMTAP	13	0	6
NMTAP	13	96	0
NMTAP	13	192	2
NMTAP	13	288	7
NMTAP	14	0	5
NMTAP	14	96	3
NMTAP	14	192	3
NMTAP	14	288	1
NMTAP	15	0	4
NMTAP	15	96	6
NMTAP	15	192	7
NMTAP	15	288	0
NMTAP	16	0	2
NMTAP	16	96	6
NMTAP	16	192	4
NMTAP	16	288	2
NMTAP	17	0	0
NMTAP	17	96	0
NMTAP	17	192	3
NMTAP	17	288	4
NMTAP	18	0	5
NMTAP	18	96	0
NMTAP	18	192	1
NMTAP	18	288	7
NMTAP	19	0	6
NMTAP	19	96	2
NMTAP	19	192	4
NMTAP	19	288	6
NMTAP	20	0	7
NMTAP	20	96	2
NMTAP	20	192	0
NMTAP	20	288	7
NMTAP	21	0	4
NMTAP	21	96	2
NMTAP	21	192	1
NMTAP	21	192	5
NMHLD	22	0	2	96
NMHLD	22	0	4	96
NMSTR	22	144	2
NMSCR	22	144	2	96	96	5
NMTAP	22	144	4
NMTAP	23	48	6
NMTAP	23	96	6
NMTAP	23	240	3
NMTAP	23	288	3
NMTAP	24	0	4
NMTAP	24	0	5
NMTAP	24	96	4
NMTAP	24	96	5
NMTAP	24	192	3
NMSTR	24	192	6
NMSCL	24	192	6	96	192	2
NMTAP	25	240	1
NMTAP	25	288	1
NMTAP	26	48	3
NMTAP	26	96	3
EXTAP	26	192	2
NMTAP	26	288	1
NMTAP	26	288	3
NMHLD	27	0	2	96
NMTAP	27	96	4
NMSTR	27	144	4
NMSCR	27	144	4	96	144	7
NMTAP	28	48	2
NMTAP	28	96	2
NMTAP	28	240	7
NMTAP	28	288	7
NMTAP	29	0	1
NMTAP	29	48	1
NMTAP	29	96	0
NMHLD	29	192	2	96
NMHLD	29	192	7	96
NMHLD	29	336	3	96
NMHLD	29	336	6	96
NMHLD	30	96	4	96
NMHLD	30	96	5	96
NMTAP	30	240	4
NMTAP	30	240	5
NMTAP	30	336	6
NMTAP	30	336	7
NMTAP	31	48	0
NMTAP	31	48	1
NMTAP	31	144	2
NMTAP	31	144	3
NMTAP	31	240	4
NMTAP	31	240	5
BRHLD	31	336	6	144
BRHLD	31	336	7	144
EXSTR	32	192	0
NMSCR	32	192	0	96	768	5
NMSTR	35	192	6
NMSLL	35	192	6	96	480	2
CNSI_	37	0	2	0	288	0
NMSTR	38	192	7
NMSLR	38	192	7	96	768	4
NMSTR	41	192	2
NMSLL	41	192	2	96	480	6
CNSI_	43	0	6	0	288	4
NMHLD	44	192	0	96
NMHLD	44	192	7	96
BRTAP	45	0	0
BRTAP	45	0	1
NMTAP	45	96	0
NMTAP	45	96	1
NMTAP	45	192	6
NMTAP	45	192	7
NMTAP	45	288	6
NMTAP	45	288	7
NMTAP	46	0	0
NMTAP	46	0	1
NMTAP	46	96	2
NMTAP	46	96	3
NMTAP	46	192	4
NMTAP	46	192	5
NMTAP	46	288	6
NMTAP	46	288	7
NMTAP	47	0	4
NMTAP	47	0	5
NMTAP	47	96	4
NMTAP	47	96	5
NMTAP	47	192	2
NMTAP	47	192	3
NMTAP	47	288	2
NMTAP	47	288	3
NMTAP	48	0	0
NMTAP	48	0	1
NMTAP	48	96	4
NMTAP	48	96	5
NMTAP	48	192	6
NMTAP	48	192	7
NMTAP	48	288	2
NMTAP	48	288	3
NMTAP	49	0	0
NMTAP	49	0	1
NMTAP	49	96	0
NMTAP	49	96	1
NMTAP	49	192	6
NMTAP	49	192	7
NMTAP	49	288	6
NMTAP	49	288	7
NMTAP	50	0	4
NMTAP	50	0	5
NMTAP	50	96	0
NMTAP	50	96	1
NMTAP	50	192	2
NMTAP	50	192	3
NMTAP	50	288	6
NMTAP	50	288	7
NMTAP	51	0	4
NMTAP	51	0	5
NMTAP	51	96	6
NMTAP	51	192	2
NMTAP	51	192	3
NMTAP	51	288	1
NMTAP	52	0	0
NMTAP	52	0	7
NMTAP	52	96	0
NMTAP	52	144	0
NMTAP	52	192	7
NMTAP	52	288	1
NMTAP	52	288	6
NMHLD	53	0	2	96
NMHLD	53	0	3	96
NMHLD	53	144	5	96
NMHLD	53	144	6	96
NMHLD	53	288	0	96
NMHLD	53	288	1	96
NMHLD	54	48	5	96
NMHLD	54	48	7	96
BRTAP	54	192	0
BRTAP	54	192	4
NMSTR	55	0	2
NMSI_	55	0	2	96	48	4
EXTAP	55	144	5
EXTAP	55	192	5
NMTAP	55	336	4
NMTAP	55	336	5
NMHLD	56	48	6	96
NMTAP	56	144	7
NMTAP	56	192	7
NMTAP	56	288	0
NMTAP	56	288	5
NMSTR	57	0	1
NMSI_	57	0	1	96	48	7
NMTAP	57	0	4
NMTAP	57	144	3
NMTAP	57	192	3
NMTAP	57	336	0
NMTAP	57	336	4
NMHLD	58	48	2	96
NMTAP	58	144	3
NMTAP	58	192	3
NMTAP	58	288	1
NMTAP	58	288	4
NMTAP	59	0	3
NMSTR	59	0	6
NMSI_	59	0	6	96	48	3
NMTAP	59	144	2
NMTAP	59	192	2
NMTAP	59	336	2
NMTAP	59	336	3
NMHLD	60	48	1	96
NMTAP	60	144	0
NMTAP	60	192	0
NMTAP	60	288	2
NMTAP	60	288	7
NMTAP	61	0	3
NMSTR	61	0	6
NMSI_	61	0	6	96	48	0
NMTAP	61	144	4
NMTAP	61	192	4
NMTAP	61	336	3
NMTAP	61	336	7
NMHLD	62	48	6	96
NMTAP	62	144	4
NMTAP	62	192	4
NMTAP	62	288	3
NMTAP	62	288	5
NMSTR	63	0	2
NMSI_	63	0	2	96	48	5
NMTAP	63	0	4
NMTAP	63	144	6
NMTAP	63	192	6
NMTAP	63	336	6
NMTAP	63	336	7
NMHLD	64	48	5	96
NMTAP	64	144	4
NMTAP	64	192	4
NMTAP	64	288	3
NMTAP	64	288	6
NMSTR	65	0	2
NMSI_	65	0	2	96	48	7
NMTAP	65	0	7
NMTAP	65	144	6
NMTAP	65	192	6
NMTAP	65	336	4
NMTAP	65	336	5
NMHLD	66	48	2	96
NMTAP	66	144	3
NMTAP	66	192	3
NMTAP	66	288	1
NMTAP	66	288	4
NMSTR	67	0	2
NMSXR	67	0	2	96	288	7
NMTAP	67	0	3
NMSTR	68	0	6
NMSXR	68	0	6	96	288	3
NMSTR	69	0	1
NMSXR	69	0	1	96	288	5
NMSTR	70	0	3
NMSXL	70	0	3	96	288	7
NMHLD	71	0	0	1536
NMTHO	73	0	0	768	C	0	M1
NMHLD	79	0	1	576
NMHLD	80	0	3	576
NMHLD	81	0	4	384
NMTAP	82	0	6
NMHLD	83	0	6	576
NMHLD	84	0	4	576
NMHLD	85	0	3	384
NMTHO	86	0	0	192	C	0	M1
NMTAP	87	0	0
NMTAP	87	0	7
NMTAP	87	192	6
NMTAP	87	192	7
NMTAP	88	0	5
NMTAP	88	0	6
NMTAP	88	192	4
NMTAP	88	192	5
NMTAP	89	0	3
NMTAP	89	0	4
NMTAP	89	192	2
NMTAP	89	192	3
NMTAP	90	0	1
NMTAP	90	0	2
NMTAP	90	192	0
NMTAP	90	192	1
NMHLD	91	0	2	144
NMHLD	91	144	3	144
NMTAP	91	288	4
NMTTP	92	96	3	B	0	M1
NMTTP	92	96	3	E	0	M1
NMTTP	92	96	4	B	0	M1
NMTTP	92	96	4	E	1	M1
NMTTP	92	96	5	E	0	M1
NMSTR	93	0	2
NMSI_	93	0	2	96	48	7
NMTAP	93	96	6
NMTAP	93	144	6
NMTAP	93	240	0
NMTAP	93	240	5
NMTAP	93	288	0
NMTAP	93	288	5
NMSTR	94	0	4
NMSI_	94	0	4	96	48	0
NMTAP	94	96	1
NMTAP	94	144	1
NMTAP	94	240	2
NMTAP	94	240	7
NMTAP	94	288	2
NMTAP	94	288	7
NMTAP	95	0	6
NMTAP	95	48	6
NMTAP	95	144	4
NMTAP	95	144	5
NMTAP	95	240	6
NMTAP	95	240	7
NMTAP	95	336	0
NMTAP	95	336	1
NMSTR	96	48	2
NMSCL	96	48	2	96	144	7
NMSTR	96	48	3
NMSUL	96	48	3	96	144	6
NMSTR	97	0	1
NMSI_	97	0	1	96	48	4
NMTAP	97	96	5
NMTAP	97	144	5
NMTAP	97	240	3
NMTAP	97	240	6
NMTAP	97	288	3
NMTAP	97	288	6
NMSTR	98	0	7
NMSI_	98	0	7	96	48	3
NMTAP	98	96	2
NMTAP	98	144	2
NMTAP	98	240	1
NMTAP	98	240	4
NMTAP	98	336	2
NMTAP	98	336	3
NMTAP	99	48	0
NMTAP	99	48	1
NMTAP	99	144	6
NMTAP	99	144	7
NMTAP	99	240	4
NMTAP	99	240	5
NMSTR	99	336	2
NMSUR	99	336	2	96	144	7
NMSTR	99	336	3
NMSCR	99	336	3	96	144	6
NMSTR	101	0	5
NMSI_	101	0	5	96	48	0
NMTAP	101	96	1
NMSTR	101	144	1
NMSI_	101	144	1	96	48	4
NMTAP	101	240	7
NMTAP	101	288	7
NMSTR	102	0	6
NMSI_	102	0	6	96	48	3
NMTAP	102	96	2
NMSTR	102	144	2
NMSI_	102	144	2	96	48	7
NMTAP	102	240	4
NMTAP	102	288	4
NMTAP	103	0	4
NMTAP	103	0	5
NMTAP	103	48	4
NMTAP	103	48	5
NMTAP	103	144	6
NMTAP	103	144	7
NMTAP	103	240	0
NMTAP	103	240	1
NMTAP	103	336	2
NMTAP	103	336	3
NMTAP	104	48	1
NMTAP	104	48	4
NMTAP	104	144	1
NMTAP	104	144	4
NMTAP	104	240	5
NMTAP	104	288	5
BRTAP	105	0	4
BRTAP	105	0	6
BRTAP	105	144	1
BRTAP	105	144	3
BRHLD	105	288	0	192
BRHLD	105	288	6	192
EXSTR	106	192	7
NMSSR	106	192	7	96	192	3
NMTAP	107	192	2
NMTAP	107	288	1
NMTAP	108	0	4
NMTAP	108	96	5
NMTAP	108	192	1
NMTAP	108	288	3
NMTAP	109	0	5
NMTAP	109	48	4
NMTAP	109	96	3
NMTAP	109	192	1
NMTAP	109	288	0
NMTAP	110	0	0
NMTAP	110	96	3
NMTAP	110	192	4
NMTAP	110	288	6
NMTAP	111	0	1
NMTAP	111	48	0
NMTAP	111	96	7
NMTAP	111	192	2
NMTAP	111	288	3
NMTAP	112	0	6
NMTAP	112	96	4
NMTAP	112	192	1
NMTAP	112	288	3
NMTAP	113	0	5
NMTAP	113	48	4
NMTAP	113	96	3
NMTAP	113	192	5
NMTAP	113	288	6
NMTAP	114	0	2
NMTAP	114	96	0
NMTAP	114	192	5
NMTAP	114	288	7
NMHLD	115	0	2	96
NMHLD	115	0	6	96
BRTAP	115	192	1
BRTAP	115	192	7
NMTAP	115	336	6
NMTAP	116	0	6
NMTAP	116	48	0
NMTAP	116	144	1
NMTAP	116	144	5
NMTAP	116	192	1
NMTAP	116	192	5
NMTAP	116	240	1
NMTAP	116	240	5
NMTAP	116	288	1
NMTAP	116	288	5
BRTAP	117	0	2
BRTAP	117	0	4
NMTAP	117	144	5
NMTAP	117	192	5
NMTAP	117	240	3
NMTAP	117	336	2
NMTAP	117	336	6
NMTAP	118	0	2
NMTAP	118	0	6
NMTAP	118	48	2
NMTAP	118	48	6
NMTAP	118	96	2
NMTAP	118	96	6
BRTAP	118	192	3
BRTAP	118	192	5
NMTAP	118	336	1
NMTAP	119	0	1
NMTAP	119	48	3
NMTAP	119	144	0
NMTAP	119	144	4
NMTAP	119	192	0
NMTAP	119	192	4
NMTAP	119	240	0
NMTAP	119	240	4
NMTAP	119	288	0
NMTAP	119	288	4
BRHLD	120	0	1	96
BRHLD	120	0	3	96
BRHLD	120	144	4	96
BRHLD	120	144	6	96
BRHLD	120	288	0	96
BRHLD	120	288	2	96
BRHLD	121	48	5	96
BRHLD	121	48	7	96
NMTAP	121	192	6
NMTAP	121	240	6
NMTAP	121	288	6
NMTAP	121	336	6
NMTAP	122	0	0
NMTAP	122	48	0
NMTAP	122	96	0
NMTAP	122	144	0
NMTAP	122	192	0
NMTAP	122	192	7
NMTAP	122	240	0
NMTAP	122	240	7
NMTAP	122	288	0
NMTAP	122	288	7
NMTAP	122	336	0
NMTAP	122	336	7
BXTAP	123	0	0
BXSTR	123	0	7
BRSCL	123	0	7	96	864	0
NMTTP	123	96	0	C	1	M1
NMTTP	123	96	3	B	0	M1
NMTTP	123	96	4	B	0	M1

T_REC_TAP	345
T_REC_BRK	14
T_REC_XTP	3
T_REC_BXX	1
T_REC_HLD	40
T_REC_XHO	0
T_REC_BHO	12
T_REC_BXH	0
T_REC_STR	28
T_REC_BST	0
T_REC_XST	2
T_REC_XBS	1
T_REC_TTP	9
T_REC_THO	2
T_REC_SLD	30
T_REC_BSL	1
T_REC_ALL	488
T_NUM_TAP	387
T_NUM_BRK	29
T_NUM_HLD	42
T_NUM_SLD	30
T_NUM_ALL	488
T_JUDGE_TAP	403
T_JUDGE_HLD	165
T_JUDGE_SLD	31
T_JUDGE_ALL	599
TTM_EACHPAIRS	127
TTM_SCR_TAP	193500
TTM_SCR_BRK	75400
TTM_SCR_HLD	42000
TTM_SCR_SLD	45000
TTM_SCR_ALL	355900
TTM_SCR_S	342450
TTM_SCR_SS	353000
TTM_RAT_ACV	10082

