VERSION	0.00.00	1.05.00
FES_MODE	0
BPM_DEF	245.000	245.000	245.000	245.000
MET_DEF	4	4
RESOLUTION	384
CLK_DEF	384
COMPATIBLE_CODE	MA2

BPM	0	0	245.000
MET	0	0	4	4
MET	12	0	4	5
MET	32	0	4	2
MET	32	192	4	3
MET	44	192	4	2
MET	45	0	4	4
MET	107	0	4	2
MET	107	192	4	4
MET	115	192	4	6

NMTAP	12	0	1
NMTAP	12	96	1
NMTAP	12	192	1
NMTAP	12	288	1
NMTAP	13	0	0
NMTAP	13	0	1
NMTAP	14	192	2
NMTAP	14	288	2
NMTAP	15	0	2
NMTAP	15	96	2
NMTAP	15	192	2
NMTAP	15	192	3
NMTAP	17	0	4
NMTAP	17	96	4
NMTAP	17	192	4
NMTAP	17	288	4
NMTAP	18	0	4
NMTAP	18	0	5
NMTAP	19	192	6
NMTAP	19	192	7
NMTAP	19	288	6
NMTAP	19	288	7
NMTAP	20	0	6
NMTAP	20	0	7
NMTAP	20	96	6
NMTAP	20	96	7
NMTAP	20	192	6
NMTAP	20	192	7
NMTAP	22	0	5
NMTAP	22	96	5
NMTAP	22	192	5
NMTAP	22	288	5
NMTAP	23	96	6
NMTAP	23	192	6
NMTAP	23	288	6
NMTAP	24	0	6
NMTAP	24	192	7
NMTAP	24	288	7
NMTAP	25	0	7
NMTAP	25	96	7
NMTAP	25	288	0
NMTAP	25	288	1
NMTAP	26	96	0
NMTAP	26	96	1
NMTAP	27	0	2
NMTAP	27	96	2
NMTAP	27	192	2
NMTAP	27	288	2
NMTAP	28	96	1
NMTAP	28	192	1
NMTAP	28	288	1
NMTAP	29	0	1
NMTAP	29	192	0
NMTAP	29	288	0
NMTAP	30	0	0
NMTAP	30	96	0
NMTAP	30	288	6
NMTAP	30	288	7
NMTAP	31	96	6
NMTAP	31	96	7
NMSTR	32	192	7
NMSI_	32	192	7	96	288	3
NMSTR	34	0	1
NMSI_	34	0	1	96	288	4
NMSTR	35	192	6
NMSI_	35	192	6	96	288	2
NMSTR	37	0	0
NMSI_	37	0	0	96	288	4
NMSTR	38	192	5
NMSI_	38	192	5	96	288	0
NMSTR	40	0	1
NMSI_	40	0	1	96	288	4
NMSTR	41	192	6
NMSI_	41	192	6	96	288	3
NMSTR	43	0	1
NMSCR	43	0	1	96	384	4
NMTAP	45	0	4
NMTAP	45	96	4
NMTAP	45	192	5
NMTAP	46	0	6
NMTAP	46	96	6
NMTAP	46	192	7
NMTAP	47	0	0
NMTAP	47	96	0
NMTAP	47	192	1
NMTAP	48	0	2
NMTAP	48	96	2
NMTAP	48	192	2
NMTAP	48	192	3
NMTAP	49	0	3
NMTAP	49	96	3
NMTAP	49	192	2
NMTAP	50	0	1
NMTAP	50	96	1
NMTAP	50	192	0
NMTAP	51	0	7
NMTAP	51	96	7
NMTAP	51	192	6
NMTAP	52	0	5
NMTAP	52	96	5
NMTAP	52	192	4
NMTAP	52	192	5
NMSTR	53	0	3
NMSLL	53	0	3	96	480	4
NMTAP	55	0	5
NMTAP	55	96	5
NMTAP	55	192	4
NMTAP	55	192	5
NMTAP	56	0	6
NMTAP	56	96	6
NMTAP	56	192	6
NMTAP	56	192	7
NMTAP	57	0	0
NMTAP	57	96	0
NMTAP	57	192	0
NMTAP	57	192	1
NMTAP	58	0	2
NMTAP	58	0	3
NMTAP	58	96	2
NMTAP	58	96	3
NMTAP	58	192	2
NMTAP	58	192	3
NMTAP	59	0	2
NMTAP	59	96	2
NMTAP	59	192	2
NMTAP	59	192	3
NMTAP	60	0	1
NMTAP	60	96	1
NMTAP	60	192	0
NMTAP	60	192	1
NMTAP	61	0	7
NMTAP	61	96	7
NMTAP	61	192	6
NMTAP	61	192	7
NMTAP	62	0	4
NMTAP	62	0	5
NMTAP	62	96	4
NMTAP	62	96	5
NMTAP	62	192	4
NMTAP	62	192	5
NMTAP	63	0	5
NMTAP	63	96	5
NMTAP	63	192	6
NMTAP	63	288	6
NMTAP	64	0	7
NMTAP	64	96	7
NMTAP	64	192	0
NMTAP	64	192	1
NMTAP	65	0	2
NMTAP	65	96	2
NMTAP	65	192	1
NMTAP	65	288	1
NMTAP	66	0	0
NMTAP	66	96	0
NMTAP	66	192	6
NMTAP	66	192	7
NMTAP	67	0	4
NMTAP	67	0	5
NMTAP	67	96	4
NMTAP	67	96	5
NMTAP	67	192	4
NMTAP	67	192	5
NMTAP	68	0	6
NMTAP	68	0	7
NMTAP	68	96	6
NMTAP	68	96	7
NMTAP	68	192	6
NMTAP	68	192	7
NMTAP	69	0	0
NMTAP	69	0	1
NMTAP	69	96	0
NMTAP	69	96	1
NMTAP	69	192	0
NMTAP	69	192	1
NMTAP	70	0	2
NMTAP	70	0	3
NMTAP	70	96	2
NMTAP	70	96	3
NMTAP	70	192	2
NMTAP	70	192	3
NMHLD	71	0	3	1536
NMHLD	71	0	4	1536
EXHLD	79	0	2	384
EXHLD	80	0	3	384
EXHLD	81	0	4	384
EXTAP	82	0	5
NMHLD	83	0	5	384
NMHLD	84	0	4	384
NMHLD	85	0	3	384
NMTAP	86	0	2
NMTTP	87	0	3	B	0	L1
NMTTP	87	192	2	B	0	L1
NMTTP	88	0	1	B	0	L1
NMTTP	88	192	0	B	0	L1
NMTTP	89	0	7	B	0	L1
NMTTP	89	192	6	B	0	L1
NMTTP	90	0	5	B	0	L1
NMTTP	90	192	4	B	0	L1
NMTTP	91	0	0	C	1	L1
EXTAP	93	0	1
EXTAP	93	96	1
NMTAP	93	192	0
NMTAP	93	192	1
NMTAP	93	288	0
NMTAP	93	288	1
NMTAP	94	0	7
NMTAP	94	96	7
NMTAP	94	192	6
NMTAP	94	192	7
NMTAP	95	0	5
NMTAP	95	96	5
NMTAP	95	192	6
NMTAP	95	192	7
NMTAP	95	288	6
NMTAP	95	288	7
NMTAP	96	0	0
NMTAP	96	96	0
NMTAP	96	192	0
NMTAP	96	192	1
NMTAP	97	0	1
NMTAP	97	96	1
NMTAP	97	192	2
NMTAP	97	192	3
NMTAP	97	288	2
NMTAP	97	288	3
NMTAP	98	0	4
NMTAP	98	96	4
NMTAP	98	192	4
NMTAP	98	192	5
NMTAP	99	0	6
NMTAP	99	96	6
NMTAP	99	192	4
NMTAP	99	192	5
NMTAP	99	288	4
NMTAP	99	288	5
NMTAP	100	0	3
NMTAP	100	96	3
NMTAP	100	192	2
NMTAP	100	192	3
NMTAP	101	0	2
NMTAP	101	96	2
NMTAP	101	192	0
NMTAP	101	192	1
NMTAP	101	288	0
NMTAP	101	288	1
NMTAP	102	0	7
NMTAP	102	96	7
NMTAP	102	192	6
NMTAP	102	192	7
NMTAP	102	288	6
NMTAP	102	288	7
NMTAP	103	0	5
NMTAP	103	96	5
NMTAP	103	192	6
NMTAP	103	192	7
NMTAP	103	288	6
NMTAP	103	288	7
NMTAP	104	0	0
NMTAP	104	96	0
NMTAP	104	192	0
NMTAP	104	192	1
NMTAP	105	0	0
NMTAP	105	96	1
NMTAP	105	192	2
NMTAP	105	288	3
NMTAP	106	0	4
NMTAP	106	96	5
NMTAP	106	192	6
NMTAP	106	288	7
EXTAP	107	0	0
EXTAP	107	0	7
NMTAP	107	192	6
NMTAP	107	288	6
NMTAP	108	0	6
NMTAP	108	96	6
NMTAP	108	96	7
NMTAP	108	192	5
NMTAP	108	288	5
NMTAP	109	0	5
NMTAP	109	96	4
NMTAP	109	96	5
NMTAP	109	192	3
NMTAP	109	288	3
NMTAP	110	0	3
NMTAP	110	96	2
NMTAP	110	96	3
NMTAP	110	192	0
NMTAP	110	192	1
NMTAP	110	288	0
NMTAP	110	288	1
NMTAP	111	0	2
NMTAP	111	0	7
NMTAP	111	192	1
NMTAP	111	288	1
NMTAP	112	0	1
NMTAP	112	96	0
NMTAP	112	96	1
NMTAP	112	192	2
NMTAP	112	288	2
NMTAP	113	0	2
NMTAP	113	96	2
NMTAP	113	96	3
NMTAP	113	192	4
NMTAP	113	288	4
NMTAP	114	0	4
NMTAP	114	96	4
NMTAP	114	96	5
NMTAP	114	192	6
NMTAP	114	192	7
NMTAP	114	288	6
NMTAP	114	288	7
NMTAP	115	0	0
NMTAP	115	0	5
NMTAP	115	192	6
NMTAP	115	288	6
NMTAP	116	0	6
NMTAP	116	96	6
NMTAP	116	96	7
NMTAP	116	192	6
NMTAP	116	192	7
NMTAP	116	288	6
NMTAP	116	288	7
NMTAP	117	0	0
NMTAP	117	0	5
NMTAP	117	96	1
NMTAP	117	96	4
NMTAP	117	192	2
NMTAP	117	192	3
NMTAP	117	288	2
NMTAP	117	288	3
NMTAP	118	192	1
NMTAP	118	288	1
NMTAP	119	0	1
NMTAP	119	96	0
NMTAP	119	96	1
NMTAP	119	192	0
NMTAP	119	192	1
NMTAP	119	288	0
NMTAP	119	288	1
NMTAP	120	0	2
NMTAP	120	0	7
NMTAP	120	96	3
NMTAP	120	96	6
NMTAP	120	192	4
NMTAP	120	192	5
NMTAP	120	288	4
NMTAP	120	288	5
NMTAP	121	192	3
NMTAP	121	192	4
NMTAP	121	288	3
NMTAP	121	288	4
NMTAP	122	0	2
NMTAP	122	0	5
NMTAP	122	96	2
NMTAP	122	96	5
NMTAP	122	192	1
NMTAP	122	192	6
NMTAP	122	288	1
NMTAP	122	288	6
NMTAP	123	0	0
NMTAP	123	0	7
BRTAP	123	96	0
BRTAP	123	96	7

T_REC_TAP	321
T_REC_BRK	2
T_REC_XTP	5
T_REC_BXX	0
T_REC_HLD	5
T_REC_XHO	3
T_REC_BHO	0
T_REC_BXH	0
T_REC_STR	9
T_REC_BST	0
T_REC_XST	0
T_REC_XBS	0
T_REC_TTP	9
T_REC_THO	0
T_REC_SLD	9
T_REC_BSL	0
T_REC_ALL	363
T_NUM_TAP	344
T_NUM_BRK	2
T_NUM_HLD	8
T_NUM_SLD	9
T_NUM_ALL	363
T_JUDGE_TAP	346
T_JUDGE_HLD	56
T_JUDGE_SLD	9
T_JUDGE_ALL	411
TTM_EACHPAIRS	95
TTM_SCR_TAP	172000
TTM_SCR_BRK	5200
TTM_SCR_HLD	8000
TTM_SCR_SLD	13500
TTM_SCR_ALL	198700
TTM_SCR_S	192550
TTM_SCR_SS	198500
TTM_RAT_ACV	10010

