VERSION	0.00.00	1.05.00
FES_MODE	0
BPM_DEF	245.000	245.000	245.000	245.000
MET_DEF	4	4
RESOLUTION	384
CLK_DEF	384
COMPATIBLE_CODE	MA2

BPM	0	0	245.000
MET	0	0	4	4
MET	12	0	4	5
MET	32	0	4	2
MET	32	192	4	3
MET	44	192	4	2
MET	45	0	4	4
MET	107	0	4	2
MET	107	192	4	4
MET	115	192	4	6

NMTAP	12	0	0
NMTAP	12	96	0
NMTAP	13	96	1
NMTAP	13	192	1
NMTAP	14	192	2
NMTAP	14	288	2
NMTAP	15	288	3
NMTAP	15	288	4
NMTAP	17	0	4
NMTAP	17	96	4
NMTAP	18	96	5
NMTAP	18	192	5
NMTAP	19	192	6
NMTAP	19	288	6
NMTAP	20	288	0
NMTAP	20	288	7
NMTAP	22	0	7
NMTAP	22	96	7
EXTAP	23	96	6
EXTAP	23	192	6
NMTAP	24	192	5
NMTAP	24	288	5
EXTAP	25	288	3
EXTAP	25	288	4
NMTAP	27	0	3
NMTAP	27	96	3
EXTAP	28	96	2
EXTAP	28	192	2
NMTAP	29	192	1
NMTAP	29	288	1
EXTAP	30	288	0
EXTAP	30	288	7
EXHLD	32	192	0	576
EXHLD	32	192	1	576
NMHLD	35	192	2	576
NMHLD	35	192	3	576
NMHLD	38	192	4	576
NMHLD	38	192	5	576
NMHLD	41	192	6	576
NMHLD	41	192	7	576
EXTAP	45	0	7
EXTAP	45	96	7
EXTAP	45	192	7
NMTAP	46	0	6
NMTAP	46	192	6
NMTAP	47	0	5
NMTAP	47	96	5
NMTAP	47	192	5
NMTAP	48	0	4
NMTAP	48	0	5
NMTAP	49	0	3
NMTAP	49	96	3
NMTAP	49	192	3
NMTAP	50	0	2
NMTAP	50	192	2
NMTAP	51	0	1
NMTAP	51	96	1
NMTAP	51	192	1
NMTAP	52	0	0
NMTAP	52	0	1
NMHLD	53	0	0	288
NMHLD	53	0	7	288
NMTAP	55	0	0
NMTAP	55	96	0
NMTAP	55	192	0
NMTAP	56	0	1
NMTAP	56	192	1
NMTAP	57	0	2
NMTAP	57	96	2
NMTAP	57	192	2
NMTAP	58	0	2
NMTAP	58	0	3
NMTAP	59	0	4
NMTAP	59	96	4
NMTAP	59	192	4
NMTAP	60	0	5
NMTAP	60	192	5
NMTAP	61	0	6
NMTAP	61	96	6
NMTAP	61	192	6
NMTAP	62	0	6
NMTAP	62	0	7
NMTAP	63	0	0
NMTAP	63	96	0
NMTAP	63	192	0
NMTAP	64	0	0
NMTAP	64	0	1
NMTAP	65	0	7
NMTAP	65	96	7
NMTAP	65	192	7
NMTAP	66	0	6
NMTAP	66	0	7
NMTTP	67	0	6	B	0	L1
NMTTP	67	0	7	B	0	L1
NMTTP	68	0	4	B	0	L1
NMTTP	68	0	5	B	0	L1
NMTTP	69	0	2	B	0	L1
NMTTP	69	0	3	B	0	L1
NMTTP	70	0	0	B	0	L1
NMTTP	70	0	1	B	0	L1
NMTHO	71	0	0	1536	C	0	L1
NMSTR	79	0	0
NMSI_	79	0	0	96	288	3
NMSTR	81	0	4
NMSI_	81	0	4	96	288	7
NMSTR	83	0	1
NMSI_	83	0	1	96	288	5
NMSTR	85	0	6
NMSI_	85	0	6	96	288	2
NMTAP	87	0	1
NMTAP	87	192	1
NMTAP	88	0	0
NMTAP	88	0	7
NMTAP	89	0	6
NMTAP	89	192	6
NMTAP	90	0	0
NMTAP	90	0	7
NMHLD	91	0	0	288
NMHLD	91	0	7	288
BRTAP	93	0	7
NMTAP	93	96	7
NMTAP	93	192	7
NMTAP	93	288	7
NMTAP	94	0	6
NMTAP	94	96	6
NMTAP	94	192	6
NMTAP	94	192	7
NMTAP	95	0	5
NMTAP	95	96	5
NMTAP	95	192	5
NMTAP	95	288	5
NMTAP	96	0	4
NMTAP	96	96	4
NMTAP	96	192	3
NMTAP	96	192	4
NMTAP	97	0	3
NMTAP	97	96	3
NMTAP	97	192	3
NMTAP	97	288	3
NMTAP	98	0	2
NMTAP	98	96	2
NMTAP	98	192	2
NMTAP	98	192	3
NMTAP	99	0	1
NMTAP	99	96	1
NMTAP	99	192	1
NMTAP	99	288	1
NMTAP	100	0	0
NMTAP	100	96	0
NMTAP	100	192	0
NMTAP	100	192	7
NMTAP	101	0	0
NMTAP	101	96	0
NMTAP	101	192	1
NMTAP	101	288	1
NMTAP	102	0	2
NMTAP	102	96	2
NMTAP	102	192	2
NMTAP	102	192	3
NMTAP	103	0	4
NMTAP	103	96	4
NMTAP	103	192	5
NMTAP	103	288	5
NMTAP	104	0	6
NMTAP	104	96	6
NMTAP	104	192	6
NMTAP	104	192	7
NMHLD	105	0	0	480
NMHLD	105	0	7	480
NMTAP	107	192	7
NMTAP	108	0	7
NMTAP	108	192	6
NMTAP	108	192	7
NMTAP	109	0	6
NMTAP	109	0	7
NMTAP	109	192	5
NMTAP	110	0	5
NMTAP	110	192	3
NMTAP	110	192	4
NMTAP	111	0	3
NMTAP	111	0	4
NMTAP	111	192	3
NMTAP	112	0	3
NMTAP	112	192	2
NMTAP	112	192	3
NMTAP	113	0	2
NMTAP	113	0	3
NMTAP	113	192	1
NMTAP	114	0	1
NMTAP	114	192	0
NMTAP	114	192	7
NMTAP	115	192	1
NMTAP	115	288	1
NMTAP	116	0	0
NMTAP	116	0	1
NMTAP	116	96	0
NMTAP	116	96	1
NMTAP	117	0	2
NMTAP	117	96	2
NMTAP	117	192	2
NMTAP	117	192	3
NMTAP	117	288	2
NMTAP	117	288	3
NMTAP	118	192	5
NMTAP	118	288	5
NMTAP	119	0	4
NMTAP	119	0	5
NMTAP	119	96	4
NMTAP	119	96	5
NMTAP	120	0	6
NMTAP	120	96	6
NMTAP	120	192	6
NMTAP	120	192	7
NMTAP	120	288	6
NMTAP	120	288	7
NMTAP	121	192	0
NMTAP	121	288	0
NMTAP	122	0	0
NMTAP	122	96	7
NMTAP	122	192	7
NMTAP	122	288	7
NMTAP	123	0	0
NMTAP	123	0	7
NMHLD	123	96	0	864
NMHLD	123	96	7	864

T_REC_TAP	180
T_REC_BRK	1
T_REC_XTP	11
T_REC_BXX	0
T_REC_HLD	14
T_REC_XHO	2
T_REC_BHO	0
T_REC_BXH	0
T_REC_STR	4
T_REC_BST	0
T_REC_XST	0
T_REC_XBS	0
T_REC_TTP	8
T_REC_THO	1
T_REC_SLD	4
T_REC_BSL	0
T_REC_ALL	225
T_NUM_TAP	203
T_NUM_BRK	1
T_NUM_HLD	17
T_NUM_SLD	4
T_NUM_ALL	225
T_JUDGE_TAP	204
T_JUDGE_HLD	104
T_JUDGE_SLD	4
T_JUDGE_ALL	312
TTM_EACHPAIRS	42
TTM_SCR_TAP	101500
TTM_SCR_BRK	2600
TTM_SCR_HLD	17000
TTM_SCR_SLD	6000
TTM_SCR_ALL	127100
TTM_SCR_S	123200
TTM_SCR_SS	127000
TTM_RAT_ACV	10007

