VERSION	0.00.00	1.05.00
FES_MODE	0
BPM_DEF	202.000	202.000	202.000	202.000
MET_DEF	4	4
RESOLUTION	384
CLK_DEF	384
COMPATIBLE_CODE	MA2

BPM	0	0	202.000
MET	0	0	4	4

NMTTP	1	0	0	B	0	M1
NMTTP	1	0	0	C	1	M1
NMTTP	1	0	0	E	0	M1
NMTTP	1	0	0	A	0	M1
NMTTP	1	0	0	D	0	M1
NMTTP	1	0	1	B	0	M1
NMTTP	1	0	1	E	0	M1
NMTTP	1	0	1	A	0	M1
NMTTP	1	0	1	D	0	M1
NMTTP	1	0	2	B	0	M1
NMTTP	1	0	2	E	0	M1
NMTTP	1	0	2	D	0	M1
NMTTP	1	0	5	B	0	M1
NMTTP	1	0	6	B	0	M1
NMTTP	1	0	6	E	0	M1
NMTTP	1	0	6	A	0	M1
NMTTP	1	0	6	D	0	M1
NMTTP	1	0	7	B	0	M1
NMTTP	1	0	7	E	0	M1
NMTTP	1	0	7	A	0	M1
NMTTP	1	0	7	D	0	M1
BXTAP	2	0	4
BXTAP	2	0	6
BXHLD	2	48	4	144
BXHLD	2	48	6	144
NMTAP	2	336	2
BXTAP	3	0	1
BXTAP	3	0	3
BXHLD	3	48	1	144
BXHLD	3	48	3	144
NMTAP	3	336	4
BXTAP	4	0	3
BXTAP	4	0	5
BXHLD	4	48	3	144
BXHLD	4	48	5	144
NMTAP	4	336	3
BXHLD	5	0	2	144
BXTAP	5	0	4
NMTAP	5	144	4
NMTAP	5	168	3
BXHLD	5	192	5	96
NMTAP	5	288	4
BXTAP	6	0	1
BXTAP	6	0	3
BXTAP	6	48	1
BXTAP	6	48	3
NMTAP	6	96	1
NMTAP	6	96	3
NMTAP	6	192	2
NMTAP	6	192	4
NMTAP	6	288	3
NMTAP	6	336	5
BXTAP	7	0	4
BXTAP	7	0	6
BXTAP	7	48	4
BXTAP	7	48	6
NMTAP	7	96	4
NMTAP	7	96	6
NMTAP	7	192	3
NMTAP	7	192	5
NMTAP	7	288	4
NMTAP	7	336	2
BXHLD	8	0	1	72
NMTAP	8	0	3
BXHLD	8	72	2	96
BXTAP	8	144	3
BXHLD	8	192	5	72
BXHLD	8	264	4	72
BXTAP	8	336	3
NMTHO	9	0	0	192	C	0	M1
EXTAP	9	288	0
EXTAP	9	288	7
EXTAP	10	0	2
NMTAP	10	0	6
NMTAP	10	48	5
NMTAP	10	96	4
EXTAP	10	144	3
NMTAP	10	144	6
NMTAP	10	192	5
NMTAP	10	240	4
EXTAP	10	288	3
NMTAP	10	288	7
NMTAP	10	336	4
NMTAP	11	0	5
EXTAP	11	48	3
NMTAP	11	48	6
NMTAP	11	96	4
NMTAP	11	144	5
NMHLD	11	192	4	48
NMTAP	11	192	6
NMTTP	11	240	6	E	0	M1
NMTTP	11	256	5	B	0	M1
NMTTP	11	272	4	B	0	M1
NMTTP	11	288	4	E	0	M1
EXTAP	12	0	1
EXTAP	12	0	3
NMTAP	12	48	2
NMTAP	12	96	2
EXTAP	12	144	4
EXTAP	12	144	6
NMTAP	12	192	5
NMTAP	12	240	5
NMTAP	12	288	2
NMTAP	12	312	3
NMTAP	12	336	2
NMTAP	12	360	3
BXHLD	13	0	1	48
BXHLD	13	72	0	48
BXHLD	13	72	2	48
BXTAP	13	144	3
BXTAP	13	144	7
BXSTR	13	192	4
NMSI_	13	192	4	96	48	0
BXSTR	13	192	6
NMSI_	13	192	6	96	48	4
NMTTP	14	0	1	B	0	M1
NMTTP	14	0	1	E	0	M1
NMTTP	14	0	1	D	0	M1
NMTTP	14	0	2	E	1	M1
NMTTP	14	0	2	A	0	M1
NMTTP	14	0	3	A	0	M1
NMTTP	14	0	3	D	0	M1
NMTAP	15	0	3
NMTAP	15	0	5
NMTAP	15	96	2
NMTAP	15	144	2
NMTAP	15	192	1
NMTAP	15	192	3
NMSTR	15	288	0
NMSI_	15	288	0	96	48	4
NMTAP	15	288	7
BRTAP	16	0	0
NMSTR	16	0	6
NMSI_	16	0	6	96	48	3
NMSTR	16	96	1
NMSI_	16	96	1	96	48	5
NMTAP	16	96	6
NMTAP	16	192	1
NMSTR	16	192	7
BRSI_	16	192	7	96	48	3
NMTAP	16	288	2
NMTAP	16	288	7
NMTAP	16	336	1
NMTAP	17	0	0
NMTAP	17	0	4
NMTAP	17	96	3
NMTAP	17	96	6
NMTAP	17	144	3
NMTAP	17	144	6
NMTAP	17	192	5
NMTAP	17	216	4
NMTAP	17	264	4
NMTAP	17	288	5
NMTAP	17	336	4
NMTAP	17	336	6
NMHLD	18	0	3	48
NMHLD	18	0	7	48
NMHLD	18	96	1	48
NMHLD	18	96	5	48
NMTAP	18	192	0
NMTAP	18	192	4
NMTAP	18	240	1
NMTAP	18	264	3
NMTAP	18	288	2
NMTAP	18	336	3
NMTAP	18	336	4
NMTAP	19	0	5
NMTAP	19	48	5
NMTAP	19	72	4
NMSTR	19	96	6
NMSI_	19	96	6	96	48	2
NMTAP	19	144	7
BRTAP	19	192	0
CNSI_	19	240	2	0	48	5
CNSI_	19	288	5	0	48	3
BRSTR	20	0	1
NMSI_	20	0	1	96	48	5
NMTAP	20	96	1
NMSTR	20	96	7
NMSI_	20	96	7	96	48	3
NMSTR	20	192	0
BRSI_	20	192	0	96	48	4
NMTAP	20	192	7
NMTAP	20	288	0
NMTAP	20	288	5
NMTAP	20	336	6
NMTAP	21	0	3
NMTAP	21	0	7
NMTAP	21	96	0
NMTAP	21	96	5
NMTAP	21	144	1
NMTAP	21	144	4
NMTAP	21	192	2
NMTAP	21	216	3
NMTAP	21	264	3
NMTAP	21	288	1
NMTAP	21	336	1
BRHLD	22	0	0	48
BRHLD	22	0	1	48
NMTAP	22	96	0
NMTAP	22	96	7
NMTAP	22	144	0
NMTAP	22	144	7
BRHLD	22	192	6	48
BRHLD	22	192	7	48
NMSTR	22	288	0
NMSI_	22	288	0	96	48	5
NMTAP	22	288	5
NMTAP	22	336	1
NMTAP	22	336	4
CNSI_	23	48	5	0	24	3
CNSI_	23	72	3	0	72	1
EXTAP	23	192	1
EXTAP	23	192	7
NMTAP	23	288	0
NMTAP	23	288	7
NMTAP	23	312	6
NMTAP	23	336	5
NMTAP	23	360	4
BRSTR	24	0	1
NMSI_	24	0	1	96	48	7
NMTAP	24	0	3
NMSTR	24	96	1
NMSI_	24	96	1	96	48	3
NMTAP	24	96	4
NMTAP	24	192	1
NMTAP	24	192	5
NMTAP	24	288	6
NMTAP	24	312	4
NMTAP	24	336	6
NMTAP	24	360	4
BRSTR	25	0	6
BRSI_	25	0	6	96	48	0
NMTAP	25	96	0
NMSTR	25	96	6
BRSI_	25	96	6	96	48	4
NMTAP	25	192	3
NMTAP	25	192	6
EXTAP	25	240	2
EXSTR	25	288	1
NMSI_	25	288	1	96	48	4
NMSI_	25	288	1	96	48	5
NMTAP	26	0	1
NMTAP	26	96	6
NMTAP	26	144	6
NMTAP	26	192	6
NMTAP	26	216	7
NMTAP	26	240	5
NMTAP	26	288	0
NMTAP	26	288	4
NMTAP	26	336	0
NMTAP	26	336	4
NMTAP	27	0	1
NMTAP	27	24	3
NMTAP	27	48	2
NMTAP	27	96	3
NMTAP	27	96	5
NMTAP	27	144	3
NMTAP	27	144	5
NMTAP	27	192	6
NMTAP	27	208	4
NMTAP	27	224	6
NMTAP	27	240	4
BRTAP	27	288	3
BRTAP	27	288	7
NMSTR	28	0	2
NMSI_	28	0	2	96	48	4
NMTAP	28	0	6
NMTAP	28	48	5
NMSTR	28	96	2
NMSI_	28	96	2	96	48	7
NMTAP	28	96	4
NMTAP	28	192	2
NMSTR	28	192	5
NMSI_	28	192	5	96	48	3
NMTAP	28	288	1
NMSTR	28	288	5
NMSI_	28	288	5	96	48	0
NMTAP	29	0	2
NMTAP	29	0	5
NMTAP	29	96	1
NMTAP	29	96	7
NMTAP	29	144	2
NMTAP	29	144	6
NMTAP	29	192	5
NMTAP	29	208	3
NMTAP	29	224	5
NMTAP	29	240	3
BRTAP	29	288	2
BRTAP	29	288	6
NMTAP	30	0	1
NMTAP	30	0	5
NMTAP	30	48	2
NMTAP	30	64	4
NMTAP	30	80	2
NMTAP	30	96	4
NMTAP	30	144	1
NMTAP	30	144	5
EXTAP	30	192	6
EXTAP	30	224	7
EXTAP	30	256	5
EXTAP	30	288	1
EXTAP	30	320	0
EXTAP	30	352	2
NMSTR	31	0	7
NMSLL	31	0	7	96	96	3
NMTAP	31	96	0
NMTAP	31	144	0
NMTAP	31	240	0
NMTAP	31	240	1
BRTAP	31	288	2
BRTAP	31	288	7
NMHLD	32	0	6	96
NMTAP	32	0	7
NMTAP	32	96	0
NMTAP	32	144	0
NMHLD	32	144	6	96
NMTAP	32	240	0
NMTAP	32	288	0
NMHLD	32	288	5	96
NMTAP	33	0	1
NMTAP	33	48	1
NMHLD	33	48	4	96
NMTAP	33	144	2
NMSTR	33	192	1
NMSCR	33	192	1	96	48	4
NMSTR	33	192	3
NMSI_	33	192	3	96	48	0
BXTAP	34	0	3
BXTAP	34	0	6
NMTAP	34	48	5
NMTAP	34	72	4
NMTAP	34	96	5
BXTAP	34	144	3
BXTAP	34	144	7
NMTAP	34	192	6
NMTAP	34	216	4
NMTAP	34	240	5
BXTAP	34	288	3
BXTAP	34	288	4
NMTAP	34	336	2
NMTAP	34	360	3
NMTAP	35	0	2
BXTAP	35	48	0
BXTAP	35	48	4
NMTAP	35	96	1
NMTAP	35	120	3
NMTAP	35	144	2
BXSTR	35	192	4
NMSCL	35	192	4	96	48	2
BRSCR	35	192	4	96	48	7
BXTAP	35	288	4
BXHLD	36	0	0	64
BXHLD	36	0	1	64
EXTAP	36	96	2
EXTAP	36	96	7
BXHLD	36	192	6	64
BXHLD	36	192	7	64
EXTAP	36	288	0
EXTAP	36	288	5
NMTAP	36	352	2
BRTAP	37	0	4
NMTAP	37	32	0
NMTAP	37	64	6
BRTAP	37	96	2
NMTAP	37	128	4
NMTAP	37	160	0
BRTAP	37	192	6
NMTAP	37	224	4
NMTAP	37	256	5
BRTAP	37	288	1
NMTAP	37	320	3
NMHLD	37	352	2	80
NMTAP	38	48	7
NMTAP	38	144	6
NMTAP	38	168	7
NMTAP	38	192	6
NMTAP	38	240	0
NMSTR	38	240	5
NMSCR	38	240	5	96	48	0
NMTHO	38	336	0	240	C	0	M1
NMTTP	39	192	0	E	0	M1
NMTTP	39	288	7	E	0	M1
NMHLD	40	0	0	0
NMTTP	40	0	6	E	1	M1
NMHLD	41	0	1	0
NMHLD	42	0	2	0
NMHLD	43	0	3	0
BRTAP	44	0	3
NMHLD	44	1	4	0
NMHLD	45	0	5	0
NMTHO	46	0	0	336	C	1	M1
NMHLD	46	1	6	0
NMTAP	46	336	7
NMSTR	47	192	0
NMSLR	47	192	0	96	96	4
NMTAP	47	288	6
NMHLD	48	0	5	384
NMTAP	48	192	4
NMTAP	48	288	3
NMHLD	49	0	2	384
NMTAP	49	96	4
NMTAP	49	192	3
NMTAP	49	288	4
NMHLD	50	0	3	192
NMTAP	50	96	2
NMTAP	50	192	1
NMSTR	50	240	1
NMSI_	50	240	1	96	48	7
BRTAP	50	336	1
NMSTR	50	336	5
NMSI_	50	336	5	96	48	3
BRTAP	51	48	5
NMTAP	51	144	2
NMTAP	51	192	2
NMTAP	51	240	1
NMTAP	51	264	0
EXTAP	51	288	1
NMHLD	52	0	2	96
NMSTR	52	0	7
BRSI_	52	0	7	96	576	4
NMTAP	52	192	2
NMTAP	52	288	3
NMTAP	52	336	3
NMTAP	53	48	1
NMTAP	53	96	1
NMTAP	53	192	3
NMTAP	53	240	2
NMHLD	53	288	1	96
NMTTP	54	0	7	E	1	M1
BRTAP	54	240	1
BRTAP	54	240	7
BRTAP	54	288	2
BRTAP	54	288	6
BRTAP	54	336	3
BRTAP	54	336	5
NMTAP	55	48	2
NMTAP	55	48	7
NMTAP	55	96	2
NMTAP	55	96	7
NMTAP	55	144	1
NMTAP	55	168	0
NMTAP	55	192	2
NMTAP	55	216	7
NMTAP	55	240	3
NMTAP	55	264	6
BRTAP	55	288	4
BRTAP	55	288	5
NMHLD	56	0	3	768
NMSTR	56	0	4
NMSI_	56	0	4	96	48	7
NMHLD	58	0	5	528
NMHLD	59	0	1	144
NMTAP	59	192	1
NMTAP	59	192	5
NMTAP	59	288	2
NMTAP	59	288	4
NMTAP	60	0	3
NMTAP	60	24	5
NMTAP	60	48	3
NMTAP	60	72	5
NMTAP	60	96	3
NMTAP	60	120	5
NMTAP	60	144	3
NMTAP	60	168	5
NMTAP	60	192	3
NMTAP	60	216	5
NMTAP	60	240	3
NMTAP	60	264	5
NMTAP	60	288	3
NMTAP	60	312	5
NMTAP	60	336	3
NMTAP	60	360	5
NMTAP	61	0	2
NMTAP	61	24	4
NMTAP	61	48	2
NMTAP	61	72	4
NMTAP	61	96	2
NMTAP	61	120	4
NMTAP	61	144	2
NMTAP	61	168	4
NMTAP	61	192	1
NMTAP	61	216	3
NMTAP	61	240	1
NMTAP	61	264	3
NMTAP	61	288	1
NMTAP	61	312	3
NMTAP	61	336	1
NMTAP	61	360	3
BRTAP	62	0	0
NMTAP	62	24	4
NMTAP	62	48	0
NMTAP	62	72	4
NMTAP	62	96	0
NMTAP	62	120	4
NMTAP	62	144	0
NMTAP	62	168	4
NMTAP	62	192	0
NMTAP	62	216	4
NMTAP	62	240	0
NMTAP	62	264	4
NMTAP	62	288	0
NMTAP	62	312	4
NMTAP	62	336	0
NMTAP	62	360	4
NMTAP	63	0	7
NMTAP	63	24	3
NMTAP	63	48	7
NMTAP	63	72	3
NMTAP	63	96	7
NMTAP	63	120	3
NMTAP	63	144	7
NMTAP	63	168	3
NMSTR	63	192	7
NMSI_	63	192	7	96	48	3
NMTAP	63	216	0
NMTAP	63	240	1
NMTAP	63	264	2
NMTAP	63	288	3
NMTAP	63	288	7
NMTAP	64	0	0
BXTAP	64	0	1
BXTAP	64	48	0
NMTAP	64	48	1
NMTAP	64	96	0
BXTAP	64	96	7
BXHLD	64	144	6	96
NMTAP	64	144	7
BXTAP	64	240	7
BXTAP	64	288	0
NMTAP	64	288	5
NMTAP	64	336	1
BXTAP	64	336	4
BXTAP	65	48	2
NMTAP	65	48	3
NMTAP	65	96	1
BXTAP	65	96	4
BXSTR	65	144	0
BRSI_	65	144	0	96	48	4
NMTAP	65	144	5
BXTAP	65	240	7
NMTAP	66	0	4
BXTAP	66	0	5
BXTAP	66	48	4
NMTAP	66	48	5
NMTAP	66	96	3
BXTAP	66	96	6
BXHLD	66	144	2	96
NMTAP	66	144	7
BXTAP	66	240	3
BXTAP	66	288	1
EXTAP	66	288	4
EXHLD	66	336	0	96
BXTAP	66	336	5
BXTAP	67	48	7
BXTAP	67	96	1
BXTAP	67	96	6
BRSTR	67	192	3
NMSI_	67	192	3	96	48	7
BRSTR	67	288	3
BRSCL	67	288	3	96	384	4
NMTTP	69	0	4	E	1	M1
NMTAP	69	192	0
NMTAP	69	192	7
NMTAP	69	208	1
NMTAP	69	208	6
NMTAP	69	224	2
NMTAP	69	224	5
NMTAP	69	240	3
NMTAP	69	240	4
BRTAP	69	288	0
BRTAP	69	288	6
BRTAP	70	0	1
BRTAP	70	0	5
BRSTR	70	48	2
NMSI_	70	48	2	96	48	7
BRSTR	70	48	6
NMSI_	70	48	6	96	48	3
BRTAP	70	96	2
BRTAP	70	96	6
BRTAP	70	144	2
BRTAP	70	144	6
BRTAP	70	240	0
BRTAP	70	240	1
BRTAP	70	288	2
BRTAP	70	288	7
BRTAP	70	336	3
BRTAP	70	336	6
BRTAP	71	48	6
BRTAP	71	48	7
BRTAP	71	96	0
BRTAP	71	96	5
BRHLD	71	144	1	96
BRTAP	71	144	4
BRTAP	71	240	0
BRTAP	71	288	3
BRSTR	71	288	6
NMSCL	71	288	6	96	48	3
BRSTR	72	0	6
NMSI_	72	0	6	96	48	2
NMTAP	72	48	2
NMTAP	72	72	2
NMTAP	72	96	6
NMTAP	72	144	1
NMTAP	72	168	1
NMSTR	72	192	6
BRSI_	72	192	6	96	48	3
NMSTR	72	240	7
BRSCR	72	240	7	96	48	2
NMTAP	72	288	6
NMTAP	72	336	7
NMTAP	73	48	4
NMTAP	73	48	5
NMSTR	73	96	3
NMSCL	73	96	3	96	80	5
NMHLD	73	96	6	240
BRTAP	73	192	3
EXTAP	73	288	4
EXTAP	73	304	3
EXTAP	73	320	2
EXSTR	73	336	1
BRSI_	73	336	1	96	48	5
NMSTR	74	48	0
NMSI_	74	48	0	96	48	6
NMTAP	74	96	0
NMTAP	74	144	4
NMTAP	74	192	3
NMTAP	74	216	3
NMTAP	74	240	5
BRTAP	74	288	2
BRTAP	74	288	4
BRTAP	74	336	0
BRSTR	74	336	6
BRSI_	74	336	6	96	48	2
NMSTR	75	48	7
NMSI_	75	48	7	96	48	1
NMTAP	75	96	7
NMTAP	75	144	3
NMTAP	75	192	4
NMTAP	75	216	4
NMTAP	75	240	2
BRTAP	75	288	3
BRTAP	75	288	5
BRTAP	75	336	1
BRTAP	75	336	7
NMTAP	76	48	0
NMTAP	76	48	6
NMTAP	76	96	0
NMTAP	76	96	6
NMTAP	76	144	1
NMTAP	76	192	2
NMTAP	76	192	3
NMTAP	76	240	4
NMTAP	76	264	3
NMTAP	76	288	4
NMTAP	76	336	1
NMTAP	76	336	5
EXSTR	77	0	0
NMSI_	77	0	0	96	48	4
EXTAP	77	24	1
EXTAP	77	24	7
EXTAP	77	48	2
EXSTR	77	48	6
NMSI_	77	48	6	96	48	3
BRTAP	77	96	0
BRTAP	77	144	6
NMTAP	77	192	1
NMTAP	77	240	1
BRTAP	77	288	3
BRTAP	77	288	7
BRTAP	78	0	1
BRTAP	78	0	5
BRSTR	78	48	2
NMSI_	78	48	2	96	48	7
BRSTR	78	48	6
NMSI_	78	48	6	96	48	3
BRTAP	78	96	2
BRTAP	78	96	6
BRTAP	78	144	2
BRTAP	78	144	6
BRTAP	78	240	4
BRTAP	78	240	5
BRTAP	78	288	3
BRTAP	78	288	6
BRTAP	78	336	0
BRTAP	78	336	1
BRTAP	79	48	2
BRTAP	79	48	3
BRTAP	79	96	1
BRTAP	79	96	4
BRHLD	79	144	6	96
BRTAP	79	144	7
BRTAP	79	240	3
BRTAP	79	288	0
BRSTR	79	288	1
NMSCR	79	288	1	96	48	4
BRSTR	80	0	1
NMSI_	80	0	1	96	48	5
NMTAP	80	48	5
NMTAP	80	72	5
NMTAP	80	96	1
NMTAP	80	144	6
NMTAP	80	168	6
NMSTR	80	192	1
BRSI_	80	192	1	96	48	4
NMSTR	80	240	0
BRSCL	80	240	0	96	48	5
NMTAP	80	288	1
NMTAP	80	336	0
NMHLD	81	56	2	40
BRHLD	81	56	3	40
NMHLD	81	128	0	40
BRHLD	81	128	1	40
NMHLD	81	192	6	40
BRHLD	81	192	7	40
NMHLD	81	264	4	40
BRHLD	81	264	5	40
BRTAP	81	336	3
NMTAP	81	336	6
NMTAP	82	48	2
NMTAP	82	72	3
NMTAP	82	96	1
NMTAP	82	120	4
NMTAP	82	144	0
NMTAP	82	168	5
NMTAP	82	192	7
NMTAP	82	216	6
NMTAP	82	240	0
NMTAP	82	264	5
NMTAP	82	288	7
NMTAP	82	312	6
BRTAP	82	336	0
BRTAP	82	336	5
NMTAP	83	48	4
NMTAP	83	72	3
NMTAP	83	96	5
NMTAP	83	120	2
NMTAP	83	144	6
NMTAP	83	168	1
NMTAP	83	192	7
NMTAP	83	216	0
NMTAP	83	240	6
NMTAP	83	264	1
NMTAP	83	288	7
NMTAP	83	312	0
BRSTR	83	336	1
NMSI_	83	336	1	96	48	4
BRTAP	83	336	6
BRTAP	84	48	0
CNSI_	84	96	4	0	48	2
BRTAP	84	96	7
CNSI_	84	144	2	0	48	7
BRSTR	84	144	6
NMSI_	84	144	6	96	48	3
BRTAP	84	240	0
BRTAP	84	288	1
CNSI_	84	288	3	0	48	5
BRSTR	84	336	2
NMSI_	84	336	2	96	48	7
CNSI_	84	336	5	0	48	1
BRTAP	85	48	3
BRTAP	85	96	4
CNSI_	85	96	7	0	48	1
CNSI_	85	144	1	0	48	4
BRHLD	85	144	5	96
BRTAP	85	240	7
BRTAP	85	288	0
BRTAP	85	288	6
NMHLD	86	0	2	32
NMHLD	86	0	7	32
NMHLD	86	64	2	32
NMHLD	86	64	7	32
NMHLD	86	128	3	32
NMHLD	86	128	6	32
NMHLD	86	192	2	32
NMHLD	86	192	5	32
NMHLD	86	256	1	32
NMHLD	86	256	4	32
NMHLD	86	320	2	32
NMHLD	86	320	5	32
NMTAP	87	0	3
NMTAP	87	16	4
NMTAP	87	32	3
NMTAP	87	48	4
NMTAP	87	64	3
NMTAP	87	80	4
NMTAP	87	96	3
NMTAP	87	112	4
NMTAP	87	128	3
NMTAP	87	144	4
NMTAP	87	160	3
NMTAP	87	176	4
BRSTR	87	192	3
NMSUR	87	192	3	96	480	4
NMHLD	90	0	5	576
NMHLD	91	0	3	192
NMTAP	91	288	3
NMTAP	91	288	4
NMTAP	92	0	2
NMSTR	92	0	3
NMSI_	92	0	3	96	96	5
NMSTR	92	192	1
NMSI_	92	192	1	96	96	7
NMSTR	93	0	3
NMSCR	93	0	3	96	96	5
NMSTR	93	192	1
NMSCL	93	192	1	96	96	7
NMHLD	94	0	3	576
NMTTP	94	96	0	E	0	M1
NMTTP	94	192	0	C	0	M1
NMTTP	94	288	4	E	0	M1
NMTTP	95	0	5	E	0	M1
NMTTP	95	96	6	E	0	M1
NMTTP	95	192	7	B	0	M1
NMTTP	95	192	7	E	0	M1
NMHLD	96	0	2	72
NMHLD	96	72	3	72
NMHLD	96	144	1	144
NMTTP	96	192	3	E	0	M1
NMTTP	96	240	4	E	0	M1
NMTTP	96	288	5	E	0	M1
NMHLD	97	0	5	72
NMHLD	97	72	4	72
NMHLD	97	144	6	144
NMTTP	97	192	5	E	0	M1
NMTTP	97	240	4	E	0	M1
NMTTP	97	288	3	E	0	M1
NMHLD	98	0	2	72
NMHLD	98	72	3	72
NMHLD	98	144	1	144
NMTTP	98	192	3	E	0	M1
NMTTP	98	240	4	E	0	M1
NMTTP	98	288	5	E	0	M1
EXTAP	99	0	2
EXTAP	99	0	4
EXTAP	99	48	0
EXTAP	99	48	6
EXTAP	99	96	3
EXTAP	99	96	5
EXTAP	99	144	0
EXTAP	99	144	7
EXTAP	99	192	3
EXTAP	99	192	4
NMTTP	99	240	0	C	1	M1
NMTTP	99	240	2	E	0	M1
NMTTP	99	240	6	E	0	M1
BRTAP	99	336	0
BRTAP	99	336	7
NMSTR	100	48	6
NMSI_	100	48	6	96	48	3
NMTAP	100	96	7
NMTAP	100	144	6
NMSTR	100	192	1
NMSI_	100	192	1	96	48	4
NMTAP	100	240	0
NMTAP	100	288	1
NMTAP	101	0	5
NMTAP	101	32	5
NMTAP	101	64	5
NMTAP	101	96	4
NMTAP	101	128	4
NMTAP	101	160	4
NMTAP	101	192	3
BRTAP	101	288	2
BRTAP	101	288	4
NMTAP	102	0	1
NMTAP	102	0	2
NMTAP	102	48	1
NMTAP	102	48	2
NMTAP	102	96	0
NMTAP	102	120	7
NMTAP	102	144	0
NMTAP	102	192	5
NMTAP	102	192	6
NMSTR	102	240	5
NMSI_	102	240	5	96	48	2
NMSTR	102	240	6
NMSI_	102	240	6	96	48	1
NMTTP	102	336	0	C	1	M1
NMTTP	102	336	2	E	0	M1
NMTTP	102	336	6	E	0	M1
EXTAP	103	48	0
EXTAP	103	96	0
EXTAP	103	144	1
EXHLD	103	144	7	96
NMTAP	103	240	0
NMTAP	103	264	6
NMTAP	103	288	1
NMTAP	103	312	5
NMTAP	103	336	2
NMTAP	103	360	4
NMSTR	104	0	3
BRSF_	104	0	3	96	48	7
BRTAP	104	96	3
NMTAP	104	192	1
NMTAP	104	192	5
NMTAP	104	216	2
NMTAP	104	240	3
NMTAP	104	264	4
NMTAP	104	288	7
NMTAP	104	312	6
NMTAP	104	336	5
NMTAP	104	360	4
NMTAP	105	0	2
NMTAP	105	0	3
NMTAP	105	48	1
NMTAP	105	48	4
NMTAP	105	96	6
NMTAP	105	120	7
NMTAP	105	144	6
NMTAP	105	192	0
NMTAP	105	192	5
NMTAP	105	240	1
NMTAP	105	264	0
NMTAP	105	288	2
NMTAP	105	336	3
NMTAP	105	336	7
NMTAP	106	0	4
NMTAP	106	24	6
NMTAP	106	48	4
NMTAP	106	72	6
NMTAP	106	96	4
NMTAP	106	120	3
NMTAP	106	144	2
NMTAP	106	168	1
NMTAP	106	192	7
NMTAP	106	216	6
NMTAP	106	240	5
NMTAP	106	264	4
NMTAP	106	288	0
NMTAP	106	336	0
BRTAP	107	0	1
BRTAP	107	24	7
BRSTR	107	48	1
NMSI_	107	48	1	96	48	4
BRTAP	107	72	7
BRTAP	107	96	1
BRTAP	107	120	7
EXTAP	107	144	1
EXSTR	107	144	6
NMSI_	107	144	6	96	48	2
NMTAP	107	240	0
NMTAP	107	240	6
BRTAP	107	336	1
BRTAP	107	336	7
BRTAP	108	0	2
BRTAP	108	0	6
NMTAP	108	96	7
NMTAP	108	144	0
NMTAP	108	144	6
NMTAP	108	192	1
NMTAP	108	192	5
NMTAP	108	240	2
NMTAP	108	264	4
NMTAP	108	288	0
NMTAP	108	336	5
NMTAP	108	360	3
BRSTR	109	0	7
BRSCR	109	0	7	96	48	1
NMTAP	109	48	1
NMTAP	109	72	2
NMTAP	109	96	3
BRSTR	109	96	7
BRSI_	109	96	7	96	48	5
NMTAP	109	144	2
NMTAP	109	168	3
NMTAP	109	192	4
BRSTR	109	192	7
BRSI_	109	192	7	96	48	3
NMTAP	109	240	1
NMTAP	109	264	2
NMTAP	109	288	3
BRTAP	109	288	7
NMTTP	109	289	0	C	1	M1
BRTAP	110	0	0
BRTAP	110	0	6
NMTAP	110	96	6
NMTAP	110	120	7
NMHLD	110	144	5	48
NMTAP	110	192	2
NMTAP	110	216	3
NMTAP	110	240	1
NMTAP	110	264	4
NMTAP	110	288	2
NMTAP	110	312	3
NMTAP	110	336	1
NMTAP	110	360	4
NMHLD	111	0	2	96
NMTAP	111	96	0
NMTAP	111	112	7
NMTAP	111	128	6
NMHLD	111	144	5	144
NMTAP	111	240	4
NMTAP	111	256	3
NMTAP	111	272	2
BRSTR	111	288	1
NMSUR	111	288	1	96	144	4
NMTTP	112	0	0	C	1	M1
NMTAP	112	192	6
NMTAP	112	216	7
NMTAP	112	240	5
NMTAP	112	264	0
NMTAP	112	288	4
NMTAP	112	312	1
NMTAP	112	336	3
NMTAP	112	360	2
NMTHO	113	0	0	192	C	0	M1
EXTAP	113	192	0
EXTAP	113	240	0
EXTAP	113	288	1
EXTAP	113	288	7
BRTAP	114	0	0
BRTAP	114	0	5
NMTAP	114	48	0
NMTAP	114	48	5
NMTAP	114	96	6
NMTAP	114	96	7
NMTAP	114	144	0
NMTAP	114	144	1
NMTAP	114	192	2
NMTAP	114	192	6
BRTAP	114	240	5
BRTAP	114	264	3
BRTAP	114	288	7
NMTAP	114	336	0
NMTAP	114	336	6
BRTAP	115	0	2
BRTAP	115	0	4
NMTAP	115	48	2
NMTAP	115	48	4
NMTAP	115	96	0
NMTAP	115	96	1
NMTAP	115	144	6
NMTAP	115	144	7
NMTAP	115	192	1
NMTAP	115	192	5
BRTAP	115	240	2
BRTAP	115	264	4
BRTAP	115	288	0
NMTAP	115	336	2
NMTAP	115	336	7
BRTAP	116	0	0
BRTAP	116	0	1
NMTAP	116	48	0
NMTAP	116	48	1
NMTAP	116	64	2
NMTAP	116	64	7
NMTAP	116	80	3
NMTAP	116	80	6
NMTAP	116	96	4
NMTAP	116	96	5
NMTAP	116	144	2
NMTAP	116	144	6
NMTAP	116	192	1
NMTAP	116	224	1
NMTAP	116	256	0
NMSTR	116	288	2
BRSI_	116	288	2	96	48	5
NMSTR	116	288	7
BRSI_	116	288	7	96	48	4
BRSTR	117	0	2
BRSCL	117	0	2	96	576	2
BRSTR	117	0	7
BRSCR	117	0	7	96	576	7
BXTAP	119	96	0
BXTAP	119	112	7
BXTAP	119	128	0
BXTAP	119	144	7
BXTAP	119	160	0
BXTAP	119	176	7
BXTAP	119	192	0
BXTAP	119	208	7
BXTAP	119	224	0
BXTAP	119	240	7
BXTAP	119	256	0
BXTAP	119	272	7
BXTAP	119	288	0
BXTAP	119	304	7
BXTAP	119	320	0
BXTAP	119	336	7
BXTAP	119	352	0
BXTAP	119	368	7
BXTAP	120	0	0
BXTAP	120	16	1
BXTAP	120	32	2
BXTAP	120	48	0
BXTAP	120	48	3
BXTAP	120	64	1
BXTAP	120	80	2
BXTAP	120	96	0
BXTAP	120	96	3
BXTAP	120	112	1
BXTAP	120	128	2
BXTAP	120	144	0
BXTAP	120	144	3
BXTAP	120	160	1
BXTAP	120	176	2
BXTAP	120	192	0
BXTAP	120	192	3
BXTAP	120	208	1
BXTAP	120	224	2
BXTAP	120	240	0
BXTAP	120	240	3
BXTAP	120	256	1
BXTAP	120	272	2
BXSTR	120	288	0
BRSI_	120	288	0	96	48	4
BXTAP	120	288	3
BXTAP	120	304	1
BXTAP	120	320	2
BXTAP	120	336	0
BXTAP	120	336	3
BXTAP	120	352	1
BXTAP	120	368	2
BXSTR	121	0	0
NMTTP	121	0	0	B	0	M1
NMTTP	121	0	0	C	1	M1
NMSCR	121	0	0	96	96	1
BXTAP	121	0	3
NMTTP	121	0	4	B	0	M1
CNSCR	121	192	1	0	96	2
CNSCR	121	288	2	0	96	3
CNSCR	122	0	3	0	96	4
CNSCR	122	96	4	0	96	5
CNSCR	122	192	5	0	96	6
CNSCR	122	288	6	0	96	7
CNSCR	123	0	7	0	576	0
BRTAP	125	0	0

T_REC_TAP	531
T_REC_BRK	119
T_REC_XTP	49
T_REC_BXX	95
T_REC_HLD	57
T_REC_XHO	2
T_REC_BHO	11
T_REC_BXH	21
T_REC_STR	42
T_REC_BST	25
T_REC_XST	5
T_REC_XBS	6
T_REC_TTP	64
T_REC_THO	4
T_REC_SLD	57
T_REC_BSL	23
T_REC_ALL	1111
T_NUM_TAP	691
T_NUM_BRK	300
T_NUM_HLD	63
T_NUM_SLD	57
T_NUM_ALL	1111
T_JUDGE_TAP	936
T_JUDGE_HLD	236
T_JUDGE_SLD	80
T_JUDGE_ALL	1252
TTM_EACHPAIRS	232
TTM_SCR_TAP	345500
TTM_SCR_BRK	780000
TTM_SCR_HLD	63000
TTM_SCR_SLD	85500
TTM_SCR_ALL	1274000
TTM_SCR_S	1206700
TTM_SCR_SS	1244000
TTM_RAT_ACV	10241

