VERSION	0.00.00	1.05.00
FES_MODE	0
BPM_DEF	202.000	202.000	202.000	202.000
MET_DEF	4	4
RESOLUTION	384
CLK_DEF	384
COMPATIBLE_CODE	MA2

BPM	0	0	202.000
MET	0	0	4	4

NMTAP	2	0	0
BRTAP	2	0	2
NMHLD	2	48	0	240
BRHLD	2	48	2	240
NMTAP	3	0	3
BRTAP	3	0	5
NMHLD	3	48	3	240
BRHLD	3	48	5	240
BRTAP	4	0	0
NMTAP	4	0	6
BRHLD	4	48	0	240
NMHLD	4	48	6	240
NMTAP	5	0	2
NMHLD	5	0	3	96
NMTAP	5	96	1
NMHLD	5	192	4	96
NMTAP	5	192	5
NMTAP	5	288	6
NMTAP	6	0	5
NMSTR	6	48	5
NMSI_	6	48	5	96	144	1
NMSCR	6	48	5	96	144	0
NMTAP	7	0	2
NMSTR	7	48	2
NMSI_	7	48	2	96	144	6
NMSCL	7	48	2	96	144	7
NMHLD	8	0	5	72
NMHLD	8	72	4	72
NMTAP	8	144	3
NMHLD	8	192	3	72
NMHLD	8	264	2	72
NMTAP	8	336	1
NMSTR	9	0	1
NMSCL	9	0	1	96	192	4
NMSUL	9	0	1	96	192	4
NMHLD	10	0	6	528
NMTAP	10	96	4
NMTAP	10	144	4
NMTAP	10	240	2
NMTAP	10	288	2
NMTAP	11	0	5
NMTAP	11	48	5
NMTAP	11	144	0
NMTAP	11	192	0
NMTAP	11	288	1
NMTAP	11	288	5
NMHLD	12	0	2	240
NMTAP	12	96	4
NMTAP	12	144	4
NMTAP	12	240	7
NMTAP	12	288	7
EXTAP	13	0	0
EXTAP	13	0	1
EXTAP	13	72	0
EXTAP	13	72	1
EXTAP	13	144	0
EXTAP	13	144	1
BRTAP	13	192	2
BRTAP	13	192	7
NMSTR	14	0	1
NMSLR	14	0	1	96	288	0
NMSTR	14	0	6
NMSLL	14	0	6	96	288	7
NMHLD	15	192	0	96
NMHLD	15	192	7	96
NMTAP	16	0	1
NMTAP	16	0	7
NMTAP	16	96	1
NMTAP	16	96	7
NMTAP	16	192	0
NMTAP	16	192	1
NMTAP	16	288	1
NMTAP	16	288	2
NMTAP	17	0	1
NMTAP	17	0	3
NMTAP	17	96	2
NMTAP	17	144	3
NMTAP	17	192	4
NMTAP	17	288	1
NMTAP	17	288	5
NMTAP	18	0	0
NMTAP	18	0	6
NMTAP	18	96	0
NMTAP	18	96	6
NMTAP	18	192	6
NMTAP	18	192	7
NMTAP	18	288	5
NMTAP	18	288	6
NMTAP	19	0	4
NMTAP	19	0	6
NMTAP	19	96	5
NMTAP	19	144	4
NMTAP	19	192	3
NMTAP	19	288	2
NMTAP	19	288	6
NMTAP	20	0	1
NMTAP	20	48	1
NMTAP	20	96	0
NMTAP	20	192	6
NMTAP	20	240	6
NMTAP	20	288	7
NMTAP	21	0	1
NMTAP	21	48	1
NMTAP	21	96	3
NMTAP	21	144	3
NMTAP	21	192	5
NMTAP	21	240	5
NMTAP	21	288	7
NMTAP	22	0	0
NMTAP	22	0	6
NMTAP	22	48	1
NMTAP	22	96	2
NMTAP	22	96	3
NMTAP	22	192	1
NMTAP	22	192	7
NMTAP	22	240	6
NMTAP	22	288	4
NMTAP	22	288	5
NMTAP	23	0	2
NMTAP	23	48	3
NMTAP	23	96	4
NMTAP	23	144	5
BRTAP	23	192	1
BRTAP	23	192	6
BXSTR	24	0	0
NMSI_	24	0	0	96	48	4
BXSTR	24	0	1
NMSI_	24	0	1	96	48	3
NMTAP	24	192	5
NMTAP	24	288	4
NMTAP	24	288	5
BRSTR	25	0	6
NMSI_	25	0	6	96	48	4
BRSTR	25	0	7
NMSI_	25	0	7	96	48	3
NMTAP	25	192	2
NMTAP	25	288	2
NMTAP	25	288	3
NMTAP	26	0	0
NMTAP	26	0	1
NMTAP	26	96	2
NMTAP	26	96	7
NMTAP	26	192	6
NMTAP	26	192	7
NMTAP	26	288	0
NMTAP	26	288	5
NMTAP	27	0	2
NMTAP	27	24	3
NMTAP	27	48	2
NMTAP	27	96	1
NMTAP	27	96	4
NMTAP	27	192	5
NMTAP	27	216	4
NMTAP	27	240	5
NMTAP	27	288	3
NMTAP	27	288	6
BRSTR	28	0	4
NMSI_	28	0	4	96	48	0
BRSTR	28	0	5
NMSI_	28	0	5	96	48	0
NMTAP	28	192	1
NMTAP	28	288	0
NMTAP	28	288	2
BRSTR	29	0	2
NMSI_	29	0	2	96	48	7
BRSTR	29	0	3
NMSI_	29	0	3	96	48	7
NMTAP	29	192	6
NMTAP	29	288	5
NMTAP	29	288	7
NMTAP	30	0	3
NMTAP	30	0	4
NMTAP	30	96	2
NMTAP	30	96	7
EXTAP	30	192	1
EXTAP	30	224	0
EXTAP	30	256	1
EXTAP	30	288	0
EXTAP	30	320	1
EXTAP	30	352	0
EXTAP	31	0	1
NMTAP	31	96	2
NMTAP	31	96	6
BRTAP	31	144	2
BRTAP	31	144	6
NMHLD	32	0	5	96
NMTAP	32	96	4
NMHLD	32	144	4	96
NMTAP	32	240	6
NMHLD	32	288	6	96
NMTAP	33	0	5
NMHLD	33	48	5	96
NMTAP	33	144	7
NMTAP	33	192	7
NMTAP	33	288	0
NMTAP	33	288	6
NMHLD	34	0	2	96
NMTAP	34	96	3
NMHLD	34	144	3	96
NMTAP	34	240	1
NMHLD	34	288	1	96
NMTAP	35	0	2
NMHLD	35	48	2	96
NMTAP	35	144	0
NMSTR	35	192	0
NMSUR	35	192	0	96	48	4
NMTAP	35	288	6
EXTAP	36	0	5
EXTAP	36	64	5
EXTAP	36	96	4
EXTAP	36	192	2
EXTAP	36	256	2
EXTAP	36	288	3
NMTAP	37	0	6
NMTAP	37	64	6
NMTAP	37	96	4
NMTAP	37	160	4
NMTAP	37	192	3
NMTAP	37	256	3
NMTAP	37	288	1
EXHLD	38	48	0	96
EXHLD	38	48	7	96
NMTAP	38	192	0
NMTAP	38	192	7
NMTAP	38	240	0
NMTAP	38	240	7
NMSTR	38	336	1
NMSUR	38	336	1	96	240	4
NMSTR	38	336	6
NMSUL	38	336	6	96	240	3
BRTAP	40	0	1
BRTAP	40	0	6
NMTTP	41	192	5	E	0	M1
NMTTP	41	240	4	B	0	M1
NMTTP	41	288	3	B	0	M1
NMTTP	41	336	3	E	0	M1
NMTTP	42	192	5	B	0	M1
NMTTP	42	240	4	B	0	M1
NMTTP	42	288	3	B	0	M1
NMTTP	42	336	2	B	0	M1
NMTHO	43	48	0	336	C	0	M1
NMTTP	44	192	7	E	0	M1
NMTTP	44	240	7	B	0	M1
NMTTP	44	288	0	B	0	M1
NMTTP	44	336	1	E	0	M1
NMTTP	45	192	5	E	0	M1
NMTTP	45	240	4	B	0	M1
NMTTP	45	288	3	B	0	M1
NMTTP	45	336	3	E	0	M1
NMTTP	46	192	5	E	0	M1
NMTTP	46	240	4	E	0	M1
NMTTP	46	288	3	E	0	M1
NMTTP	46	336	0	C	1	M1
NMTAP	47	192	0
NMTAP	47	192	7
NMTAP	47	288	0
NMTAP	47	288	7
NMSTR	48	0	7
NMSCL	48	0	7	96	192	2
EXTAP	48	288	0
EXSTR	48	336	0
NMSCR	48	336	0	96	240	6
EXTAP	49	288	0
EXSTR	49	336	0
NMSLL	49	336	0	96	144	4
CNSI_	50	192	4	0	96	2
EXTAP	50	288	1
EXTAP	50	336	1
NMTAP	51	48	0
NMTAP	51	48	7
NMTAP	51	144	4
NMTAP	51	144	6
NMTAP	51	192	4
NMTAP	51	192	6
NMTAP	51	288	1
NMTAP	51	288	3
BRHLD	52	0	6	96
BRHLD	52	0	7	96
NMTAP	52	192	0
NMTAP	52	192	5
NMTAP	52	240	1
NMTAP	52	240	4
NMTAP	52	288	2
NMTAP	52	288	3
NMTAP	52	336	2
NMTAP	52	336	3
NMTAP	53	48	0
NMTAP	53	48	1
NMTAP	53	144	6
NMTAP	53	144	7
NMTAP	53	192	5
NMTAP	53	240	5
NMTAP	53	288	4
NMTAP	53	336	4
NMSTR	54	0	6
NMSI_	54	0	6	96	96	2
NMTAP	54	240	0
NMTAP	54	288	0
NMTAP	54	336	1
NMTAP	54	336	7
NMTAP	55	48	0
NMTAP	55	48	6
NMTAP	55	96	0
NMTAP	55	96	6
NMTAP	55	144	1
NMTAP	55	144	5
NMTAP	55	192	1
NMTAP	55	192	5
NMTAP	55	240	2
NMTAP	55	240	4
BRTAP	55	288	2
BRTAP	55	288	4
EXHLD	56	0	7	576
NMSTR	58	0	4
NMSCR	58	0	4	96	192	7
NMSTR	59	0	3
NMSCL	59	0	3	96	192	0
NMTAP	60	0	6
NMTAP	60	0	7
NMTAP	60	96	6
NMTAP	60	96	7
NMTAP	60	192	5
NMTAP	60	192	6
NMTAP	60	288	5
NMTAP	60	288	6
NMTAP	61	0	4
NMTAP	61	0	5
NMTAP	61	96	4
NMTAP	61	96	5
NMTAP	61	192	3
NMTAP	61	192	4
NMTAP	61	288	3
NMTAP	61	288	4
NMTAP	62	0	2
NMTAP	62	0	3
NMTAP	62	96	2
NMTAP	62	96	3
NMTAP	62	192	1
NMTAP	62	192	2
NMTAP	62	288	1
NMTAP	62	288	2
NMTAP	63	0	0
NMTAP	63	0	1
NMTAP	63	96	0
NMTAP	63	96	1
BRTAP	63	192	0
BRTAP	63	192	7
NMTAP	64	0	1
NMTAP	64	0	3
NMTAP	64	48	1
NMTAP	64	48	3
NMTAP	64	96	1
NMTAP	64	96	3
NMTAP	64	144	1
NMTAP	64	144	3
NMTAP	64	240	4
NMTAP	64	240	5
NMTAP	64	288	4
NMTAP	64	288	5
NMTAP	64	336	4
NMTAP	64	336	5
NMTAP	65	48	6
NMTAP	65	48	7
NMTAP	65	96	6
NMTAP	65	96	7
NMTAP	65	144	6
NMTAP	65	144	7
NMTAP	65	240	0
NMTAP	65	240	5
NMTAP	65	288	0
NMTAP	65	288	5
NMTAP	66	0	4
NMTAP	66	0	6
NMTAP	66	48	4
NMTAP	66	48	6
NMTAP	66	96	4
NMTAP	66	96	6
NMTAP	66	144	4
NMTAP	66	144	6
NMTAP	66	240	3
NMTAP	66	240	4
NMTAP	66	288	3
NMTAP	66	288	4
NMHLD	66	336	3	144
NMHLD	66	336	4	144
NMTAP	67	192	2
NMTAP	67	192	3
NMTAP	67	288	0
NMTAP	67	288	1
NMSTR	68	0	0
NMSCR	68	0	0	96	480	7
NMSTR	68	0	7
NMSCL	68	0	7	96	480	0
NMTAP	70	0	0
NMTAP	70	0	1
NMTAP	70	48	0
NMTAP	70	48	1
NMTAP	70	96	2
NMTAP	70	96	7
EXTAP	70	144	3
EXTAP	70	144	6
NMTAP	70	240	6
NMTAP	70	240	7
NMTAP	70	288	6
NMTAP	70	288	7
EXTAP	70	336	0
EXTAP	70	336	5
NMTAP	71	48	2
NMTAP	71	48	3
NMTAP	71	96	2
NMTAP	71	96	3
EXTAP	71	144	1
EXTAP	71	144	4
NMTAP	71	240	0
NMTAP	71	240	7
BRTAP	71	288	1
BRTAP	71	288	6
NMTAP	72	0	0
NMTAP	72	0	7
NMTAP	72	48	2
NMTAP	72	72	3
NMTAP	72	96	1
NMTAP	72	144	5
NMTAP	72	168	4
NMTAP	72	192	6
NMTAP	72	240	2
NMTAP	72	264	3
NMTAP	72	288	1
EXTAP	72	336	0
EXTAP	72	336	4
NMTAP	73	48	5
NMTAP	73	48	7
NMTAP	73	96	5
NMSTR	73	96	7
BRSF_	73	96	7	96	48	3
NMHLD	73	336	6	96
NMTAP	74	48	7
NMTAP	74	96	7
NMTAP	74	144	6
NMTAP	74	192	0
NMSTR	74	192	5
NMSCL	74	192	5	96	48	2
NMHLD	74	336	1	96
NMTAP	75	48	0
NMTAP	75	96	0
NMTAP	75	144	1
NMTAP	75	192	2
NMTAP	75	192	7
NMTAP	75	288	0
NMTAP	75	288	5
NMTAP	75	336	0
NMTAP	75	336	5
NMTAP	76	48	6
NMTAP	76	96	6
NMTAP	76	144	4
NMTAP	76	192	4
NMTAP	76	240	3
NMTAP	76	288	3
NMTAP	76	336	1
NMTAP	77	0	1
NMTAP	77	48	6
NMTAP	77	96	6
NMTAP	77	192	0
NMTAP	77	216	7
NMTAP	77	240	0
NMTAP	77	264	7
NMTAP	77	288	0
NMTAP	78	0	6
NMTAP	78	0	7
NMTAP	78	48	6
NMTAP	78	48	7
NMTAP	78	96	0
NMTAP	78	96	5
NMTAP	78	144	1
NMTAP	78	144	4
NMTAP	78	240	0
NMTAP	78	240	1
NMTAP	78	288	0
NMTAP	78	288	1
NMTAP	78	336	2
NMTAP	78	336	7
NMTAP	79	48	4
NMTAP	79	48	5
NMTAP	79	96	4
NMTAP	79	96	5
NMTAP	79	144	3
NMTAP	79	144	6
NMTAP	79	240	0
NMTAP	79	240	7
BRTAP	79	288	1
BRTAP	79	288	6
NMTAP	80	0	0
NMTAP	80	0	7
NMTAP	80	48	5
NMTAP	80	72	4
NMTAP	80	96	6
NMTAP	80	144	2
NMTAP	80	168	3
NMTAP	80	192	1
NMTAP	80	240	5
NMTAP	80	264	4
NMTAP	80	288	6
EXTAP	80	336	3
EXTAP	80	336	7
BXTAP	81	48	0
BXTAP	81	48	1
BXTAP	81	120	3
BXTAP	81	120	5
BXTAP	81	192	6
BXTAP	81	192	7
BXTAP	81	264	2
BXTAP	81	264	4
BXTAP	81	336	0
BXTAP	81	336	7
NMTAP	82	96	0
NMHLD	82	96	1	96
NMTAP	82	192	3
NMTAP	82	288	2
NMTAP	82	288	4
NMTAP	82	336	2
NMTAP	82	336	4
NMTAP	83	96	4
NMHLD	83	96	5	96
NMTAP	83	192	7
NMTAP	83	288	0
NMTAP	83	288	6
NMTAP	83	336	0
NMTAP	83	336	6
NMSTR	84	48	5
NMSI_	84	48	5	96	48	0
NMSI_	84	48	5	96	48	7
NMTAP	84	96	5
NMSTR	84	240	1
NMSI_	84	240	1	96	48	3
NMSI_	84	240	1	96	48	4
NMTAP	84	288	1
NMSTR	85	48	6
NMSI_	85	48	6	96	48	1
NMSI_	85	48	6	96	48	3
NMTAP	85	96	6
EXTAP	85	240	0
EXTAP	85	240	4
EXTAP	85	288	0
EXTAP	85	288	4
NMHLD	86	0	1	64
NMHLD	86	64	3	64
NMHLD	86	128	4	64
NMHLD	86	192	6	64
NMHLD	86	256	0	64
NMHLD	86	320	2	64
BRHLD	87	0	4	192
NMTTP	87	192	0	C	1	M1
NMTTP	87	192	3	B	0	M1
NMTTP	87	192	3	E	0	M1
NMTTP	87	192	4	E	0	M1
EXSTR	88	0	6
NMSLL	88	0	6	96	288	7
CNSI_	89	0	7	0	192	3
CNSI_	89	192	3	0	192	0
CNSI_	90	0	0	0	384	2
NMSTR	92	0	3
NMSLR	92	0	3	96	288	2
CNSI_	93	0	2	0	192	6
CNSI_	93	192	6	0	192	1
CNSI_	94	0	1	0	384	7
NMTAP	95	192	3
NMTAP	95	192	4
EXHLD	96	0	2	96
EXHLD	96	0	3	96
NMTAP	96	192	2
NMTAP	96	240	2
NMTAP	96	288	3
EXHLD	97	0	4	96
EXHLD	97	0	5	96
NMTAP	97	192	5
NMTAP	97	240	5
NMTAP	97	288	4
EXHLD	98	0	3	96
EXHLD	98	0	4	96
NMTAP	98	192	3
NMTAP	98	240	3
NMTAP	98	288	4
NMTAP	99	0	3
NMTAP	99	0	4
NMTAP	99	48	3
NMTAP	99	48	4
NMTAP	99	96	2
NMTAP	99	96	5
NMTAP	99	144	2
NMTAP	99	144	5
NMTAP	99	192	1
NMTAP	99	192	6
NMSTR	99	240	1
NMSI_	99	240	1	96	48	4
NMSTR	99	240	6
NMSI_	99	240	6	96	48	3
NMTAP	100	96	1
NMTAP	100	96	3
NMTAP	100	192	4
NMTAP	100	192	6
NMTAP	100	288	0
NMTAP	100	288	7
EXTAP	101	0	0
EXTAP	101	32	0
EXTAP	101	64	0
EXTAP	101	96	7
EXTAP	101	128	7
EXTAP	101	160	7
EXSTR	101	192	1
NMSI_	101	192	1	96	48	5
NMTAP	102	0	6
NMHLD	102	48	6	144
NMTAP	102	192	4
NMTAP	102	240	4
NMTAP	102	336	3
NMTAP	102	336	5
NMTAP	103	48	3
NMTAP	103	48	5
NMTAP	103	96	2
NMTAP	103	96	6
BRHLD	103	144	1	144
BRHLD	103	144	7	144
NMSTR	104	0	0
NMSF_	104	0	0	96	48	4
NMSTR	104	192	1
NMSI_	104	192	1	96	48	3
NMTAP	104	240	1
NMSTR	104	288	7
NMSI_	104	288	7	96	48	5
NMTAP	104	336	7
NMSTR	105	0	0
NMSI_	105	0	0	96	48	4
NMTAP	105	48	0
NMTAP	105	96	6
NMTAP	105	192	3
NMTAP	105	192	5
NMTAP	105	288	0
NMTAP	105	288	1
NMSTR	106	0	7
NMSI_	106	0	7	96	48	3
NMTAP	106	48	7
NMSTR	106	96	1
NMSI_	106	96	1	96	48	4
NMTAP	106	144	1
NMSTR	106	192	6
NMSI_	106	192	6	96	48	3
NMTAP	106	240	6
NMSTR	106	288	0
NMSI_	106	288	0	96	48	4
NMTAP	106	336	0
NMTAP	107	0	5
NMTAP	107	96	3
NMTAP	107	96	6
NMTAP	107	144	3
NMTAP	107	144	6
NMTAP	107	240	4
NMTAP	107	240	5
NMTAP	107	336	6
NMTAP	107	336	7
NMSTR	108	0	6
NMSI_	108	0	6	96	48	3
NMSTR	108	0	7
NMSI_	108	0	7	96	48	3
NMSTR	108	192	0
NMSI_	108	192	0	96	48	4
NMSTR	108	192	1
NMSI_	108	192	1	96	48	4
NMTAP	109	0	5
NMTAP	109	48	5
NMTAP	109	96	7
NMTAP	109	144	7
NMTAP	109	192	0
NMTAP	109	240	0
NMTAP	109	288	2
NMSTR	110	0	0
NMSI_	110	0	0	96	48	4
NMSTR	110	0	1
NMSI_	110	0	1	96	48	4
NMTAP	110	48	0
NMTAP	110	48	1
NMSTR	110	192	6
NMSI_	110	192	6	96	48	3
NMSTR	110	192	7
NMSI_	110	192	7	96	48	3
NMTAP	110	240	6
NMTAP	110	240	7
NMTAP	111	0	0
NMTAP	111	0	1
NMSTR	111	96	3
BRSCL	111	96	3	96	48	0
NMSTR	111	96	7
BRSCL	111	96	7	96	48	4
NMTAP	111	144	3
NMTAP	111	144	7
NMSTR	112	0	1
NMSI_	112	0	1	96	48	4
NMSTR	112	0	5
NMSI_	112	0	5	96	48	0
NMSTR	112	192	2
NMSI_	112	192	2	96	48	7
NMSTR	112	192	6
NMSI_	112	192	6	96	48	3
NMHLD	113	0	0	192
EXTAP	113	144	7
EXTAP	113	192	7
NMTAP	113	288	1
NMTAP	113	288	6
NMTAP	114	0	0
NMTAP	114	48	0
NMTAP	114	96	7
NMTAP	114	144	7
NMTAP	114	192	1
NMTAP	114	216	2
NMTAP	114	240	3
NMTAP	114	264	4
NMTAP	114	288	5
NMTAP	115	0	7
NMTAP	115	48	7
NMTAP	115	96	0
NMTAP	115	144	0
NMTAP	115	192	6
NMTAP	115	216	5
NMTAP	115	240	4
NMTAP	115	264	3
NMTAP	115	288	2
NMTAP	116	0	0
NMTAP	116	48	0
NMTAP	116	96	7
NMTAP	116	144	7
NMTAP	116	192	1
NMTAP	116	240	1
NMTAP	116	288	6
NMTAP	116	336	6
NMSTR	117	0	0
NMSXL	117	0	0	96	240	4
NMSXR	117	0	0	96	288	4
CNSCR	117	336	4	0	240	7
CNSCL	118	0	4	0	192	1
NMTAP	119	0	1
NMTAP	119	0	6
BXTAP	119	96	0
BXTAP	119	120	7
BXTAP	119	144	0
BXTAP	119	168	7
BXTAP	119	192	0
BXTAP	119	216	7
BXTAP	119	240	0
BXTAP	119	264	7
BXTAP	119	288	0
BXTAP	119	312	7
BXTAP	119	336	0
BXTAP	119	360	7
BXTAP	120	0	1
BXTAP	120	24	2
BXTAP	120	48	1
BXTAP	120	72	2
BXTAP	120	96	1
BXTAP	120	120	2
BXTAP	120	144	1
BXTAP	120	168	2
BXTAP	120	192	1
BXTAP	120	216	2
BXTAP	120	240	1
BXTAP	120	264	2
BXTAP	120	288	1
BXTAP	120	312	2
BXTAP	120	336	1
BXTAP	120	360	2
BXSTR	121	0	1
BRSCL	121	0	1	96	1344	2
NMTTP	125	0	0	C	0	M1

T_REC_TAP	459
T_REC_BRK	19
T_REC_XTP	45
T_REC_BXX	38
T_REC_HLD	35
T_REC_XHO	9
T_REC_BHO	8
T_REC_BXH	0
T_REC_STR	45
T_REC_BST	6
T_REC_XST	4
T_REC_XBS	3
T_REC_TTP	25
T_REC_THO	1
T_REC_SLD	61
T_REC_BSL	4
T_REC_ALL	762
T_NUM_TAP	578
T_NUM_BRK	78
T_NUM_HLD	45
T_NUM_SLD	61
T_NUM_ALL	762
T_JUDGE_TAP	644
T_JUDGE_HLD	160
T_JUDGE_SLD	65
T_JUDGE_ALL	869
TTM_EACHPAIRS	196
TTM_SCR_TAP	289000
TTM_SCR_BRK	202800
TTM_SCR_HLD	45000
TTM_SCR_SLD	91500
TTM_SCR_ALL	628300
TTM_SCR_S	601900
TTM_SCR_SS	620500
TTM_RAT_ACV	10125

