VERSION	0.00.00	1.05.00
FES_MODE	0
BPM_DEF	202.000	202.000	202.000	202.000
MET_DEF	4	4
RESOLUTION	384
CLK_DEF	384
COMPATIBLE_CODE	MA2

BPM	0	0	202.000
MET	0	0	4	4

NMHLD	2	0	2	192
NMHLD	2	192	3	192
NMHLD	3	0	4	192
NMTAP	3	192	5
NMHLD	4	0	5	192
NMHLD	4	192	4	192
NMHLD	5	0	3	192
NMTAP	5	192	2
NMHLD	6	0	1	192
NMHLD	6	192	2	192
NMHLD	7	0	3	192
NMTAP	7	192	4
NMHLD	8	0	6	192
NMHLD	8	192	5	192
NMHLD	9	0	4	192
NMTAP	9	192	3
NMTAP	10	0	4
NMTAP	10	96	4
NMTAP	10	192	5
NMTAP	11	0	6
NMTAP	11	96	6
NMTAP	11	192	7
NMTAP	12	0	0
NMTAP	12	96	0
NMTAP	12	192	1
NMTAP	13	0	2
NMTAP	13	96	2
NMTAP	13	192	2
NMTAP	13	192	3
NMHLD	14	0	3	576
NMHLD	14	0	4	576
NMTAP	16	0	2
NMTAP	16	96	2
NMTAP	16	192	2
NMTAP	16	192	3
NMTAP	17	0	1
NMTAP	17	96	1
NMTAP	17	192	0
NMTAP	17	192	1
NMTAP	18	0	7
NMTAP	18	96	7
NMTAP	18	192	6
NMTAP	18	192	7
NMTAP	19	0	4
NMTAP	19	0	5
NMTAP	19	96	4
NMTAP	19	96	5
NMTAP	19	192	4
NMTAP	19	192	5
NMTAP	20	0	5
NMTAP	20	96	5
NMTAP	20	192	4
NMTAP	20	192	5
NMTAP	21	0	6
NMTAP	21	96	6
NMTAP	21	192	6
NMTAP	21	192	7
NMTAP	22	0	0
NMTAP	22	96	0
NMTAP	22	192	0
NMTAP	22	192	1
NMTAP	23	0	2
NMTAP	23	0	3
NMTAP	23	96	2
NMTAP	23	96	3
NMTAP	23	192	2
NMTAP	23	192	3
NMTAP	24	0	2
NMTAP	24	96	2
NMTAP	24	192	1
NMTAP	24	288	1
NMTAP	25	0	0
NMTAP	25	96	0
NMTAP	25	192	6
NMTAP	25	192	7
NMTAP	26	0	5
NMTAP	26	96	5
NMTAP	26	192	6
NMTAP	26	288	6
NMTAP	27	0	7
NMTAP	27	96	7
NMTAP	27	192	0
NMTAP	27	192	1
NMTAP	28	0	1
NMTAP	28	96	1
NMTAP	28	192	2
NMTAP	28	288	2
NMTAP	29	0	3
NMTAP	29	96	3
NMTAP	29	192	4
NMTAP	29	192	5
NMTAP	30	0	6
NMTAP	30	96	6
NMTAP	30	192	5
NMTAP	30	288	5
NMTAP	31	0	4
NMTAP	31	96	4
NMTAP	31	192	2
NMTAP	31	192	3
NMTAP	32	0	4
NMTAP	32	96	5
NMTAP	32	192	6
NMTAP	32	288	7
NMTAP	33	0	0
NMTAP	33	96	1
NMTAP	33	192	2
NMTAP	33	192	3
NMTAP	34	0	3
NMTAP	34	96	2
NMTAP	34	192	1
NMTAP	34	288	0
NMTAP	35	0	7
NMTAP	35	96	6
NMTAP	35	192	4
NMTAP	35	192	5
NMTAP	36	0	4
NMTAP	36	96	5
NMTAP	36	192	6
NMTAP	36	288	7
NMTAP	37	0	0
NMTAP	37	96	1
NMTAP	37	192	2
NMTAP	37	288	3
NMTAP	38	0	4
NMTAP	38	96	5
NMTAP	38	192	6
NMTAP	38	288	7
NMTAP	39	0	0
NMTAP	39	0	7
NMTAP	39	96	0
NMTAP	39	96	7
NMTAP	39	192	1
NMTAP	39	192	6
NMHLD	40	0	6	384
NMTAP	41	0	7
NMTAP	41	192	6
NMTAP	41	192	7
NMHLD	42	0	5	384
NMTAP	43	0	4
NMTAP	43	192	4
NMTAP	43	192	5
NMHLD	44	0	2	384
NMTAP	45	0	3
NMTAP	45	192	2
NMTAP	45	192	3
NMHLD	46	0	1	384
NMTAP	47	0	0
NMTAP	47	192	0
NMTAP	47	192	1
NMTAP	48	0	2
NMTAP	48	96	2
NMTAP	48	192	2
NMTAP	49	0	1
NMTAP	49	96	1
NMTAP	49	192	1
NMTAP	50	0	0
NMTAP	50	96	0
NMTAP	50	192	0
NMTAP	51	0	6
NMTAP	51	0	7
NMTAP	51	192	6
NMTAP	51	192	7
NMTAP	52	0	5
NMTAP	52	96	5
NMTAP	52	192	5
NMTAP	53	0	6
NMTAP	53	96	6
NMTAP	53	192	6
NMTAP	54	0	7
NMTAP	54	96	7
NMTAP	54	192	7
NMTAP	55	0	0
NMTAP	55	0	1
NMTAP	55	192	0
NMTAP	55	192	1
NMSTR	56	0	1
NMSUR	56	0	1	96	480	4
NMSTR	58	0	6
NMSUL	58	0	6	96	480	3
NMSTR	60	0	2
NMSUL	60	0	2	96	480	7
NMSTR	62	0	6
NMSXL	62	0	6	96	480	3
NMTTP	64	0	2	B	0	L1
NMTTP	64	96	1	B	0	L1
NMTTP	64	192	0	B	0	L1
NMTTP	64	288	7	B	0	L1
NMTTP	65	0	6	B	0	L1
NMTTP	65	96	5	B	0	L1
NMTTP	65	192	3	B	0	L1
NMTTP	65	192	4	B	0	L1
NMTTP	66	0	6	E	0	L1
NMTTP	66	96	7	E	0	L1
NMTTP	66	192	0	E	0	L1
NMTTP	66	288	1	E	0	L1
NMTTP	67	0	2	E	0	L1
NMTTP	67	96	3	E	0	L1
NMTTP	67	192	4	E	0	L1
NMTTP	67	192	5	E	0	L1
NMTHO	68	0	0	384	C	1	L1
EXTAP	70	0	6
EXTAP	70	96	6
NMTAP	70	192	6
NMTAP	70	192	7
NMTAP	70	288	6
NMTAP	70	288	7
NMTAP	71	0	0
NMTAP	71	96	0
NMTAP	71	192	0
NMTAP	71	192	1
BRTAP	72	0	2
NMTAP	72	96	2
NMTAP	72	192	0
NMTAP	72	192	1
NMTAP	72	288	0
NMTAP	72	288	1
NMTAP	73	0	7
NMTAP	73	96	7
NMTAP	73	192	6
NMTAP	73	192	7
NMTAP	74	0	6
NMTAP	74	96	6
NMTAP	74	192	4
NMTAP	74	192	5
NMTAP	74	288	4
NMTAP	74	288	5
NMTAP	75	0	3
NMTAP	75	96	3
NMTAP	75	192	2
NMTAP	75	192	3
NMTAP	76	0	1
NMTAP	76	96	1
NMTAP	76	192	2
NMTAP	76	192	3
NMTAP	76	288	2
NMTAP	76	288	3
NMTAP	77	0	4
NMTAP	77	96	4
NMTAP	77	192	4
NMTAP	77	192	5
NMTAP	78	0	5
NMTAP	78	96	5
NMTAP	78	192	6
NMTAP	78	192	7
NMTAP	78	288	6
NMTAP	78	288	7
NMTAP	79	0	0
NMTAP	79	96	0
NMTAP	79	192	0
NMTAP	79	192	1
NMTAP	79	288	0
NMTAP	79	288	1
NMTAP	80	0	2
NMTAP	80	96	2
NMTAP	80	192	0
NMTAP	80	192	1
NMTAP	80	288	0
NMTAP	80	288	1
NMTAP	81	0	7
NMTAP	81	96	7
NMTAP	81	192	6
NMTAP	81	192	7
NMTAP	82	0	6
NMTAP	82	96	6
NMTAP	82	192	4
NMTAP	82	192	5
NMTAP	82	288	4
NMTAP	82	288	5
NMTAP	83	0	3
NMTAP	83	96	3
NMTAP	83	192	2
NMTAP	83	192	3
NMTAP	83	288	2
NMTAP	83	288	3
NMTAP	84	0	1
NMTAP	84	96	1
NMTAP	84	192	2
NMTAP	84	192	3
NMTAP	84	288	2
NMTAP	84	288	3
NMTAP	85	0	4
NMTAP	85	96	4
NMTAP	85	192	4
NMTAP	85	192	5
NMTAP	86	0	3
NMTAP	86	96	3
NMTAP	86	192	4
NMTAP	86	288	4
NMHLD	87	0	3	192
NMHLD	87	0	4	192
NMSTR	88	0	2
NMSI_	88	0	2	96	288	5
NMTAP	89	192	6
NMSTR	90	0	6
NMSI_	90	0	6	96	288	3
NMTAP	91	192	2
NMSTR	92	0	2
NMSI_	92	0	2	96	288	7
NMTAP	93	192	6
NMSTR	94	0	5
NMSI_	94	0	5	96	288	0
NMTAP	95	192	0
NMTAP	95	192	1
NMTTP	96	0	1	B	0	L1
NMTTP	96	96	2	B	0	L1
NMTTP	96	192	3	B	0	L1
NMTTP	97	0	6	B	0	L1
NMTTP	97	96	5	B	0	L1
NMTTP	97	192	4	B	0	L1
NMTTP	98	0	0	B	0	L1
NMTTP	98	96	1	B	0	L1
NMTTP	98	192	2	B	0	L1
NMTTP	98	288	3	B	0	L1
NMTTP	99	0	4	B	0	L1
NMTTP	99	96	5	B	0	L1
NMTTP	99	192	0	C	0	L1
NMTTP	100	0	7	E	0	L1
NMTTP	100	96	6	E	0	L1
NMTTP	100	192	5	E	0	L1
NMTTP	100	288	4	E	0	L1
NMTTP	101	0	3	E	0	L1
NMTTP	101	96	2	E	0	L1
NMTTP	101	192	0	C	0	L1
NMHLD	102	0	6	192
NMTAP	102	192	7
NMHLD	103	0	1	192
NMTAP	103	192	0
NMTAP	104	0	2
NMTAP	104	48	2
BXTAP	104	96	2
NMTAP	104	192	0
NMTAP	104	192	1
NMTAP	104	288	0
NMTAP	104	288	1
NMTAP	105	0	7
NMTAP	105	48	7
NMTAP	105	96	7
NMTAP	105	192	6
NMTAP	105	192	7
NMTAP	106	0	5
NMTAP	106	48	5
NMTAP	106	96	5
NMTAP	106	192	6
NMTAP	106	192	7
NMTAP	106	288	6
NMTAP	106	288	7
NMTAP	107	0	0
NMTAP	107	48	0
NMTAP	107	96	0
NMTAP	107	192	0
NMTAP	107	192	1
NMTAP	108	0	1
NMTAP	108	48	1
NMTAP	108	96	1
NMTAP	108	192	2
NMTAP	108	192	3
NMTAP	108	288	2
NMTAP	108	288	3
NMTAP	109	0	4
NMTAP	109	48	4
NMTAP	109	96	4
NMTAP	109	192	4
NMTAP	109	192	5
NMTAP	110	0	6
NMTAP	110	48	6
NMTAP	110	96	6
NMTAP	110	192	4
NMTAP	110	192	5
NMTAP	110	288	4
NMTAP	110	288	5
NMTAP	111	0	3
NMTAP	111	48	3
NMTAP	111	96	3
NMTAP	111	192	2
NMTAP	111	192	3
NMTAP	112	0	4
NMTAP	112	48	4
NMTAP	112	96	4
NMTAP	112	192	4
NMTAP	112	192	5
NMHLD	113	0	3	192
NMHLD	113	0	4	192
NMTAP	114	0	2
NMTAP	114	0	3
NMTAP	114	48	2
NMTAP	114	48	3
NMTAP	114	96	2
NMTAP	114	96	3
NMTAP	114	192	1
NMTAP	114	288	1
NMTAP	115	0	0
NMTAP	115	0	7
NMTAP	115	48	0
NMTAP	115	48	7
NMTAP	115	96	0
NMTAP	115	96	7
NMTAP	115	192	6
NMTAP	115	288	6
NMTAP	116	0	4
NMTAP	116	0	5
NMTAP	116	48	4
NMTAP	116	48	5
NMTAP	116	96	4
NMTAP	116	96	5
NMTAP	116	192	3
NMTAP	116	192	6
NMSTR	117	0	4
NMSCL	117	0	4	96	576	1
NMSTR	117	0	5
NMSUL	117	0	5	96	576	0
EXHLD	119	96	0	672
EXHLD	119	96	7	672
NMTTP	122	0	1	B	0	L1
NMTTP	122	0	2	B	0	L1
NMTTP	123	0	3	B	0	L1
NMTTP	123	0	4	B	0	L1
NMTTP	124	0	5	B	0	L1
NMTTP	124	0	6	B	0	L1
NMTTP	125	0	0	C	1	L1
NMTTP	125	0	2	B	0	L1
NMTTP	125	0	5	B	0	L1

T_REC_TAP	325
T_REC_BRK	1
T_REC_XTP	2
T_REC_BXX	1
T_REC_HLD	24
T_REC_XHO	2
T_REC_BHO	0
T_REC_BXH	0
T_REC_STR	10
T_REC_BST	0
T_REC_XST	0
T_REC_XBS	0
T_REC_TTP	45
T_REC_THO	1
T_REC_SLD	10
T_REC_BSL	0
T_REC_ALL	421
T_NUM_TAP	382
T_NUM_BRK	2
T_NUM_HLD	27
T_NUM_SLD	10
T_NUM_ALL	421
T_JUDGE_TAP	384
T_JUDGE_HLD	164
T_JUDGE_SLD	10
T_JUDGE_ALL	558
TTM_EACHPAIRS	85
TTM_SCR_TAP	191000
TTM_SCR_BRK	5200
TTM_SCR_HLD	27000
TTM_SCR_SLD	15000
TTM_SCR_ALL	238200
TTM_SCR_S	230900
TTM_SCR_SS	238000
TTM_RAT_ACV	10008

