VERSION	0.00.00	1.05.00
FES_MODE	0
BPM_DEF	202.000	202.000	202.000	202.000
MET_DEF	4	4
RESOLUTION	384
CLK_DEF	384
COMPATIBLE_CODE	MA2

BPM	0	0	202.000
MET	0	0	4	4

NMTAP	2	0	0
NMTAP	2	192	0
NMTAP	3	0	1
NMTAP	4	0	2
NMTAP	4	192	2
NMTAP	5	0	3
NMTAP	6	0	4
NMTAP	6	192	4
NMTAP	7	0	5
NMTAP	8	0	6
NMTAP	8	192	6
NMTAP	9	0	0
NMTAP	9	0	7
NMTAP	10	0	1
NMTAP	10	192	1
NMTAP	11	0	0
NMTAP	11	0	7
NMTAP	12	0	6
NMTAP	12	192	6
BRTAP	13	0	0
BRTAP	13	0	7
NMHLD	14	0	0	384
NMHLD	14	0	7	384
NMTAP	16	0	7
NMTAP	16	192	7
NMTAP	17	0	6
NMTAP	17	192	6
NMTAP	18	0	5
NMTAP	18	192	5
NMTAP	19	0	4
NMTAP	19	0	5
NMTAP	20	0	3
NMTAP	20	192	3
NMTAP	21	0	2
NMTAP	21	192	2
NMTAP	22	0	1
NMTAP	22	192	1
NMTAP	23	0	0
NMTAP	23	0	1
NMTAP	24	0	0
NMTAP	24	96	0
NMTAP	24	192	0
NMTAP	25	0	1
NMTAP	25	192	1
NMTAP	26	0	2
NMTAP	26	192	2
NMTAP	27	0	2
NMTAP	27	0	3
NMTAP	28	0	4
NMTAP	28	96	4
NMTAP	28	192	4
NMTAP	29	0	5
NMTAP	29	192	5
NMTAP	30	0	6
NMTAP	30	192	6
BRTAP	31	0	6
BRTAP	31	0	7
NMTAP	32	0	0
NMTAP	32	96	0
NMTAP	32	192	0
NMTAP	33	0	0
NMTAP	33	0	1
NMTAP	33	192	0
NMTAP	33	192	1
NMTAP	34	0	7
NMTAP	34	96	7
NMTAP	34	192	7
NMTAP	35	0	6
NMTAP	35	0	7
NMTAP	35	192	6
NMTAP	35	192	7
NMTAP	36	0	0
NMTAP	36	96	0
NMTAP	36	192	0
NMTAP	37	0	0
NMTAP	37	0	7
NMTAP	37	192	0
NMTAP	37	192	7
EXHLD	38	0	0	336
EXHLD	38	0	7	336
NMTAP	40	0	6
NMTAP	40	192	6
NMTAP	41	0	6
NMTAP	41	0	7
NMTAP	42	0	5
NMTAP	42	192	5
NMTAP	43	0	4
NMTAP	43	0	5
NMTAP	44	0	2
NMTAP	44	192	2
NMTAP	45	0	2
NMTAP	45	0	3
NMTAP	46	0	1
NMTAP	46	192	1
EXTAP	47	0	0
EXTAP	47	0	1
NMHLD	48	0	0	336
NMHLD	48	0	1	336
EXHLD	50	0	2	336
EXHLD	50	0	3	336
NMHLD	52	0	4	336
NMHLD	52	0	5	336
NMHLD	54	0	6	336
NMHLD	54	0	7	336
NMTTP	56	0	7	B	0	L1
NMTTP	57	0	0	B	0	L1
NMTTP	58	0	6	B	0	L1
NMTTP	59	0	1	B	0	L1
NMTTP	60	0	5	B	0	L1
NMTTP	61	0	2	B	0	L1
NMTTP	62	0	4	B	0	L1
NMTTP	63	0	3	B	0	L1
NMTTP	64	0	0	C	1	L1
NMTTP	66	0	0	C	1	L1
NMTTP	66	0	2	B	0	L1
NMTTP	66	0	5	B	0	L1
NMTHO	68	0	0	384	C	0	L1
EXTAP	70	0	0
EXTAP	70	0	7
EXTAP	70	192	0
EXTAP	70	192	7
EXTAP	71	0	0
EXTAP	71	0	7
BRTAP	72	0	7
NMTAP	72	96	7
NMTAP	72	192	7
NMTAP	72	288	7
NMTAP	73	0	6
NMTAP	73	96	6
NMTAP	73	192	4
NMTAP	73	192	5
NMTAP	74	0	3
NMTAP	74	96	3
NMTAP	74	192	3
NMTAP	74	288	3
NMTAP	75	0	2
NMTAP	75	96	2
NMTAP	75	192	2
NMTAP	75	192	3
NMTAP	76	0	1
NMTAP	76	96	1
NMTAP	76	192	1
NMTAP	76	288	1
NMTAP	77	0	0
NMTAP	77	96	0
NMTAP	77	192	0
NMTAP	77	192	7
EXTAP	78	0	0
EXTAP	78	0	7
EXTAP	78	192	0
EXTAP	78	192	7
EXTAP	79	0	0
EXTAP	79	0	7
BRTAP	80	0	0
NMTAP	80	96	0
NMTAP	80	192	0
NMTAP	80	288	0
EXTAP	81	0	1
EXTAP	81	96	1
EXTAP	81	192	2
EXTAP	81	192	3
NMTAP	82	0	4
NMTAP	82	96	4
NMTAP	82	192	5
NMTAP	82	288	5
NMTAP	83	0	6
NMTAP	83	96	6
NMTAP	83	192	6
NMTAP	83	192	7
NMTAP	84	0	0
NMTAP	84	0	1
NMTAP	84	96	0
NMTAP	84	96	1
NMTAP	84	192	0
NMTAP	84	192	1
NMTAP	85	0	6
NMTAP	85	0	7
NMTAP	85	96	6
NMTAP	85	96	7
NMTAP	85	192	6
NMTAP	85	192	7
NMTAP	86	0	0
NMTAP	86	96	0
NMTAP	86	192	7
NMTAP	86	288	7
BXTAP	87	0	0
BXTAP	87	0	7
NMSTR	88	0	1
NMSI_	88	0	1	96	288	4
NMSTR	90	0	5
NMSI_	90	0	5	96	288	0
NMSTR	92	0	1
NMSI_	92	0	1	96	288	5
NMSTR	94	0	6
NMSI_	94	0	6	96	288	3
NMHLD	96	0	2	384
NMHLD	96	0	3	384
NMHLD	98	0	0	384
NMHLD	98	0	1	384
EXHLD	100	0	6	384
EXHLD	100	0	7	384
NMHLD	102	0	4	336
NMHLD	102	0	5	336
NMTAP	104	0	4
BRTAP	104	96	4
NMTAP	104	192	5
NMTAP	104	288	5
NMTAP	105	0	6
NMTAP	105	96	6
NMTAP	105	192	7
NMTAP	105	288	7
NMTAP	106	0	0
NMTAP	106	96	0
NMTAP	106	192	1
NMTAP	106	288	1
NMTAP	107	0	2
NMTAP	107	0	3
NMTAP	107	96	2
NMTAP	107	96	3
NMTAP	107	192	2
NMTAP	107	192	3
NMTAP	108	0	3
NMTAP	108	96	3
NMTAP	108	192	2
NMTAP	108	288	2
NMTAP	109	0	1
NMTAP	109	96	1
NMTAP	109	192	0
NMTAP	109	288	0
NMTAP	110	0	7
NMTAP	110	96	7
NMTAP	110	192	6
NMTAP	110	288	6
NMTAP	111	0	4
NMTAP	111	0	5
NMTAP	111	96	4
NMTAP	111	96	5
NMTAP	111	192	4
NMTAP	111	192	5
NMTAP	112	0	2
NMTAP	112	0	3
NMTAP	112	96	2
NMTAP	112	96	3
NMTAP	112	192	2
NMTAP	112	192	3
NMHLD	113	0	3	192
NMHLD	113	0	4	192
NMTAP	114	0	3
NMTAP	114	0	4
NMTAP	114	96	3
NMTAP	114	96	4
NMTAP	114	192	3
NMTAP	114	192	4
NMTAP	115	0	2
NMTAP	115	0	5
NMTAP	115	96	2
NMTAP	115	96	5
NMTAP	115	192	2
NMTAP	115	192	5
NMTAP	116	0	1
NMTAP	116	0	6
NMTAP	116	96	1
NMTAP	116	96	6
NMTAP	116	192	1
NMTAP	116	192	6
NMSTR	117	0	0
NMSI_	117	0	0	96	288	3
NMSTR	117	0	7
NMSI_	117	0	7	96	288	4
EXSTR	119	96	3
NMSI_	119	96	3	96	288	0
EXSTR	119	96	4
NMSI_	119	96	4	96	288	7
NMHLD	121	0	0	1536
NMHLD	121	0	7	1536

T_REC_TAP	195
T_REC_BRK	7
T_REC_XTP	18
T_REC_BXX	2
T_REC_HLD	18
T_REC_XHO	6
T_REC_BHO	0
T_REC_BXH	0
T_REC_STR	6
T_REC_BST	0
T_REC_XST	2
T_REC_XBS	0
T_REC_TTP	12
T_REC_THO	1
T_REC_SLD	8
T_REC_BSL	0
T_REC_ALL	275
T_NUM_TAP	233
T_NUM_BRK	9
T_NUM_HLD	25
T_NUM_SLD	8
T_NUM_ALL	275
T_JUDGE_TAP	242
T_JUDGE_HLD	228
T_JUDGE_SLD	8
T_JUDGE_ALL	478
TTM_EACHPAIRS	67
TTM_SCR_TAP	116500
TTM_SCR_BRK	23400
TTM_SCR_HLD	25000
TTM_SCR_SLD	12000
TTM_SCR_ALL	176900
TTM_SCR_S	170750
TTM_SCR_SS	176000
TTM_RAT_ACV	10051

