VERSION	0.00.00	1.05.00
FES_MODE	0
BPM_DEF	180.000	180.000	180.000	180.000
MET_DEF	4	4
RESOLUTION	384
CLK_DEF	384
COMPATIBLE_CODE	MA2

BPM	0	0	180.000
MET	0	0	4	4

NMSTR	2	0	2
NMSCL	2	0	2	96	216	6
NMTAP	2	0	5
EXSTR	2	216	6
NMSCL	2	216	6	96	216	1
EXSTR	3	48	1
NMSCL	3	48	1	96	216	3
EXSTR	3	264	3
NMSCL	3	264	3	96	192	4
CNSCL	4	168	4	0	120	0
EXTAP	5	0	6
EXTAP	5	0	7
EXSTR	5	72	6
NMSI_	5	72	6	96	120	0
EXSTR	5	72	7
NMSSL	5	72	7	96	120	3
EXSTR	6	0	7
NMSCR	6	0	7	96	24	0
CNSV_	6	120	0	0	48	3
CNSCR	6	168	3	0	24	4
NMTTP	6	240	2	E	0	M1
NMTTP	6	240	2	A	0	M1
NMTTP	6	240	5	B	0	M1
NMTTP	6	240	5	E	0	M1
EXHLD	6	336	2	120
EXSTR	6	336	6
NMSCL	6	336	6	96	24	5
CNSUR	7	72	5	0	96	1
CNSCR	7	168	1	0	24	2
EXSTR	7	192	0
NMSUR	7	192	0	96	48	4
EXTAP	7	288	7
EXTAP	8	0	0
EXTAP	8	96	1
NMTAP	8	96	7
EXTAP	8	192	2
NMTAP	8	192	4
EXTAP	8	288	3
NMTAP	8	288	5
EXTAP	9	0	0
NMTAP	9	0	6
EXTAP	9	96	1
NMTAP	9	96	7
EXTAP	9	192	2
NMTAP	9	192	4
EXTAP	9	288	3
NMTAP	9	288	5
NMHLD	10	0	2	96
NMHLD	10	0	6	96
NMHLD	10	192	0	96
NMHLD	10	192	7	96
NMHLD	11	0	1	96
NMHLD	11	0	4	96
NMTAP	11	192	0
NMTAP	11	192	5
NMTAP	11	256	0
NMTAP	11	256	5
NMTAP	11	320	1
NMTAP	11	320	4
EXTAP	12	0	2
EXTAP	12	0	3
EXSTR	12	96	1
NMSCL	12	96	1	96	72	5
NMSV_	12	96	1	96	72	3
NMTAP	13	0	4
NMTAP	13	96	2
NMTAP	13	96	3
NMTAP	13	192	1
NMTAP	13	240	1
NMTAP	13	288	0
NMHLD	13	336	2	96
BXSTR	14	48	7
BRSI_	14	48	7	96	96	5
NMTAP	14	144	1
NMTAP	14	192	1
CNSV_	14	240	5	0	168	4
NMTAP	14	288	0
NMTAP	15	0	7
CNSI_	15	24	4	0	120	2
NMTAP	15	48	7
NMTAP	15	96	7
CNSI_	15	144	2	0	144	4
NMTAP	15	192	6
NMTAP	15	240	6
CNSV_	15	288	4	0	168	5
NMTAP	15	336	7
NMTAP	16	48	0
CNSI_	16	72	5	0	120	7
NMTAP	16	96	0
NMTAP	16	192	1
NMTAP	16	288	2
NMTAP	16	288	7
EXSTR	17	0	0
NMSI_	17	0	0	96	120	2
NMTAP	17	0	5
NMTAP	17	144	6
NMTAP	17	192	6
CNSV_	17	216	2	0	192	3
NMTAP	17	288	7
NMTAP	17	336	7
CNSI_	18	24	3	0	120	5
NMTAP	18	48	0
NMTAP	18	144	1
CNSI_	18	144	5	0	120	3
NMTAP	18	192	1
CNSV_	18	264	3	0	168	2
NMTAP	18	288	0
NMTAP	19	0	7
CNSI_	19	48	2	0	96	0
NMTAP	19	96	6
NMTAP	19	144	6
NMSTR	19	240	0
NMSV_	19	240	0	96	144	3
NMSTR	19	240	6
NMSV_	19	240	6	96	144	3
NMTAP	20	192	2
NMTAP	20	192	4
NMTAP	20	288	2
NMTAP	20	288	4
NMTAP	21	0	1
NMTAP	21	96	2
NMTAP	21	96	3
NMTAP	21	192	5
NMTAP	21	240	5
NMTAP	21	288	4
NMSTR	21	336	6
NMSI_	21	336	6	96	48	0
NMSTR	22	48	3
NMSSL	22	48	3	96	144	7
NMTAP	23	0	6
NMTAP	23	48	6
NMTAP	23	96	0
NMTAP	23	192	1
NMHLD	23	240	1	96
NMSTR	23	336	7
NMSXL	23	336	7	96	168	7
NMTAP	24	48	3
NMHLD	24	96	3	192
CNSXR	24	216	7	0	168	7
NMTAP	25	0	1
NMTAP	25	96	0
NMTAP	25	96	7
NMTAP	25	192	6
NMTAP	25	240	6
NMTAP	25	288	7
NMSTR	25	336	5
NMSXR	25	336	5	96	240	2
EXTAP	26	96	7
EXTAP	26	192	0
NMTAP	26	288	1
NMHLD	27	0	2	96
NMTAP	27	0	3
NMTAP	27	96	0
NMTAP	27	144	3
NMTAP	27	144	7
NMTAP	27	288	4
NMHLD	27	288	5	96
NMTAP	28	0	7
NMTAP	28	48	0
NMTAP	28	48	4
NMTAP	28	192	0
NMTAP	28	192	7
NMTAP	28	288	2
NMTAP	28	288	5
BRHLD	28	336	2	144
BRSTR	28	336	5
NMSUL	28	336	5	96	144	3
NMSTR	29	192	0
BRSI_	29	192	0	96	48	4
NMSTR	29	288	6
NMSUL	29	288	6	96	192	3
NMHLD	30	0	2	96
NMSTR	30	192	0
BRSI_	30	192	0	96	48	4
NMSTR	30	288	6
NMSXL	30	288	6	96	192	3
NMHLD	31	0	2	96
NMSTR	31	192	0
BRSI_	31	192	0	96	48	4
NMSTR	31	288	7
NMSCL	31	288	7	96	96	3
NMSTR	32	0	3
NMSCL	32	0	3	96	96	7
NMSTR	32	96	7
NMSCL	32	96	7	96	96	3
NMSTR	32	192	3
BRSI_	32	192	3	96	48	7
NMSTR	32	288	2
NMSUR	32	288	2	96	192	4
NMHLD	33	0	6	96
NMSTR	33	192	7
BRSI_	33	192	7	96	48	3
NMSTR	33	288	1
NMSXR	33	288	1	96	192	4
NMHLD	34	0	5	96
NMSTR	34	192	7
BRSI_	34	192	7	96	48	3
NMSTR	34	288	2
NMSCL	34	288	2	96	224	0
BXHLD	34	336	2	720
CNSUR	35	224	0	0	128	4
CNSCR	35	352	4	0	128	7
CNSUL	36	96	7	0	192	3
NMTAP	37	0	1
NMTAP	37	0	4
NMHLD	37	48	1	96
NMHLD	37	48	4	96
NMTAP	37	192	6
NMTAP	37	192	7
NMTAP	37	240	6
NMTAP	37	240	7
NMTAP	37	336	0
NMTAP	37	336	5
BRHLD	38	0	0	96
BRHLD	38	0	5	96
NMTAP	38	192	1
NMTAP	38	224	4
NMTAP	38	256	2
NMTAP	38	288	5
NMTAP	38	320	3
NMTAP	38	352	6
NMHLD	39	0	4	64
EXTAP	39	64	5
EXTAP	39	128	2
EXTAP	39	128	3
EXTAP	39	192	0
EXTAP	39	192	1
EXTAP	39	240	2
EXTAP	39	240	7
EXTAP	39	336	3
EXTAP	39	336	4
EXTAP	40	0	2
EXTAP	40	0	5
NMTTP	40	96	0	E	1	M1
NMTTP	40	96	1	E	0	M1
NMTTP	40	96	7	E	0	M1
NMSTR	40	288	2
BRSI_	40	288	2	96	48	7
NMSTR	40	288	4
BRSI_	40	288	4	96	48	6
BRTAP	41	0	2
BRTAP	41	0	4
NMTAP	41	144	0
NMTAP	41	144	4
NMTAP	41	192	0
NMTAP	41	192	4
NMTAP	41	288	1
NMTAP	41	288	5
NMTAP	41	336	2
NMSTR	42	0	3
NMSLL	42	0	3	96	96	7
NMTAP	42	0	7
NMTAP	42	96	3
EXTAP	42	96	7
NMTAP	42	144	5
NMSTR	42	192	3
NMSLR	42	192	3	96	96	7
EXTAP	42	288	0
NMTAP	42	288	3
NMTAP	42	336	2
NMSTR	43	0	4
NMSLL	43	0	4	96	96	0
EXTAP	43	96	0
NMTAP	43	96	4
NMTAP	43	144	6
NMSTR	43	192	4
NMSLR	43	192	4	96	96	0
NMTAP	43	288	4
EXTAP	43	288	7
NMTAP	43	336	1
NMSTR	44	0	3
NMSI_	44	0	3	96	48	7
NMTAP	44	96	3
EXSTR	44	96	6
NMSI_	44	96	6	96	48	2
EXSTR	44	192	1
NMSI_	44	192	1	96	48	5
NMTAP	44	192	6
NMTAP	44	288	1
EXTAP	44	288	7
NMSTR	45	0	6
NMSCL	45	0	6	96	48	3
NMTAP	45	48	7
EXTAP	45	96	6
NMTAP	45	144	0
NMSTR	45	192	1
NMSUR	45	192	1	96	48	5
NMTAP	45	240	0
EXTAP	45	288	1
NMTAP	45	336	7
NMSTR	46	0	6
NMSUL	46	0	6	96	48	2
NMTAP	46	48	7
EXTAP	46	96	6
NMTAP	46	144	0
NMSTR	46	192	1
NMSCR	46	192	1	96	48	4
NMTAP	46	240	0
EXTAP	46	288	1
NMTAP	46	336	7
NMSTR	47	0	6
NMSCL	47	0	6	96	144	7
NMSUL	47	0	6	96	144	7
NMTTP	47	96	6	A	1	M1
BRTAP	47	336	0
BRTAP	47	336	6
NMTAP	48	48	0
NMTAP	48	48	6
EXTAP	48	96	1
EXTAP	48	96	5
NMTAP	48	144	2
NMTAP	48	144	4
NMTAP	48	240	3
NMTAP	48	240	5
EXSTR	48	288	3
BRSI_	48	288	3	96	48	1
EXSTR	48	288	5
BRSI_	48	288	5	96	48	0
BRTAP	49	0	3
BRTAP	49	0	5
NMTAP	49	144	3
NMTAP	49	144	7
NMTAP	49	192	3
NMTAP	49	192	7
NMTAP	49	288	2
NMTAP	49	288	6
NMTAP	49	336	5
NMTAP	50	0	0
NMSTR	50	0	4
NMSLR	50	0	4	96	96	0
EXTAP	50	96	0
NMTAP	50	96	4
NMTAP	50	144	2
NMSTR	50	192	4
NMSLL	50	192	4	96	96	0
NMTAP	50	288	4
EXTAP	50	288	7
NMTAP	50	336	5
NMSTR	51	0	3
NMSLR	51	0	3	96	96	7
NMTAP	51	96	3
EXTAP	51	96	7
NMTAP	51	144	1
NMSTR	51	192	3
NMSLL	51	192	3	96	96	7
EXTAP	51	288	0
NMTAP	51	288	3
NMTAP	51	336	6
NMSTR	52	0	4
NMSI_	52	0	4	96	48	0
EXSTR	52	96	2
NMSI_	52	96	2	96	48	6
NMTAP	52	96	4
NMTAP	52	192	2
EXSTR	52	192	7
NMSI_	52	192	7	96	48	3
EXTAP	52	288	0
NMTAP	52	288	7
NMHLD	53	0	1	96
NMTAP	53	96	0
NMHLD	53	144	0	96
NMTAP	53	240	7
NMSTR	53	288	7
NMSCR	53	288	7	96	72	1
NMTAP	54	0	5
CNSV_	54	72	1	0	72	3
NMHLD	54	192	6	96
NMHLD	54	288	4	96
NMHLD	55	0	2	96
NMSTR	55	96	0
NMSCR	55	96	0	96	72	2
NMTAP	55	144	0
NMTAP	55	192	4
CNSV_	55	264	2	0	72	4
NMTAP	55	336	5
NMTAP	56	48	4
NMTAP	56	48	6
NMTAP	56	96	4
NMHLD	56	96	6	96
NMHLD	56	192	0	144
NMTAP	56	336	7
NMTAP	56	360	1
NMTAP	56	360	6
NMSTR	57	0	2
NMSXR	57	0	2	96	480	4
NMSTR	57	0	5
NMSXL	57	0	5	96	480	3
NMSTR	58	288	1
BRSI_	58	288	1	96	48	6
NMTAP	58	288	6
NMTTP	59	0	1	A	1	M1
BRHLD	59	0	7	192
BXTAP	59	192	3
BXTAP	59	208	2
BXTAP	59	224	1
BXTAP	59	240	0
BXTAP	59	256	7
BXTAP	59	272	6
BXTAP	59	288	5
BXTAP	59	304	4
BXTAP	59	320	3
BXTAP	59	336	2
BXTAP	59	352	1
BXTAP	59	368	0
BXTAP	60	0	7
BXTAP	60	16	6
BXTAP	60	32	5
BXTAP	60	48	4
BXTAP	60	64	3
BXTAP	60	80	2
BXSTR	60	96	1
BRSI_	60	96	1	96	48	5
BXTAP	60	192	1
BXSTR	60	192	6
BRSI_	60	192	6	96	48	2
BXSTR	60	288	0
BRSI_	60	288	0	96	48	3
BRSI_	60	288	0	96	48	5
BXTAP	60	288	6
BXTAP	61	0	0
BXTAP	61	144	4
BXTAP	61	144	5
BXTAP	61	192	6
BXTAP	61	192	7
BXTAP	61	240	0
BXTAP	61	240	1
BXTAP	61	288	2
BXTAP	61	288	3
BXHLD	61	336	4	80
BXHLD	62	32	6	128
BXHLD	62	160	0	128
BXSTR	62	288	2
BRSCR	62	288	2	96	96	3
CNSV_	63	96	3	0	96	5
CNSCR	63	192	5	0	96	6
CNSI_	63	288	6	0	48	1
CNSI_	63	336	1	0	240	4
NMTAP	64	288	3
NMTAP	64	288	5
NMTAP	65	0	4
NMTAP	65	0	6
NMTAP	65	96	1
NMTAP	65	96	3
NMTAP	65	144	1
NMTAP	65	144	3
NMSTR	65	240	1
NMSXL	65	240	1	96	144	3
NMSTR	65	240	7
NMSXR	65	240	7	96	144	5
NMTAP	66	192	2
NMTAP	66	192	6
NMTAP	66	240	2
NMTAP	66	240	6
NMTAP	66	288	3
NMTAP	66	288	7
NMHLD	66	336	3	96
NMHLD	66	336	7	96
NMTTP	67	96	3	D	1	M1
NMTTP	67	96	7	D	0	M1
NMTTP	67	104	2	A	0	M1
NMTTP	67	104	6	A	0	M1
NMTTP	67	112	2	D	0	M1
NMTTP	67	112	6	D	0	M1
NMTTP	67	120	1	A	0	M1
NMTTP	67	120	5	A	0	M1
NMTTP	67	128	1	D	0	M1
NMTTP	67	128	5	D	0	M1
NMTTP	67	136	0	A	0	M1
NMTTP	67	136	4	A	0	M1
NMSTR	67	288	0
NMSI_	67	288	0	96	48	2
NMSTR	68	0	4
NMSI_	68	0	4	96	48	6
NMSTR	68	96	0
NMSI_	68	96	0	96	48	4
NMTAP	68	192	5
NMHLD	68	240	5	192
NMHLD	68	336	1	96
BXTAP	69	96	2
BXSTR	69	96	6
NMSCL	69	96	6	96	96	3
NMSTR	69	192	3
NMSCL	69	192	3	96	96	0
NMSTR	69	288	0
NMSCL	69	288	0	96	96	5
NMSTR	70	0	5
NMSCL	70	0	5	96	96	2
NMTAP	70	96	2
NMTAP	70	192	1
NMHLD	70	240	1	192
NMHLD	70	336	0	96
BXTAP	71	96	2
BXSTR	71	96	7
NMSI_	71	96	7	96	48	5
NMSTR	71	192	3
NMSI_	71	192	3	96	48	1
NMSTR	71	288	0
NMSI_	71	288	0	96	48	5
NMSTR	72	0	3
NMSI_	72	0	3	96	48	0
NMHLD	72	96	6	96
NMTAP	72	192	7
NMTAP	72	240	7
NMTAP	72	288	6
NMTAP	73	0	4
NMTAP	73	0	5
NMSTR	73	48	4
BRSUR	73	48	4	96	72	1
NMSTR	73	48	5
BRSCR	73	48	5	96	72	1
NMTAP	73	288	2
NMTAP	73	288	3
NMSTR	73	336	2
BRSCL	73	336	2	96	72	6
NMSTR	73	336	3
BRSUL	73	336	3	96	72	6
NMTAP	74	192	3
NMTAP	74	192	5
NMTAP	74	240	3
NMTAP	74	240	5
BRSTR	74	336	2
NMSUR	74	336	2	96	144	4
BRHLD	74	336	6	144
NMSTR	75	192	7
BRSI_	75	192	7	96	48	3
NMSTR	75	288	1
NMSXR	75	288	1	96	192	4
NMHLD	76	0	5	96
BRTAP	76	192	7
BRTAP	76	240	7
BRTAP	76	288	4
BRSTR	76	288	6
NMSUL	76	288	6	96	192	3
NMHLD	77	0	2	96
NMSTR	77	192	0
BRSI_	77	192	0	96	48	4
NMSTR	77	288	6
NMSXL	77	288	6	96	192	3
NMHLD	78	0	2	96
EXHLD	78	192	1	48
EXSTR	78	288	1
NMSUR	78	288	1	96	192	4
EXHLD	78	288	3	48
NMHLD	79	0	5	96
NMSTR	79	192	7
BRSI_	79	192	7	96	48	3
NMSTR	79	288	1
NMSXR	79	288	1	96	192	4
NMHLD	80	0	5	96
NMSTR	80	192	7
BRSI_	80	192	7	96	48	3
NMSTR	80	288	2
NMSCL	80	288	2	96	576	3
BXHLD	80	336	2	624
NMTAP	82	288	2
NMTAP	82	288	3
EXSTR	83	0	0
NMSI_	83	0	0	96	48	4
NMSV_	83	0	0	96	24	2
NMTAP	83	0	1
CNSCR	83	120	2	0	24	3
NMTTP	83	192	0	B	0	M1
NMTTP	83	192	0	E	0	M1
NMTTP	83	192	5	B	0	M1
NMTTP	83	192	6	B	0	M1
NMTTP	83	192	6	E	0	M1
NMTTP	83	192	6	A	0	M1
NMTTP	83	192	7	B	0	M1
NMTTP	83	192	7	A	0	M1
NMTTP	83	288	2	B	0	M1
NMTTP	83	288	2	E	0	M1
NMTTP	83	288	3	B	0	M1
NMTTP	83	288	3	E	0	M1
NMTTP	83	288	3	D	0	M1
NMTTP	83	288	4	E	0	M1
EXSTR	84	0	4
NMSCL	84	0	4	96	48	0
NMSCR	84	0	4	96	48	0
NMTTP	84	192	0	C	0	M1
NMTTP	84	192	1	B	0	M1
NMTTP	84	192	2	B	0	M1
NMTTP	84	192	3	E	0	M1
NMTTP	84	192	3	A	0	M1
NMTTP	84	192	4	A	0	M1
NMTTP	84	192	4	D	0	M1
NMTTP	84	192	5	B	0	M1
NMTTP	84	192	5	E	0	M1
NMTTP	84	192	6	B	0	M1
NMTTP	84	192	7	E	0	M1
NMTTP	84	192	7	A	1	M1
EXTAP	85	64	2
EXTAP	85	64	4
EXTAP	85	128	0
EXTAP	85	128	2
EXTAP	85	192	0
EXTAP	85	192	6
EXTAP	85	240	1
EXTAP	85	240	5
EXTAP	85	336	1
EXTAP	85	336	7
EXTAP	86	0	2
EXTAP	86	0	6
NMTTP	86	96	3	E	0	M1
NMTTP	86	96	3	A	0	M1
NMTTP	86	96	3	D	0	M1
NMTTP	86	96	5	A	1	M1
NMTTP	86	96	6	E	0	M1
NMTTP	86	96	6	D	0	M1
NMSTR	86	288	0
NMSI_	86	288	0	96	48	5
NMTAP	86	288	4
BRSTR	87	0	0
NMSI_	87	0	0	96	48	3
NMTAP	87	48	3
EXSTR	87	96	0
NMSCL	87	96	0	96	48	5
NMTAP	87	144	5
NMSTR	87	192	0
NMSCR	87	192	0	96	48	3
EXTAP	87	240	4
EXSTR	87	288	0
NMSI_	87	288	0	96	48	5
NMTAP	87	336	6
BRSTR	88	0	0
NMSI_	88	0	0	96	48	3
NMTAP	88	48	3
EXSTR	88	96	0
NMSCL	88	96	0	96	48	5
NMTAP	88	144	5
NMSTR	88	192	0
NMSCR	88	192	0	96	48	3
EXTAP	88	240	4
EXSTR	88	288	0
NMSI_	88	288	0	96	48	5
NMTAP	88	336	6
BRSTR	89	0	0
NMSI_	89	0	0	96	48	3
NMTAP	89	48	3
EXSTR	89	96	0
NMSCL	89	96	0	96	48	5
NMTAP	89	144	5
NMSTR	89	192	0
NMSCR	89	192	0	96	48	3
EXTAP	89	240	4
EXSTR	89	288	0
NMSI_	89	288	0	96	48	5
NMTAP	89	336	6
BRSTR	90	0	0
NMSI_	90	0	0	96	48	3
NMTAP	90	48	3
EXSTR	90	96	0
NMSCL	90	96	0	96	48	5
NMTAP	90	144	5
NMSTR	90	192	0
NMSCR	90	192	0	96	48	3
EXTAP	90	240	4
EXSTR	90	288	0
NMSI_	90	288	0	96	48	5
NMTAP	90	336	6
BRSTR	91	0	0
NMSI_	91	0	0	96	48	2
NMTAP	91	48	3
EXSTR	91	96	0
NMSCL	91	96	0	96	48	6
NMTAP	91	144	5
NMSTR	91	192	0
NMSI_	91	192	0	96	48	3
EXTAP	91	240	4
EXSTR	91	288	0
NMSI_	91	288	0	96	48	5
NMTAP	91	336	6
BRSTR	92	0	0
NMSCR	92	0	0	96	48	2
NMTAP	92	48	3
EXSTR	92	96	0
NMSI_	92	96	0	96	48	6
NMTAP	92	144	5
NMSTR	92	192	0
NMSI_	92	192	0	96	48	4
EXTAP	92	240	4
EXTAP	92	288	0
BRSTR	93	0	3
NMSXR	93	0	3	96	192	0
BRSTR	93	0	5
NMSXL	93	0	5	96	192	0
NMTTP	93	96	3	A	0	M1
NMTTP	93	96	5	A	1	M1
BXTAP	94	0	1
BXTAP	94	0	3
NMTAP	94	96	6
NMTAP	94	96	7
NMTAP	94	192	4
NMTAP	94	192	5
NMTAP	94	288	2
NMSTR	94	288	7
NMSI_	94	288	7	96	48	2
BRSTR	95	0	7
NMSI_	95	0	7	96	48	4
NMTAP	95	48	4
NMSTR	95	96	7
NMSCR	95	96	7	96	48	2
NMTAP	95	144	3
NMSTR	95	192	7
NMSCL	95	192	7	96	48	4
NMTAP	95	240	4
NMSTR	95	288	7
NMSI_	95	288	7	96	48	2
NMTAP	95	336	1
NMSTR	96	0	7
BRSI_	96	0	7	96	48	4
NMTAP	96	48	4
NMSTR	96	96	7
NMSCR	96	96	7	96	48	2
NMTAP	96	144	3
NMSTR	96	192	7
BRSCL	96	192	7	96	48	4
NMTAP	96	240	4
NMSTR	96	288	7
NMSI_	96	288	7	96	48	2
NMTAP	96	336	1
NMSTR	97	0	7
BRSI_	97	0	7	96	48	4
NMTAP	97	48	4
NMSTR	97	96	7
NMSCR	97	96	7	96	48	2
NMTAP	97	144	3
NMSTR	97	192	7
BRSCL	97	192	7	96	48	4
NMTAP	97	240	4
NMSTR	97	288	7
NMSI_	97	288	7	96	48	2
NMTAP	97	336	1
NMSTR	98	0	7
BRSI_	98	0	7	96	48	4
NMTAP	98	48	4
NMSTR	98	96	7
BRSCR	98	96	7	96	48	2
NMTAP	98	144	3
NMSTR	98	192	7
BRSCL	98	192	7	96	48	4
NMTAP	98	240	4
NMSTR	98	288	7
NMSI_	98	288	7	96	48	2
NMTAP	98	336	1
NMSTR	99	0	7
BRSI_	99	0	7	96	48	4
NMTAP	99	48	4
NMSTR	99	96	7
BRSCR	99	96	7	96	48	2
NMTAP	99	144	3
NMSTR	99	192	7
BRSCL	99	192	7	96	48	4
NMTAP	99	240	4
NMSTR	99	288	7
NMSI_	99	288	7	96	48	2
NMTAP	99	336	1
NMSTR	100	0	7
BRSI_	100	0	7	96	48	4
NMTAP	100	48	4
NMSTR	100	96	7
BRSCR	100	96	7	96	48	2
NMTAP	100	144	3
NMSTR	100	192	7
BRSCL	100	192	7	96	48	4
NMTAP	100	240	4
NMSTR	100	288	7
NMSI_	100	288	7	96	48	2
NMTAP	100	336	1
NMSTR	101	0	7
BRSI_	101	0	7	96	48	5
NMTTP	101	12	0	E	0	M1
NMTTP	101	24	0	B	0	M1
NMTTP	101	36	1	B	0	M1
NMTAP	101	48	4
NMSTR	101	96	7
BRSCR	101	96	7	96	48	1
NMTAP	101	144	3
NMSTR	101	192	7
BRSI_	101	192	7	96	48	4
NMTAP	101	240	4
NMSTR	101	288	7
NMSI_	101	288	7	96	48	2
NMTAP	101	336	1
NMSTR	102	0	7
BRSCL	102	0	7	96	48	5
NMTAP	102	48	4
NMSTR	102	96	7
BRSI_	102	96	7	96	48	3
NMTAP	102	144	3
NMTAP	102	192	7
NMTAP	102	288	2
NMTAP	102	288	4
NMTTP	103	0	1	A	0	M1
NMHLD	103	0	5	192
NMTTP	103	12	1	E	0	M1
NMTTP	103	24	0	B	0	M1
NMTTP	103	36	7	B	0	M1
NMTTP	103	48	7	E	0	M1
NMTTP	103	60	6	A	0	M1
NMTAP	103	192	4
NMTAP	103	288	4
NMTAP	103	288	5
NMHLD	104	0	2	192
NMTTP	104	0	6	A	0	M1
NMTTP	104	12	7	E	0	M1
NMTTP	104	24	7	B	0	M1
NMTTP	104	36	0	B	0	M1
NMTTP	104	48	1	E	0	M1
NMTTP	104	60	1	A	0	M1
NMTAP	104	192	3
NMTAP	104	288	1
NMTAP	104	288	4
NMTAP	105	0	6
NMTAP	105	0	7
NMTAP	105	96	4
NMTAP	105	96	5
NMTAP	105	144	6
NMTAP	105	144	7
NMTAP	105	192	0
NMTAP	105	192	1
NMTAP	105	240	2
NMTAP	105	240	3
NMTAP	105	288	4
NMTAP	105	288	5
NMTAP	105	336	6
NMTAP	105	336	7
NMTAP	106	48	1
NMTAP	106	48	6
NMHLD	106	96	1	288
NMHLD	106	96	6	288
NMTTP	108	0	0	E	1	M1
NMTTP	108	0	0	A	0	M1
NMTTP	108	0	1	D	0	M1
NMTTP	108	0	7	A	0	M1
NMTTP	108	0	7	D	0	M1
NMTTP	108	12	0	B	0	M1
NMTTP	108	12	1	E	0	M1
NMTTP	108	12	7	B	0	M1
NMTTP	108	12	7	E	0	M1
NMTTP	108	24	1	B	0	M1
NMTTP	108	24	1	A	0	M1
NMTTP	108	24	2	E	0	M1
NMTTP	108	24	6	B	0	M1
NMTTP	108	24	6	E	0	M1
NMTTP	108	24	6	A	0	M1
NMTTP	108	36	0	C	0	M1
NMTTP	108	36	2	B	0	M1
NMTTP	108	36	5	B	0	M1
NMTTP	108	48	3	B	0	M1
NMTTP	108	48	4	B	0	M1
NMTTP	108	48	4	E	0	M1
NMTTP	108	324	1	B	0	M1
NMTTP	108	324	1	E	0	M1
NMTTP	108	324	1	A	0	M1
NMTTP	108	324	1	D	0	M1
NMTTP	108	324	2	B	0	M1
NMTTP	108	324	2	E	0	M1
NMTTP	108	324	2	A	0	M1
NMTTP	108	324	2	D	1	M1
NMTTP	109	144	6	B	0	M1
NMTTP	109	144	6	E	0	M1
NMTTP	109	144	6	A	1	M1
NMTTP	109	144	6	D	0	M1
NMTTP	109	144	7	E	0	M1
NMTTP	109	144	7	D	0	M1
NMTTP	109	192	2	B	0	M1
NMTTP	109	192	2	A	0	M1
NMTTP	109	192	3	B	0	M1
NMTTP	109	192	3	E	0	M1
NMTTP	109	192	3	A	0	M1
NMTTP	109	192	3	D	1	M1
NMTTP	109	372	4	B	0	M1
NMTTP	109	372	4	A	0	M1
NMTTP	109	372	5	B	0	M1
NMTTP	109	372	5	E	0	M1
NMTTP	109	372	5	A	0	M1
NMTTP	109	372	5	D	1	M1
NMTTP	110	48	0	B	0	M1
NMTTP	110	48	0	A	0	M1
NMTTP	110	48	1	B	0	M1
NMTTP	110	48	1	E	0	M1
NMTTP	110	48	1	A	0	M1
NMTTP	110	48	1	D	1	M1
EXTAP	110	240	2
EXHLD	110	288	2	144
EXTAP	110	360	3
EXTAP	111	48	4
EXTAP	111	60	5
EXTAP	111	72	6
EXTAP	111	84	7
EXTAP	111	96	0
EXTAP	111	108	1
EXTAP	111	120	2
EXTAP	111	132	3
EXTAP	111	144	4
EXTAP	111	156	5
EXTAP	111	168	6
EXTAP	111	180	7
NMTTP	111	192	0	A	0	M1
NMTTP	111	204	1	A	0	M1
NMTTP	111	216	2	A	0	M1
NMTTP	111	228	3	A	0	M1
NMTTP	111	240	4	A	0	M1
NMTTP	111	252	5	A	0	M1
NMTTP	111	264	6	A	0	M1
NMTTP	111	276	7	A	0	M1
EXSTR	111	288	0
NMSF_	111	288	0	96	48	4
BXTAP	112	0	0
NMSTR	112	144	2
NMSI_	112	144	2	96	48	7
NMTAP	112	192	1
NMSTR	112	240	0
NMSI_	112	240	0	96	48	5
NMTAP	112	240	2
NMSTR	112	336	0
NMSCR	112	336	0	96	48	3
NMSTR	112	336	6
NMSCL	112	336	6	96	48	4
NMTAP	113	48	0
NMSTR	113	48	6
NMSI_	113	48	6	96	48	3
EXTAP	113	144	2
NMTAP	113	144	6
EXTAP	113	192	2
CNSI_	113	192	3	0	48	0
NMTAP	113	288	1
NMTAP	113	288	7
NMHLD	114	0	6	48
NMHLD	114	0	7	48
NMHLD	114	96	0	48
NMHLD	114	96	1	48
NMHLD	114	192	2	48
NMHLD	114	240	3	48
NMHLD	114	288	4	48
NMHLD	114	336	5	96
NMTAP	115	48	3
NMTAP	115	96	2
NMTAP	115	96	4
NMTAP	115	144	1
NMTAP	115	144	3
NMTAP	115	192	0
NMTAP	115	192	4
NMTAP	115	240	2
NMTAP	115	240	6
NMSTR	115	288	3
NMSI_	115	288	3	96	48	0
NMSTR	115	288	7
NMSI_	115	288	7	96	48	4
NMTAP	115	336	0
NMTAP	115	336	4
BXTAP	116	0	3
BXTAP	116	0	7
NMTTP	116	12	0	C	1	M1
NMTTP	116	12	1	B	0	M1
NMTTP	116	12	2	E	0	M1
NMTTP	116	12	5	B	0	M1
NMTTP	116	12	6	E	0	M1

T_REC_TAP	285
T_REC_BRK	9
T_REC_XTP	77
T_REC_BXX	36
T_REC_HLD	49
T_REC_XHO	4
T_REC_BHO	5
T_REC_BXH	5
T_REC_STR	110
T_REC_BST	12
T_REC_XST	31
T_REC_XBS	7
T_REC_TTP	136
T_REC_THO	0
T_REC_SLD	122
T_REC_BSL	43
T_REC_ALL	931
T_NUM_TAP	639
T_NUM_BRK	117
T_NUM_HLD	53
T_NUM_SLD	122
T_NUM_ALL	931
T_JUDGE_TAP	703
T_JUDGE_HLD	168
T_JUDGE_SLD	165
T_JUDGE_ALL	1036
TTM_EACHPAIRS	146
TTM_SCR_TAP	319500
TTM_SCR_BRK	304200
TTM_SCR_HLD	53000
TTM_SCR_SLD	183000
TTM_SCR_ALL	859700
TTM_SCR_S	822600
TTM_SCR_SS	848000
TTM_RAT_ACV	10137

