VERSION	0.00.00	1.04.00
FES_MODE	0
BPM_DEF	180.000	180.000	180.000	180.000
MET_DEF	4	4
RESOLUTION	384
CLK_DEF	384
COMPATIBLE_CODE	MA2

BPM	0	0	180.000
MET	0	0	4	4

NMTAP	1	192	4
NMTAP	1	288	3
NMSTR	2	0	2
NMSUR	2	0	2	96	384	4
NMSTR	4	0	5
NMSUL	4	0	5	96	384	3
NMHLD	6	0	2	96
NMHLD	6	0	3	96
NMTAP	6	144	2
NMTAP	6	144	3
NMTAP	6	240	3
NMTAP	6	240	4
NMHLD	6	336	4	240
NMHLD	6	336	5	240
NMTAP	7	288	3
NMTAP	7	288	5
NMTAP	8	0	2
NMTAP	8	48	2
NMTAP	8	96	3
NMTAP	8	192	5
NMTAP	8	240	5
NMTAP	8	288	4
NMTAP	9	0	2
NMTAP	9	48	2
NMTAP	9	96	3
NMTAP	9	192	5
NMTAP	9	240	5
NMTAP	9	288	4
NMTAP	10	0	2
NMTAP	10	48	2
NMTAP	10	96	4
NMTAP	10	144	4
NMTAP	10	192	3
NMTAP	10	240	3
NMSTR	10	288	5
NMSCL	10	288	5	96	96	2
EXTAP	11	192	2
EXTAP	11	192	3
EXTAP	11	256	2
EXTAP	11	256	3
EXHLD	11	320	2	256
EXHLD	11	320	3	256
NMTAP	12	288	0
NMTAP	12	288	1
NMTAP	13	0	0
NMTAP	13	0	1
NMHLD	13	192	6	96
NMTAP	13	288	7
NMTAP	13	336	7
NMTAP	14	48	4
NMTAP	14	48	5
NMTAP	14	144	3
NMTAP	14	144	6
NMTAP	14	192	3
NMTAP	14	192	6
NMTAP	15	0	0
NMTAP	15	0	7
NMTAP	15	96	0
NMTAP	15	96	7
NMTAP	15	192	1
NMHLD	15	240	1	96
NMTAP	15	336	0
NMTAP	16	48	2
NMTAP	16	48	3
NMTAP	16	96	2
NMTAP	16	96	3
NMTAP	16	192	1
NMTAP	16	192	4
NMTAP	16	288	5
NMHLD	17	0	4	96
NMHLD	17	0	5	96
NMHLD	17	192	6	96
NMHLD	17	192	7	96
NMTAP	17	336	6
NMTAP	17	336	7
NMTAP	18	48	4
NMTAP	18	48	5
NMTAP	18	144	3
NMTAP	18	144	6
NMTAP	18	192	3
NMTAP	18	192	6
NMTTP	18	288	4	E	0	M1
NMTAP	19	0	2
NMTAP	19	48	2
NMTAP	19	96	3
NMTAP	19	144	3
NMHLD	19	240	1	96
NMTAP	19	240	4
NMTAP	19	336	3
NMTAP	20	48	2
NMTAP	20	48	3
NMHLD	20	96	2	96
NMHLD	20	96	3	96
NMTAP	20	288	4
NMTAP	20	288	5
NMTAP	21	0	3
NMTAP	21	0	6
NMHLD	21	192	1	96
NMTAP	21	288	0
NMTAP	21	336	0
BXTAP	22	48	7
BXTAP	22	96	7
BXHLD	22	192	0	96
BXHLD	22	192	6	96
NMTAP	23	0	0
NMTAP	23	0	7
NMTAP	23	96	0
NMTAP	23	96	7
NMTAP	23	192	6
NMHLD	23	240	6	96
NMTAP	23	336	7
NMTAP	24	48	4
NMTAP	24	48	5
NMTAP	24	96	4
NMTAP	24	96	5
NMTAP	24	192	3
NMTAP	24	192	6
NMTAP	24	288	2
NMHLD	25	0	2	96
NMHLD	25	0	3	96
NMHLD	25	192	1	96
NMTAP	25	288	0
NMTAP	25	336	0
NMTAP	26	48	2
NMTAP	26	48	3
EXTAP	26	96	2
EXTAP	26	96	3
EXTAP	26	192	1
EXTAP	26	192	4
NMTTP	26	288	4	E	0	M1
NMTAP	27	0	6
NMSTR	27	48	6
NMSCL	27	48	6	96	96	3
NMTAP	27	288	1
NMSTR	27	336	1
NMSI_	27	336	1	96	96	4
NMTAP	28	192	5
NMTAP	28	240	5
NMTAP	28	336	2
NMTAP	28	336	4
EXHLD	29	96	1	96
NMHLD	29	192	3	96
NMHLD	29	288	4	96
BRTAP	30	0	6
BRTAP	30	96	0
BRTAP	30	144	0
EXTAP	30	240	1
EXTAP	30	240	7
EXTAP	30	336	1
EXTAP	30	336	7
EXHLD	31	96	6	96
NMHLD	31	192	4	96
NMSTR	31	288	3
NMSUR	31	288	3	96	240	5
NMHLD	32	336	4	144
NMHLD	32	336	6	144
NMHLD	33	192	1	96
NMHLD	33	192	3	96
NMTAP	34	0	3
NMTAP	34	0	5
NMTAP	34	96	3
NMTAP	34	96	5
NMTAP	34	192	2
NMTAP	34	192	4
NMTAP	34	288	2
NMTAP	34	288	4
NMHLD	35	0	5	192
NMHLD	35	192	7	192
NMHLD	36	0	0	192
NMHLD	36	192	2	192
NMTAP	37	0	4
NMTAP	37	96	4
NMTAP	37	192	1
NMTAP	37	192	5
NMTAP	37	288	1
NMTAP	37	288	5
NMSTR	38	0	0
NMSCR	38	0	0	96	144	3
NMSTR	38	0	6
NMSCL	38	0	6	96	144	3
EXTAP	39	64	3
EXTAP	39	128	4
EXTAP	39	192	2
EXTAP	39	192	5
EXTAP	39	240	2
EXTAP	39	240	5
NMTAP	39	336	3
NMTAP	39	336	4
NMTTP	40	96	0	C	1	M1
NMTTP	40	96	2	B	0	M1
NMTTP	40	96	5	B	0	M1
EXTAP	40	288	0
EXTAP	40	288	7
EXHLD	41	0	0	96
EXHLD	41	0	7	96
NMTAP	41	192	0
NMTAP	41	192	1
NMTAP	41	288	4
NMTAP	42	0	1
NMTAP	42	0	7
NMTAP	42	96	3
NMTAP	42	192	0
NMTAP	42	192	6
NMTAP	42	288	4
NMTAP	43	0	6
NMTAP	43	0	7
NMTAP	43	96	3
NMTAP	43	192	0
NMTAP	43	192	6
NMTAP	43	288	4
NMTAP	44	0	1
NMTAP	44	0	7
NMTAP	44	96	3
NMTAP	44	192	0
NMTAP	44	192	1
NMTAP	44	288	0
NMTAP	44	288	1
NMTAP	45	0	2
NMTAP	45	0	3
NMTAP	45	96	2
NMTAP	45	96	3
NMTAP	45	192	4
NMTAP	45	192	5
NMTAP	45	288	4
NMTAP	45	288	5
NMTAP	46	0	6
NMTAP	46	0	7
NMTAP	46	96	6
NMTAP	46	96	7
NMTAP	46	192	0
NMTAP	46	192	5
NMTAP	46	288	1
NMTAP	46	288	4
NMHLD	47	0	2	96
NMHLD	47	0	3	96
NMTAP	47	144	3
NMTAP	47	144	4
NMSTR	47	240	4
NMSUR	47	240	4	96	240	3
NMSTR	47	240	5
NMSCR	47	240	5	96	240	2
EXTAP	48	288	1
EXTAP	48	288	3
NMTAP	49	0	4
NMTAP	49	96	6
NMTAP	49	96	7
NMTAP	49	192	3
NMTAP	49	288	0
NMTAP	49	288	6
NMTAP	50	0	4
NMTAP	50	96	1
NMTAP	50	96	7
NMTAP	50	192	3
NMTAP	50	288	0
NMTAP	50	288	1
NMTAP	51	0	4
NMTAP	51	96	1
NMTAP	51	96	7
NMTAP	51	192	3
NMTAP	51	288	0
NMTAP	51	288	6
NMTAP	52	0	4
NMTAP	52	96	6
NMTAP	52	96	7
NMTAP	52	192	3
NMTAP	52	288	0
NMTAP	52	288	6
NMHLD	53	0	1	384
NMTAP	53	192	3
NMTAP	53	288	4
NMHLD	54	0	5	384
NMTAP	54	192	4
NMTAP	54	288	3
NMHLD	55	0	2	384
NMTAP	55	192	3
NMTAP	55	288	4
NMTAP	56	0	5
NMSTR	56	96	2
NMSXR	56	96	2	96	480	4
NMSTR	56	96	5
NMSXL	56	96	5	96	480	3
NMTTP	58	288	2	B	0	M1
NMTTP	58	288	5	B	0	M1
NMTTP	59	0	0	C	1	M1
EXTAP	59	192	0
EXTAP	59	192	7
EXTAP	59	240	0
EXTAP	59	240	7
NMHLD	59	336	6	96
NMTAP	60	48	7
NMTAP	60	144	1
NMHLD	60	192	1	96
NMTAP	60	288	0
NMTAP	61	0	2
NMTAP	61	96	1
NMTAP	61	96	3
NMTAP	61	192	4
NMTAP	61	288	3
NMTAP	61	288	5
NMHLD	62	0	6	96
NMHLD	62	96	4	96
NMHLD	62	192	3	96
NMSTR	62	288	1
NMSUR	62	288	1	96	96	5
EXTAP	63	192	0
EXTAP	63	192	7
EXTAP	63	240	0
EXTAP	63	240	7
NMHLD	63	336	1	96
NMTAP	64	48	0
NMTAP	64	144	6
NMHLD	64	192	6	96
NMTAP	64	288	7
NMTAP	65	0	5
NMTAP	65	96	4
NMTAP	65	96	6
NMTAP	65	144	4
NMTAP	65	144	6
NMTAP	65	240	2
NMSTR	65	240	4
NMSCR	65	240	4	96	288	3
NMTTP	65	336	0	C	1	M1
EXTAP	66	336	1
EXTAP	66	336	3
NMTAP	67	48	0
NMTAP	67	48	4
NMHLD	67	96	0	480
NMTAP	67	96	4
NMTTP	67	192	3	E	0	M1
NMTTP	67	288	4	E	0	M1
NMTTP	68	0	5	E	0	M1
NMTTP	68	96	6	E	0	M1
NMTTP	68	192	7	E	0	M1
NMTAP	68	336	4
NMTAP	68	336	6
NMTAP	69	48	3
NMTAP	69	48	7
NMTAP	69	96	3
NMHLD	69	96	7	480
NMTTP	69	192	5	E	0	M1
NMTTP	69	288	4	E	0	M1
NMTTP	70	0	3	E	0	M1
NMTTP	70	96	2	E	0	M1
NMTTP	70	192	1	E	0	M1
NMTAP	70	336	1
NMTAP	70	336	3
NMTAP	71	48	0
NMTAP	71	48	4
NMHLD	71	96	0	480
NMTAP	71	96	4
NMTTP	71	192	3	E	0	M1
NMTTP	71	288	4	E	0	M1
NMTTP	72	0	5	E	0	M1
NMTTP	72	96	6	E	0	M1
NMTTP	72	192	7	E	0	M1
NMHLD	73	0	4	96
NMHLD	73	0	6	96
NMTAP	73	144	4
NMTAP	73	144	6
NMHLD	73	288	1	96
NMHLD	73	288	3	96
NMTAP	74	48	1
NMTAP	74	48	3
NMTAP	74	192	0
NMTAP	74	192	1
NMSTR	74	240	0
NMSV_	74	240	0	96	48	5
NMSTR	74	240	1
NMSCR	74	240	1	96	48	4
EXHLD	75	96	6	96
NMHLD	75	192	4	96
NMHLD	75	288	3	96
EXTAP	76	0	1
EXTAP	76	96	7
EXTAP	76	144	7
EXTAP	76	240	0
EXTAP	76	240	6
EXTAP	76	336	0
EXTAP	76	336	6
EXHLD	77	96	1	96
NMHLD	77	192	3	96
NMSTR	77	288	4
NMSSL	77	288	4	96	192	0
NMHLD	78	336	1	144
NMHLD	78	336	3	144
NMHLD	79	192	4	96
NMHLD	79	192	6	96
NMTAP	80	0	2
NMTAP	80	0	4
NMTAP	80	96	2
NMTAP	80	96	4
NMTAP	80	192	3
NMTAP	80	192	5
NMTAP	80	288	3
NMTAP	80	288	5
NMHLD	81	0	2	192
NMHLD	81	192	0	192
NMHLD	82	0	7	192
NMHLD	82	192	5	192
BRTAP	83	0	3
BRTAP	83	96	3
BRTAP	83	192	2
BRTAP	83	192	4
BRSTR	83	288	3
NMSCL	83	288	3	96	96	0
BRSTR	83	288	4
NMSCR	83	288	4	96	96	7
BXHLD	84	192	1	96
BXHLD	84	192	6	96
EXTAP	85	64	0
EXTAP	85	128	7
EXTAP	85	192	1
EXTAP	85	192	6
EXTAP	85	240	1
EXTAP	85	240	6
NMTAP	85	336	3
NMTAP	85	336	4
NMTTP	86	96	0	C	1	M1
NMTTP	86	96	2	B	0	M1
NMTTP	86	96	5	B	0	M1
EXTAP	86	288	0
EXTAP	86	288	7
BXTAP	87	0	0
BXTAP	87	0	7
NMTAP	87	96	4
NMTAP	87	96	5
NMTAP	87	192	5
NMTAP	87	192	7
NMTAP	87	288	3
NMTAP	87	288	4
NMTAP	88	0	1
NMTAP	88	0	2
NMTAP	88	96	0
NMTAP	88	96	7
NMTAP	88	192	5
NMTAP	88	192	6
NMTAP	88	288	4
NMTAP	89	0	5
NMTAP	89	0	7
NMTAP	89	96	2
NMTAP	89	96	3
NMTAP	89	192	0
NMTAP	89	192	2
NMTAP	89	288	3
NMTAP	89	288	4
NMTAP	90	0	5
NMTAP	90	0	6
NMTAP	90	96	0
NMTAP	90	96	7
NMTAP	90	192	1
NMTAP	90	192	2
NMTAP	90	288	3
NMTAP	90	288	4
NMSTR	91	0	5
NMSCL	91	0	5	96	96	2
NMSTR	91	192	1
NMSCL	91	192	1	96	96	6
NMHLD	92	0	5	96
NMHLD	92	96	7	96
NMHLD	92	192	0	96
NMTAP	92	288	2
NMSTR	93	0	3
BRSF_	93	0	3	96	96	7
EXHLD	93	336	0	96
EXHLD	93	336	6	96
EXTAP	94	96	1
EXTAP	94	96	5
EXTAP	94	144	1
EXTAP	94	144	5
BXTAP	94	240	7
BXTAP	94	288	7
NMTAP	95	0	0
NMTAP	95	0	2
NMTAP	95	96	4
NMTAP	95	96	5
NMTAP	95	192	5
NMTAP	95	192	7
NMTAP	95	288	2
NMTAP	95	288	3
NMTAP	96	0	0
NMTAP	96	0	2
NMTAP	96	96	4
NMTAP	96	96	5
NMTAP	96	192	5
NMTAP	96	192	7
NMTAP	96	288	2
NMTAP	96	288	3
NMHLD	97	0	1	96
NMTAP	97	96	0
NMTAP	97	144	0
NMTAP	97	192	2
NMTAP	97	288	6
NMTAP	97	336	6
NMTAP	98	0	4
NMTAP	98	96	1
NMTAP	98	144	1
NMTAP	98	192	3
NMHLD	98	288	5	1152
NMTAP	99	0	4
NMTAP	99	96	4
NMTAP	99	192	4
NMTAP	99	288	4
NMTAP	100	0	6
NMTAP	100	96	6
NMTAP	100	192	6
NMTAP	100	288	6
NMTAP	101	0	7
NMTAP	101	96	7
NMTAP	101	192	7
NMSTR	101	288	7
NMSCL	101	288	7	96	288	0
NMHLD	103	0	0	96
NMHLD	103	0	1	96
NMHLD	103	192	6	96
NMHLD	103	192	7	96
NMHLD	104	0	0	96
NMHLD	104	0	2	96
NMHLD	104	192	5	96
NMHLD	104	192	7	96
NMTAP	105	0	1
NMTAP	105	0	3
NMTAP	105	96	3
NMTAP	105	96	4
NMTAP	105	192	4
NMTAP	105	192	6
NMTAP	105	288	0
NMTAP	105	288	7
NMTAP	105	336	0
NMTAP	105	336	7
NMTAP	106	48	2
NMTAP	106	48	5
NMHLD	106	96	2	480
NMHLD	106	96	5	480
NMSTR	107	288	3
NMSCL	107	288	3	96	480	4
NMTTP	108	0	0	C	1	M1
NMTAP	109	288	2
NMTAP	109	288	6
NMHLD	110	0	1	96
NMTAP	110	96	0
NMHLD	110	192	6	96
NMTAP	110	288	7
NMTAP	111	0	0
NMTAP	111	0	5
NMTAP	111	96	1
NMTAP	111	96	4
NMTAP	111	192	2
NMTAP	111	192	3
BRTAP	111	288	1
BRTAP	111	288	4
BXHLD	112	0	1	96
BXHLD	112	0	4	96
NMTAP	112	192	3
NMTAP	112	192	6
NMTAP	112	288	3
NMTAP	112	288	6
NMHLD	113	0	5	96
NMTAP	113	96	7
NMHLD	113	192	2	96
NMTAP	113	288	0
NMTAP	114	0	0
NMTAP	114	0	1
NMTAP	114	96	2
NMTAP	114	96	3
NMTAP	114	192	5
NMHLD	114	240	5	96
NMTAP	114	336	4
NMTAP	115	48	6
NMTAP	115	48	7
NMTAP	115	96	6
NMTAP	115	96	7
NMTAP	115	192	0
NMTAP	115	192	1
NMSTR	115	288	2
NMSI_	115	288	2	96	48	7
NMSTR	115	288	3
NMSI_	115	288	3	96	48	6

T_REC_TAP	336
T_REC_BRK	9
T_REC_XTP	51
T_REC_BXX	6
T_REC_HLD	79
T_REC_XHO	10
T_REC_BHO	0
T_REC_BXH	6
T_REC_STR	24
T_REC_BST	2
T_REC_XST	0
T_REC_XBS	0
T_REC_TTP	28
T_REC_THO	0
T_REC_SLD	25
T_REC_BSL	1
T_REC_ALL	577
T_NUM_TAP	439
T_NUM_BRK	24
T_NUM_HLD	89
T_NUM_SLD	25
T_NUM_ALL	577
T_JUDGE_TAP	456
T_JUDGE_HLD	304
T_JUDGE_SLD	26
T_JUDGE_ALL	786
TTM_EACHPAIRS	175
TTM_SCR_TAP	219500
TTM_SCR_BRK	62400
TTM_SCR_HLD	89000
TTM_SCR_SLD	37500
TTM_SCR_ALL	408400
TTM_SCR_S	393850
TTM_SCR_SS	406000
TTM_RAT_ACV	10059

