VERSION	0.00.00	1.05.00
FES_MODE	0
BPM_DEF	180.000	180.000	180.000	180.000
MET_DEF	4	4
RESOLUTION	384
CLK_DEF	384
COMPATIBLE_CODE	MA2

BPM	0	0	180.000
MET	0	0	4	4

NMSTR	2	0	6
NMSI_	2	0	6	96	288	3
NMSTR	4	0	1
NMSI_	4	0	1	96	288	4
NMSTR	6	0	6
NMSI_	6	0	6	96	288	2
NMSTR	8	0	1
NMSI_	8	0	1	96	288	5
NMSTR	10	0	7
NMSI_	10	0	7	96	288	3
NMTAP	13	0	3
NMTAP	13	96	3
NMTAP	13	192	2
NMTAP	14	0	1
NMTAP	14	96	1
NMTAP	14	192	0
NMTAP	15	0	7
NMTAP	15	96	7
NMTAP	15	192	6
NMTAP	16	0	5
NMTAP	16	96	5
NMTAP	16	192	4
NMTAP	16	192	5
NMTAP	17	0	4
NMTAP	17	96	4
NMTAP	17	192	5
NMTAP	18	0	6
NMTAP	18	96	6
NMTAP	18	192	7
NMTAP	19	0	0
NMTAP	19	96	0
NMTAP	19	192	1
NMTAP	20	0	2
NMTAP	20	96	2
NMTAP	20	192	2
NMTAP	20	192	3
NMTAP	21	0	2
NMTAP	21	96	2
NMTAP	21	192	2
NMTAP	21	192	3
NMTAP	22	0	1
NMTAP	22	96	1
NMTAP	22	192	0
NMTAP	22	192	1
NMTAP	23	0	7
NMTAP	23	96	7
NMTAP	23	192	6
NMTAP	23	192	7
NMTAP	24	0	4
NMTAP	24	0	5
NMTAP	24	96	4
NMTAP	24	96	5
NMTAP	24	192	4
NMTAP	24	192	5
NMTAP	25	0	5
NMTAP	25	96	5
NMTAP	25	192	4
NMTAP	25	192	5
NMTAP	26	0	6
NMTAP	26	96	6
NMTAP	26	192	6
NMTAP	26	192	7
NMTAP	27	0	0
NMTAP	27	96	0
NMTAP	27	192	0
NMTAP	27	192	1
NMTAP	28	0	2
NMTAP	28	0	3
NMTAP	28	96	2
NMTAP	28	96	3
NMTAP	28	192	2
NMTAP	28	192	3
NMHLD	29	0	2	192
NMHLD	29	192	3	192
NMHLD	30	0	4	192
NMTAP	30	192	5
NMHLD	31	0	5	192
NMHLD	31	192	4	192
NMHLD	32	0	3	192
NMTAP	32	192	2
NMHLD	33	0	1	192
NMHLD	33	192	2	192
NMHLD	34	0	3	192
NMTAP	34	192	4
NMHLD	35	0	6	192
NMHLD	35	192	5	192
NMHLD	36	0	4	192
NMTAP	36	192	3
NMTTP	37	0	1	B	0	L1
NMTTP	37	96	2	B	0	L1
NMTTP	37	192	3	B	0	L1
NMTTP	38	0	6	B	0	L1
NMTTP	38	96	5	B	0	L1
NMTTP	38	192	4	B	0	L1
NMTTP	39	0	0	C	1	L1
NMTAP	41	0	2
NMTAP	41	96	2
NMTAP	41	192	1
NMTAP	41	288	1
NMTAP	42	0	0
NMTAP	42	96	0
NMTAP	42	192	6
NMTAP	42	192	7
NMTAP	43	0	5
NMTAP	43	96	5
NMTAP	43	192	6
NMTAP	43	288	6
NMTAP	44	0	7
NMTAP	44	96	7
NMTAP	44	192	0
NMTAP	44	192	1
NMTAP	45	0	1
NMTAP	45	96	1
NMTAP	45	192	2
NMTAP	45	288	2
NMTAP	46	0	3
NMTAP	46	96	3
NMTAP	46	192	4
NMTAP	46	192	5
NMTAP	47	0	6
NMTAP	47	96	6
NMTAP	47	192	5
NMTAP	47	288	5
NMTAP	48	0	4
NMTAP	48	96	4
NMTAP	48	192	2
NMTAP	48	192	3
BRTAP	49	0	2
NMTAP	49	96	2
NMTAP	49	192	1
NMTAP	49	288	1
NMTAP	50	0	0
NMTAP	50	96	0
NMTAP	50	192	6
NMTAP	50	192	7
NMTAP	51	0	5
NMTAP	51	96	5
NMTAP	51	192	6
NMTAP	51	288	6
NMTAP	52	0	7
NMTAP	52	96	7
NMTAP	52	192	0
NMTAP	52	192	1
NMTAP	53	0	1
NMTAP	53	96	1
NMTAP	53	192	2
NMTAP	53	288	2
NMTAP	54	0	3
NMTAP	54	96	3
NMTAP	54	192	4
NMTAP	54	192	5
NMTAP	55	0	6
NMTAP	55	96	6
NMTAP	55	192	5
NMTAP	55	288	5
NMTAP	56	0	4
NMTAP	56	96	4
NMHLD	56	192	3	768
NMHLD	56	192	4	768
NMTAP	59	0	3
NMTAP	59	96	2
NMTAP	59	192	1
NMTAP	59	288	0
NMTAP	60	0	7
NMTAP	60	96	6
NMTAP	60	192	4
NMTAP	60	192	5
NMTAP	61	0	4
NMTAP	61	96	5
NMTAP	61	192	6
NMTAP	61	288	7
NMTAP	62	0	0
NMTAP	62	96	1
NMTAP	62	192	2
NMTAP	62	192	3
NMTAP	63	0	3
NMTAP	63	96	2
NMTAP	63	192	1
NMTAP	63	288	0
NMTAP	64	0	7
NMTAP	64	96	6
NMTAP	64	192	5
NMTAP	64	288	4
NMTAP	65	0	3
NMTAP	65	96	2
NMTAP	65	192	1
NMTAP	65	288	0
NMTAP	66	0	0
NMTAP	66	0	7
NMTAP	66	96	0
NMTAP	66	96	7
NMTAP	66	192	0
NMTAP	66	192	7
NMHLD	67	0	1	192
NMTAP	67	192	0
NMTAP	68	0	1
NMTAP	68	96	1
NMTAP	68	192	0
NMTAP	68	192	1
NMHLD	69	0	2	192
NMTAP	69	192	3
NMTAP	70	0	2
NMTAP	70	96	2
NMTAP	70	192	2
NMTAP	70	192	3
NMHLD	71	0	5	192
NMTAP	71	192	4
NMTAP	72	0	5
NMTAP	72	96	5
NMTAP	72	192	4
NMTAP	72	192	5
NMHLD	73	0	6	192
NMTAP	73	192	7
NMTAP	74	0	6
NMTAP	74	96	6
NMTAP	74	192	6
NMTAP	74	192	7
NMTAP	75	0	5
NMTAP	75	96	5
NMTAP	75	192	5
NMTAP	75	288	5
NMTAP	76	0	6
NMTAP	76	96	6
NMTAP	76	192	6
NMTAP	76	288	6
NMTAP	77	0	7
NMTAP	77	96	7
NMTAP	77	192	7
NMTAP	77	288	7
NMTAP	78	0	0
NMTAP	78	0	1
NMTAP	78	192	0
NMTAP	78	192	1
NMTAP	79	0	2
NMTAP	79	96	2
NMTAP	79	192	2
NMTAP	79	288	2
NMTAP	80	0	1
NMTAP	80	96	1
NMTAP	80	192	1
NMTAP	80	288	1
NMTAP	81	0	0
NMTAP	81	96	0
NMTAP	81	192	0
NMTAP	81	288	0
NMTAP	82	0	6
NMTAP	82	0	7
NMSTR	83	0	6
NMSI_	83	0	6	96	288	3
NMSTR	83	0	7
NMSI_	83	0	7	96	288	2
NMSTR	85	0	0
NMSI_	85	0	0	96	288	5
NMSTR	85	0	1
NMSI_	85	0	1	96	288	4
BXTAP	87	0	5
NMTAP	87	96	5
NMTAP	87	192	6
NMTAP	87	192	7
NMTAP	87	288	6
NMTAP	87	288	7
NMTAP	88	0	0
NMTAP	88	96	0
NMTAP	88	192	0
NMTAP	88	192	1
NMTAP	89	0	2
NMTAP	89	96	2
NMTAP	89	192	0
NMTAP	89	192	1
NMTAP	89	288	0
NMTAP	89	288	1
NMTAP	90	0	7
NMTAP	90	96	7
NMTAP	90	192	6
NMTAP	90	192	7
NMTAP	91	0	6
NMTAP	91	96	6
NMTAP	91	192	4
NMTAP	91	192	5
NMTAP	91	288	4
NMTAP	91	288	5
NMTAP	92	0	3
NMTAP	92	96	3
NMTAP	92	192	2
NMTAP	92	192	3
NMTAP	93	0	1
NMTAP	93	96	1
NMTAP	93	192	2
NMTAP	93	192	3
NMTAP	93	288	2
NMTAP	93	288	3
NMTAP	94	0	4
NMTAP	94	96	4
NMTAP	94	192	4
NMTAP	94	192	5
NMTAP	95	0	5
NMTAP	95	96	5
NMTAP	95	192	6
NMTAP	95	192	7
NMTAP	95	288	6
NMTAP	95	288	7
NMTAP	96	0	0
NMTAP	96	96	0
NMTAP	96	192	0
NMTAP	96	192	1
NMTAP	96	288	0
NMTAP	96	288	1
NMTAP	97	0	2
NMTAP	97	96	2
NMTAP	97	192	0
NMTAP	97	192	1
NMTAP	97	288	0
NMTAP	97	288	1
NMTAP	98	0	7
NMTAP	98	96	7
NMTAP	98	192	6
NMTAP	98	192	7
NMTAP	99	0	6
NMTAP	99	96	6
NMTAP	99	192	4
NMTAP	99	192	5
NMTAP	99	288	4
NMTAP	99	288	5
NMTAP	100	0	3
NMTAP	100	96	3
NMTAP	100	192	2
NMTAP	100	192	3
NMTAP	100	288	2
NMTAP	100	288	3
NMTAP	101	0	1
NMTAP	101	96	1
NMTAP	101	192	2
NMTAP	101	192	3
NMTAP	101	288	2
NMTAP	101	288	3
NMTAP	102	0	4
NMTAP	102	96	4
NMTAP	102	192	4
NMTAP	102	192	5
NMTAP	103	0	5
NMTAP	103	96	5
NMTAP	103	192	4
NMTAP	103	192	5
NMTAP	104	0	2
NMTAP	104	96	2
NMTAP	104	192	2
NMTAP	104	192	3
NMTTP	105	0	2	E	0	L1
NMTTP	105	96	3	E	0	L1
NMTTP	105	192	4	E	0	L1
NMTTP	105	288	5	E	0	L1
NMTTP	106	0	6	E	0	L1
NMTHO	106	96	0	672	C	1	L1
NMTAP	110	0	1
NMTAP	110	96	1
NMTAP	110	192	0
NMTAP	110	192	1
NMTAP	111	0	6
NMTAP	111	96	6
NMTAP	111	192	6
NMTAP	111	192	7
NMTAP	112	0	5
NMTAP	112	96	6
NMTAP	112	192	7
NMTAP	112	288	0
NMTAP	113	0	1
NMTAP	113	96	2
NMTAP	113	192	3
NMTAP	113	192	4
NMTAP	114	0	3
NMTAP	114	0	4
NMTAP	114	96	3
NMTAP	114	96	4
NMTAP	114	192	2
NMTAP	114	192	5
NMTAP	114	288	2
NMTAP	114	288	5
NMTAP	115	0	1
NMTAP	115	0	6
NMTAP	115	96	1
NMTAP	115	96	6
NMTAP	115	192	0
NMTAP	115	192	7
NMTAP	115	288	0
NMTAP	115	288	7
BXTAP	116	0	1
BXTAP	116	0	6

T_REC_TAP	334
T_REC_BRK	1
T_REC_XTP	0
T_REC_BXX	3
T_REC_HLD	18
T_REC_XHO	0
T_REC_BHO	0
T_REC_BXH	0
T_REC_STR	9
T_REC_BST	0
T_REC_XST	0
T_REC_XBS	0
T_REC_TTP	12
T_REC_THO	1
T_REC_SLD	9
T_REC_BSL	0
T_REC_ALL	387
T_NUM_TAP	355
T_NUM_BRK	4
T_NUM_HLD	19
T_NUM_SLD	9
T_NUM_ALL	387
T_JUDGE_TAP	359
T_JUDGE_HLD	110
T_JUDGE_SLD	9
T_JUDGE_ALL	478
TTM_EACHPAIRS	76
TTM_SCR_TAP	177500
TTM_SCR_BRK	10400
TTM_SCR_HLD	19000
TTM_SCR_SLD	13500
TTM_SCR_ALL	220400
TTM_SCR_S	213400
TTM_SCR_SS	220000
TTM_RAT_ACV	10018

