VERSION	0.00.00	1.05.00
FES_MODE	0
BPM_DEF	180.000	180.000	180.000	180.000
MET_DEF	4	4
RESOLUTION	384
CLK_DEF	384
COMPATIBLE_CODE	MA2

BPM	0	0	180.000
MET	0	0	4	4

NMTAP	2	0	7
NMTAP	3	0	6
NMTAP	4	0	5
NMTAP	5	0	4
NMTAP	6	0	3
NMTAP	7	0	2
NMTAP	8	0	1
NMTAP	9	0	0
NMTAP	10	0	0
NMTAP	10	0	7
NMHLD	11	0	0	320
NMHLD	11	0	7	320
NMTAP	13	0	0
NMTAP	13	192	0
NMTAP	14	0	1
NMTAP	14	192	1
NMTAP	15	0	2
NMTAP	15	192	2
NMTAP	16	0	2
NMTAP	16	0	3
NMTAP	17	0	4
NMTAP	17	192	4
NMTAP	18	0	5
NMTAP	18	192	5
NMTAP	19	0	6
NMTAP	19	192	6
NMTAP	20	0	6
NMTAP	20	0	7
NMTAP	21	0	7
NMTAP	21	192	7
NMTAP	22	0	6
NMTAP	22	192	6
NMTAP	23	0	5
NMTAP	23	192	5
NMTAP	24	0	4
NMTAP	24	0	5
NMTAP	25	0	3
NMTAP	25	192	3
NMTAP	26	0	2
NMTAP	26	192	2
NMTAP	27	0	1
NMTAP	27	192	1
NMTAP	28	0	0
NMTAP	28	0	1
NMTTP	29	0	0	B	0	L1
NMTTP	30	0	7	B	0	L1
NMTTP	31	0	1	B	0	L1
NMTTP	32	0	6	B	0	L1
NMTTP	33	0	2	B	0	L1
NMTTP	34	0	5	B	0	L1
NMTTP	35	0	3	B	0	L1
NMTTP	36	0	4	B	0	L1
NMTTP	37	0	4	E	0	L1
NMTHO	38	0	0	448	C	1	L1
BXTAP	41	0	0
EXTAP	41	96	0
EXTAP	41	192	0
NMTAP	42	0	1
NMTAP	42	192	1
NMTAP	43	0	2
NMTAP	43	96	2
NMTAP	43	192	2
NMTAP	44	0	2
NMTAP	44	0	3
NMTAP	45	0	4
NMTAP	45	96	4
NMTAP	45	192	4
NMTAP	46	0	5
NMTAP	46	192	5
NMTAP	47	0	6
NMTAP	47	96	6
NMTAP	47	192	6
EXTAP	48	0	6
EXTAP	48	0	7
NMTAP	49	0	7
NMTAP	49	96	7
NMTAP	49	192	7
NMTAP	50	0	6
NMTAP	50	192	6
NMTAP	51	0	5
NMTAP	51	96	5
NMTAP	51	192	5
NMTAP	52	0	4
NMTAP	52	0	5
NMTAP	53	0	3
NMTAP	53	96	3
NMTAP	53	192	3
NMTAP	54	0	2
NMTAP	54	192	2
NMTAP	55	0	1
NMTAP	55	96	1
NMTAP	55	192	1
NMTAP	56	0	0
NMTAP	56	0	1
NMHLD	57	0	0	384
NMHLD	57	0	7	384
BRTAP	59	0	0
NMTAP	59	96	0
NMTAP	59	192	0
NMTAP	60	0	0
NMTAP	60	0	1
NMTAP	60	192	0
NMTAP	60	192	1
NMTAP	61	0	2
NMTAP	61	96	2
NMTAP	61	192	2
NMTAP	62	0	3
NMTAP	62	0	4
NMTAP	62	192	3
NMTAP	62	192	4
NMTAP	63	0	4
NMTAP	63	96	4
NMTAP	63	192	4
NMTAP	64	0	4
NMTAP	64	0	5
NMTAP	64	192	4
NMTAP	64	192	5
NMTAP	65	0	6
NMTAP	65	96	6
NMTAP	65	192	6
EXTAP	66	0	0
EXTAP	66	0	7
EXSTR	67	0	7
NMSI_	67	0	7	96	288	3
EXSTR	69	0	0
NMSI_	69	0	0	96	288	4
EXSTR	71	0	6
NMSI_	71	0	6	96	288	2
NMSTR	73	0	1
NMSI_	73	0	1	96	288	5
NMTTP	75	0	7	B	0	L1
NMTTP	76	0	0	B	0	L1
NMTTP	77	0	6	B	0	L1
NMTTP	78	0	1	B	0	L1
NMTTP	79	0	5	B	0	L1
NMTTP	80	0	2	B	0	L1
NMTTP	81	0	4	B	0	L1
NMTTP	82	0	3	B	0	L1
NMTTP	83	0	4	E	0	L1
NMTHO	84	0	0	448	C	1	L1
BXTAP	87	0	0
EXTAP	87	96	0
EXTAP	87	192	0
NMTAP	88	0	1
NMTAP	88	96	1
NMTAP	88	192	1
NMTAP	89	0	2
NMTAP	89	96	2
NMTAP	89	192	2
NMTAP	90	0	2
NMTAP	90	0	3
NMTAP	90	192	2
NMTAP	90	192	3
NMTAP	91	0	4
NMTAP	91	96	4
NMTAP	91	192	4
NMTAP	92	0	5
NMTAP	92	96	5
NMTAP	92	192	5
NMTAP	93	0	6
NMTAP	93	96	6
NMTAP	93	192	6
NMTAP	94	0	6
NMTAP	94	0	7
NMTAP	94	192	6
NMTAP	94	192	7
NMTAP	95	0	7
NMTAP	95	96	7
NMTAP	95	192	7
NMTAP	96	0	6
NMTAP	96	96	6
NMTAP	96	192	6
NMTAP	97	0	5
NMTAP	97	96	5
NMTAP	97	192	5
NMTAP	98	0	4
NMTAP	98	96	4
NMTAP	98	192	3
NMTAP	98	192	4
NMTAP	99	0	3
NMTAP	99	96	3
NMTAP	99	192	3
NMTAP	100	0	2
NMTAP	100	96	2
NMTAP	100	192	2
NMTAP	101	0	1
NMTAP	101	96	1
NMTAP	101	192	1
NMTAP	102	0	0
NMTAP	102	96	0
NMTAP	102	192	0
NMTAP	102	192	7
NMTAP	103	0	6
NMTAP	103	96	6
NMTAP	103	192	6
NMTAP	103	192	7
NMTAP	104	0	1
NMTAP	104	96	1
NMTAP	104	192	0
NMTAP	104	192	1
NMTAP	105	0	7
NMTAP	105	96	7
NMTAP	105	192	0
NMTAP	105	192	7
EXHLD	106	0	0	384
EXHLD	106	0	7	384
BRTAP	108	0	0
NMTAP	108	96	0
NMTAP	108	192	0
NMTAP	109	0	0
NMTAP	109	0	1
NMTAP	109	96	0
NMTAP	109	96	1
NMTAP	109	192	0
NMTAP	109	192	1
NMTAP	110	0	2
NMTAP	110	96	2
NMTAP	110	192	2
NMTAP	111	0	2
NMTAP	111	0	3
NMTAP	111	96	2
NMTAP	111	96	3
NMTAP	111	192	2
NMTAP	111	192	3
NMTAP	112	0	4
NMTAP	112	96	4
NMTAP	112	192	4
NMTAP	113	0	4
NMTAP	113	0	5
NMTAP	113	96	4
NMTAP	113	96	5
NMTAP	113	192	4
NMTAP	113	192	5
NMTAP	114	0	6
NMTAP	114	96	6
NMTAP	114	192	6
NMTAP	115	0	6
NMTAP	115	0	7
NMTAP	115	96	6
NMTAP	115	96	7
NMTAP	115	192	6
NMTAP	115	192	7
BRTAP	116	0	0
BRTAP	116	0	7

T_REC_TAP	196
T_REC_BRK	4
T_REC_XTP	8
T_REC_BXX	2
T_REC_HLD	4
T_REC_XHO	2
T_REC_BHO	0
T_REC_BXH	0
T_REC_STR	1
T_REC_BST	0
T_REC_XST	3
T_REC_XBS	0
T_REC_TTP	18
T_REC_THO	2
T_REC_SLD	4
T_REC_BSL	0
T_REC_ALL	244
T_NUM_TAP	226
T_NUM_BRK	6
T_NUM_HLD	8
T_NUM_SLD	4
T_NUM_ALL	244
T_JUDGE_TAP	232
T_JUDGE_HLD	66
T_JUDGE_SLD	4
T_JUDGE_ALL	302
TTM_EACHPAIRS	41
TTM_SCR_TAP	113000
TTM_SCR_BRK	15600
TTM_SCR_HLD	8000
TTM_SCR_SLD	6000
TTM_SCR_ALL	142600
TTM_SCR_S	137750
TTM_SCR_SS	142000
TTM_RAT_ACV	10042

