VERSION	0.00.00	1.05.00
FES_MODE	0
BPM_DEF	115.000	115.000	115.000	115.000
MET_DEF	4	4
RESOLUTION	384
CLK_DEF	384
COMPATIBLE_CODE	MA2

BPM	0	0	115.000
MET	0	0	4	4

NMTHO	1	0	0	288	C	0	M1
NMTTP	1	0	3	A	0	M1
BRTAP	1	288	2
NMHLD	2	0	1	192
NMTTP	2	96	4	B	0	M1
NMHLD	2	192	3	192
NMTTP	2	288	0	A	0	M1
NMHLD	3	0	7	192
NMTTP	3	96	6	A	0	M1
NMTAP	3	192	5
NMTAP	3	240	5
NMTAP	3	288	5
NMTAP	3	288	7
NMTTP	4	0	4	A	0	M1
NMHLD	4	0	5	96
NMTTP	4	96	5	B	0	M1
NMTTP	4	104	6	B	0	M1
NMHLD	4	192	2	96
NMTTP	4	192	3	A	0	M1
NMTTP	4	288	2	B	0	M1
NMTTP	4	296	1	B	0	M1
NMTAP	5	0	2
NMTAP	5	0	5
NMTTP	5	96	1	B	0	M1
NMTTP	5	104	6	B	0	M1
NMTTP	5	192	7	B	0	M1
NMTTP	5	200	0	B	0	M1
NMTTP	5	288	0	D	0	M1
NMSTR	6	0	2
NMSXL	6	0	2	96	192	5
NMTAP	6	96	6
NMTAP	6	144	6
NMTAP	6	192	7
NMTAP	6	288	0
NMSTR	7	0	1
NMSXR	7	0	1	96	192	6
NMTAP	7	96	4
NMTAP	7	144	4
NMTAP	7	192	3
NMTAP	7	288	2
NMTAP	8	0	2
NMTAP	8	0	4
NMTAP	8	48	3
NMTAP	8	48	5
NMSTR	8	96	4
NMSCL	8	96	4	96	96	7
NMSTR	8	96	6
NMSUL	8	96	6	96	96	3
EXTAP	8	336	3
EXTAP	8	336	7
BRTAP	9	0	3
BRSTR	9	0	7
NMSCR	9	0	7	96	48	3
NMSTR	9	48	3
NMSI_	9	48	3	96	24	5
NMTAP	9	96	4
NMTAP	9	144	5
CNSV_	9	168	5	0	72	4
NMTAP	9	192	6
NMTAP	9	240	7
NMTAP	9	288	0
NMTAP	9	336	0
NMTAP	9	336	4
NMTAP	10	0	2
NMSTR	10	0	6
NMSCL	10	0	6	96	48	2
NMSTR	10	48	2
NMSUL	10	48	2	96	96	3
NMTAP	10	96	1
NMTAP	10	144	1
NMTAP	10	192	0
NMTAP	10	240	7
EXTAP	10	288	3
EXTAP	10	288	7
NMTAP	11	0	2
NMSTR	11	0	6
NMSI_	11	0	6	96	48	3
NMTAP	11	48	0
NMTAP	11	48	7
NMTAP	11	96	6
NMTAP	11	144	7
NMSTR	11	192	1
NMSI_	11	192	1	96	48	4
NMTAP	11	192	5
NMTAP	11	240	0
NMTAP	11	240	7
NMTAP	11	288	1
NMTAP	11	336	0
NMTAP	12	0	3
NMSTR	12	0	7
NMSI_	12	0	7	96	48	3
NMTAP	12	48	2
NMTAP	12	48	6
BRTAP	12	96	0
BRTAP	12	96	7
NMSTR	12	192	0
NMSI_	12	192	0	96	48	4
NMTAP	12	192	4
NMTAP	12	240	1
NMTAP	12	240	5
BRTAP	12	288	0
BRTAP	12	288	7
EXSTR	13	0	0
NMSCL	13	0	0	96	48	4
EXTAP	13	0	4
NMSTR	13	48	4
NMSI_	13	48	4	96	24	2
NMTAP	13	96	3
NMTAP	13	144	2
CNSV_	13	168	2	0	72	3
NMTAP	13	192	1
NMTAP	13	240	0
NMTAP	13	288	7
NMTAP	13	336	3
NMTAP	13	336	7
NMSTR	14	0	1
NMSCR	14	0	1	96	48	5
NMTAP	14	0	5
NMSTR	14	48	5
NMSUR	14	48	5	96	96	4
NMTAP	14	96	6
NMTAP	14	144	6
NMTAP	14	192	7
NMTAP	14	240	0
EXTAP	14	288	0
EXTAP	14	288	4
NMTAP	15	0	2
NMTAP	15	0	6
NMSTR	15	48	2
NMSXR	15	48	2	96	144	3
NMSTR	15	48	6
NMSXR	15	48	6	96	144	7
NMTTP	15	336	3	A	0	M1
NMTTP	15	352	4	A	0	M1
EXHLD	16	0	6	96
NMTAP	16	96	7
NMTAP	16	144	7
NMTAP	16	168	6
NMTAP	16	192	7
NMTAP	16	240	6
NMTAP	16	288	6
NMTAP	16	288	7
NMTAP	16	336	5
NMTAP	16	360	5
NMHLD	17	0	4	96
NMTAP	17	96	6
NMTAP	17	144	5
NMTAP	17	168	4
NMTAP	17	192	5
NMTAP	17	240	4
NMTAP	17	240	5
NMTAP	17	288	3
NMTAP	17	288	4
NMTAP	17	336	1
NMTAP	17	360	3
NMHLD	18	0	1	96
NMTAP	18	96	0
NMTAP	18	144	0
NMTAP	18	168	1
NMTAP	18	192	0
NMTAP	18	240	1
NMTAP	18	288	0
NMTAP	18	288	1
NMTAP	18	336	2
NMTAP	18	360	2
NMHLD	19	0	3	96
NMTAP	19	96	1
NMTAP	19	144	2
NMTAP	19	168	3
NMTAP	19	192	2
NMTAP	19	240	2
NMTAP	19	240	3
NMTAP	19	288	0
NMTAP	19	288	5
EXTAP	20	0	6
NMTAP	20	32	6
NMTAP	20	64	6
EXTAP	20	96	4
NMTAP	20	128	4
NMTAP	20	160	4
EXSTR	20	192	2
NMSCR	20	192	2	96	48	5
NMTAP	20	224	2
NMTAP	20	256	2
BXTAP	20	288	0
EXTAP	21	0	2
NMTAP	21	32	2
NMTAP	21	64	2
EXTAP	21	96	0
NMTAP	21	128	0
NMTAP	21	160	0
EXTAP	21	192	7
NMTAP	21	224	7
NMTAP	21	256	7
BXTAP	21	288	0
BXTAP	21	288	5
EXTAP	22	0	6
NMTAP	22	32	6
NMTAP	22	64	6
EXTAP	22	96	4
NMTAP	22	128	4
NMTAP	22	160	4
EXSTR	22	192	2
NMSCR	22	192	2	96	48	5
NMTAP	22	224	2
NMTAP	22	256	2
BXTAP	22	288	0
EXTAP	23	0	1
NMTAP	23	32	1
NMTAP	23	64	1
EXTAP	23	96	3
NMTAP	23	128	3
NMTAP	23	160	3
EXTAP	23	192	5
NMTAP	23	224	5
NMTAP	23	256	5
BRTAP	23	288	0
BRTAP	23	288	7
NMSTR	24	0	0
NMTTP	24	0	0	C	0	M1
NMSCL	24	0	0	96	48	5
NMSCR	24	0	0	96	48	3
NMTTP	24	192	0	C	0	M1
NMSTR	24	192	4
NMSCL	24	192	4	96	48	1
NMSCR	24	192	4	96	48	7
NMSTR	25	0	0
NMSLR	25	0	0	96	96	4
NMTAP	25	0	6
EXTAP	25	96	0
NMSTR	25	96	4
NMSSL	25	96	4	96	96	0
NMTAP	25	192	5
NMTTP	25	288	6	A	0	M1
NMTTP	25	288	7	E	0	M1
NMSTR	26	0	1
NMSI_	26	0	1	96	48	5
NMTAP	26	0	5
EXTAP	26	96	1
NMTAP	26	96	3
NMTAP	26	192	2
NMSTR	26	192	6
NMSI_	26	192	6	96	48	2
NMTAP	26	288	4
EXTAP	26	288	6
NMSTR	27	0	3
NMSCR	27	0	3	96	48	6
NMTAP	27	0	4
NMTAP	27	96	0
EXSTR	27	96	3
NMSCL	27	96	3	96	48	0
EXTAP	27	192	3
NMTAP	27	192	6
NMTTP	27	288	5	B	0	M1
NMTTP	27	288	6	B	0	M1
NMSTR	28	0	2
NMSI_	28	0	2	96	48	0
NMSTR	28	0	7
NMSI_	28	0	7	96	48	3
EXTAP	28	96	2
EXTAP	28	96	7
NMSTR	28	192	1
NMSI_	28	192	1	96	48	3
NMSTR	28	192	4
NMSI_	28	192	4	96	48	0
EXTAP	28	288	1
EXTAP	28	288	4
NMSTR	29	0	1
NMSUL	29	0	1	96	48	4
NMTAP	29	0	6
EXTAP	29	96	1
NMSTR	29	96	4
NMSCL	29	96	4	96	48	1
NMTTP	29	192	5	A	0	M1
NMTTP	29	192	6	D	0	M1
NMTTP	29	288	6	A	0	M1
NMTTP	29	288	7	D	0	M1
NMSTR	30	0	1
NMSV_	30	0	1	96	48	4
NMSTR	30	0	7
NMSCL	30	0	7	96	48	4
NMTAP	30	48	0
NMTAP	30	48	2
EXTAP	30	96	1
EXTAP	30	96	7
NMSTR	30	192	0
NMSCR	30	192	0	96	48	3
NMSTR	30	192	6
NMSV_	30	192	6	96	48	3
NMTAP	30	240	5
NMTAP	30	240	7
EXTAP	30	288	0
EXTAP	30	288	6
NMTAP	31	0	2
NMTAP	31	48	1
NMTAP	31	48	3
NMSTR	31	96	2
NMSUR	31	96	2	96	96	4
NMSTR	31	96	4
NMSCR	31	96	4	96	96	1
EXTAP	31	336	0
EXTAP	31	336	4
BRTAP	32	0	0
BRSTR	32	0	4
NMSCL	32	0	4	96	48	0
NMSTR	32	48	0
NMSI_	32	48	0	96	24	6
NMTAP	32	96	7
NMTAP	32	144	6
CNSV_	32	168	6	0	72	7
NMTAP	32	192	5
NMTAP	32	240	4
NMTAP	32	288	3
NMTAP	32	336	3
NMTAP	32	336	7
NMTAP	33	0	1
NMSTR	33	0	5
NMSCR	33	0	5	96	48	1
NMSTR	33	48	1
NMSUR	33	48	1	96	96	0
NMTAP	33	96	2
NMTAP	33	144	2
NMTAP	33	192	3
NMTAP	33	240	4
EXTAP	33	288	0
EXTAP	33	288	4
NMTAP	34	0	1
NMSTR	34	0	5
NMSI_	34	0	5	96	48	0
NMTAP	34	48	3
NMTAP	34	48	4
NMTAP	34	96	5
NMTAP	34	144	4
NMSTR	34	192	2
NMSI_	34	192	2	96	48	7
NMTAP	34	192	6
NMTAP	34	240	3
NMTAP	34	240	4
NMTAP	34	288	2
NMTAP	34	336	3
NMTAP	35	0	0
NMSTR	35	0	4
NMSI_	35	0	4	96	48	0
NMTAP	35	48	1
NMTAP	35	48	5
BRTAP	35	96	3
BRTAP	35	96	4
NMSTR	35	192	3
NMSI_	35	192	3	96	48	7
NMTAP	35	192	7
NMTAP	35	240	2
NMTAP	35	240	6
BRTAP	35	288	3
BRTAP	35	288	4
EXSTR	36	0	3
NMSCR	36	0	3	96	48	7
EXTAP	36	0	7
NMSTR	36	48	7
NMSI_	36	48	7	96	24	1
NMTAP	36	96	0
NMTAP	36	144	1
CNSV_	36	168	1	0	72	0
NMTAP	36	192	2
NMTAP	36	240	3
NMTAP	36	288	4
NMTAP	36	336	0
NMTAP	36	336	4
NMSTR	37	0	2
NMSCL	37	0	2	96	48	6
NMTAP	37	0	6
NMSTR	37	48	6
NMSUL	37	48	6	96	96	7
NMTAP	37	96	5
NMTAP	37	144	5
NMTAP	37	192	4
NMTAP	37	240	3
EXTAP	37	288	3
EXTAP	37	288	7
NMSTR	38	0	1
NMSXL	38	0	1	96	144	0
NMSTR	38	0	5
NMSXL	38	0	5	96	144	4
NMTAP	38	48	2
NMTAP	38	48	6
NMSTR	39	0	1
NMSXR	39	0	1	96	96	4
NMTAP	39	0	6
NMTTP	39	192	0	E	0	M1
CNSLR	39	192	4	0	192	2
CNSCR	40	0	2	0	384	0
NMTTP	40	0	5	B	0	M1
NMTTP	40	192	3	B	0	M1
NMTTP	41	0	0	C	0	M1
NMSTR	41	192	2
NMSI_	41	192	2	96	336	5
NMSTR	41	192	5
NMSI_	41	192	5	96	336	2
NMTTP	42	288	1	B	0	M1
NMTTP	42	288	5	B	0	M1
BRSTR	43	0	3
NMSLL	43	0	3	96	48	7
BRTAP	43	0	7
NMSTR	43	48	7
NMSXL	43	48	7	96	96	5
NMTAP	43	96	6
NMTAP	43	144	6
NMTAP	43	192	5
NMTAP	43	240	4
EXTAP	43	288	3
NMTAP	43	336	3
NMTAP	43	336	7
NMTAP	44	0	0
NMSTR	44	0	4
NMSLR	44	0	4	96	48	1
NMSTR	44	48	1
NMSUR	44	48	1	96	96	0
NMTAP	44	96	2
NMTAP	44	144	2
NMTAP	44	192	3
NMTAP	44	240	4
EXTAP	44	288	1
EXTAP	44	288	5
NMTAP	45	0	0
NMTAP	45	0	7
NMTAP	45	48	0
NMTAP	45	48	7
NMSTR	45	96	1
NMSXR	45	96	1	96	96	2
NMSTR	45	96	6
NMSXL	45	96	6	96	96	5
NMTAP	45	144	3
NMTAP	45	144	4
BRSTR	46	0	4
NMSI_	46	0	4	96	48	0
BRSTR	46	0	5
NMSI_	46	0	5	96	48	1
NMTAP	46	48	2
NMTAP	46	48	7
BRTAP	46	96	4
BRTAP	46	96	5
BRSTR	46	192	2
NMSI_	46	192	2	96	48	6
BRSTR	46	192	3
NMSI_	46	192	3	96	48	7
NMTAP	46	240	0
NMTAP	46	240	5
BRTAP	46	288	2
BRTAP	46	288	3
BRTAP	47	0	0
BRSTR	47	0	4
NMSLR	47	0	4	96	48	0
NMSTR	47	48	0
NMSXR	47	48	0	96	96	2
NMTAP	47	96	1
NMTAP	47	144	1
NMTAP	47	192	2
NMTAP	47	240	3
EXTAP	47	288	4
NMTAP	47	336	0
NMTAP	47	336	4
NMSTR	48	0	3
NMSLL	48	0	3	96	48	6
NMTAP	48	0	7
NMSTR	48	48	6
NMSUL	48	48	6	96	96	7
NMTAP	48	96	5
NMTAP	48	144	5
NMTAP	48	192	4
NMTAP	48	240	3
EXTAP	48	288	2
EXTAP	48	288	6
EXTAP	49	0	0
EXTAP	49	0	4
NMTAP	49	48	1
NMTAP	49	48	5
NMTAP	49	96	2
NMTAP	49	96	6
NMTAP	49	144	3
NMTAP	49	144	7
NMSTR	49	192	0
BRSI_	49	192	0	96	48	5
NMSTR	49	192	4
BRSI_	49	192	4	96	48	1
BRTAP	49	288	0
BRTAP	49	288	4
EXTAP	50	0	2
EXTAP	50	0	6
NMTAP	50	48	1
NMTAP	50	48	5
NMTAP	50	96	0
NMTAP	50	96	4
NMTAP	50	144	3
NMTAP	50	144	7
NMSTR	50	192	2
BRSI_	50	192	2	96	48	5
NMSTR	50	192	6
BRSI_	50	192	6	96	48	1
BRTAP	50	288	2
BRTAP	50	288	6
NMTAP	51	0	3
NMTAP	51	0	4
NMTAP	51	48	2
NMTAP	51	48	5
NMTAP	51	96	1
NMTAP	51	96	6
NMHLD	51	144	0	96
NMHLD	51	144	7	96
NMTTP	51	288	0	E	0	M1
NMTTP	51	312	0	C	0	M1
NMTTP	51	336	4	D	0	M1
EXHLD	52	0	5	96
NMTAP	52	96	4
NMTAP	52	144	6
NMTAP	52	168	7
NMTAP	52	192	6
NMTAP	52	240	6
NMTAP	52	240	7
NMTAP	52	288	0
NMTAP	52	288	1
NMTAP	52	336	2
NMTAP	52	360	3
NMHLD	53	0	2	96
NMTAP	53	96	3
NMTAP	53	144	1
NMTAP	53	168	0
NMTAP	53	192	1
NMTAP	53	240	0
NMTAP	53	240	1
NMTAP	53	288	6
NMTAP	53	288	7
NMTAP	53	336	5
NMTAP	53	360	5
NMHLD	54	0	4	96
NMTAP	54	96	5
NMTAP	54	144	6
NMTAP	54	168	7
NMTAP	54	192	6
NMTAP	54	240	6
NMTAP	54	240	7
NMTAP	54	288	1
NMTAP	54	288	4
NMTAP	54	336	2
NMTAP	54	360	2
NMHLD	55	0	3	96
NMTAP	55	96	2
NMTAP	55	144	1
NMTAP	55	168	0
NMTAP	55	192	1
NMTAP	55	240	0
NMTAP	55	240	1
NMTAP	55	288	3
NMTAP	55	288	6
NMTTP	55	336	4	A	0	M1
NMTTP	55	336	5	A	0	M1
NMTTP	55	336	5	D	0	M1

T_REC_TAP	268
T_REC_BRK	23
T_REC_XTP	47
T_REC_BXX	4
T_REC_HLD	13
T_REC_XHO	2
T_REC_BHO	0
T_REC_BXH	0
T_REC_STR	62
T_REC_BST	8
T_REC_XST	5
T_REC_XBS	0
T_REC_TTP	39
T_REC_THO	1
T_REC_SLD	73
T_REC_BSL	4
T_REC_ALL	549
T_NUM_TAP	421
T_NUM_BRK	39
T_NUM_HLD	16
T_NUM_SLD	73
T_NUM_ALL	549
T_JUDGE_TAP	456
T_JUDGE_HLD	84
T_JUDGE_SLD	77
T_JUDGE_ALL	617
TTM_EACHPAIRS	122
TTM_SCR_TAP	210500
TTM_SCR_BRK	101400
TTM_SCR_HLD	16000
TTM_SCR_SLD	109500
TTM_SCR_ALL	437400
TTM_SCR_S	420500
TTM_SCR_SS	433500
TTM_RAT_ACV	10089

